<?xml version="1.0" encoding="UTF-8"?>
<svg xmlns="http://www.w3.org/2000/svg" xmlns:xlink="http://www.w3.org/1999/xlink" version="1.2" >
<font id="CO Rg">
<font-face  font-family="CO" units-per-em="1000" ascent="1000" descent="-300" font-style="normal" font-weight="400" font-stretch="normal" cap-height="700" x-height="526" underline-position="-109" underline-thickness="73" />
<missing-glyph  horiz-adv-x="874" d="M75 349 Q75 424 103.5 490 Q132 556 181 604.5 Q230 653 296 681.5 Q362 710 437 710 Q512 710 578 681.5 Q644 653 692.5 604.5 Q741 556 769.5 490 Q798 424 798 349 Q798 274 769.5 209 Q741 144 691.5 95 Q642 46 576.5 18 Q511 -10 436 -10 Q361 -10 295 18 Q229 46 180.5 95 Q132 144 103.5 209 Q75 274 75 349 Z M124 349 Q124 284 148.5 227.5 Q173 171 215 128.5 Q257 86 314 61.5 Q371 37 436 37 Q501 37 558 61.5 Q615 86 657.5 128.5 Q700 171 724.5 227.5 Q749 284 749 349 Q749 414 724.5 471.5 Q700 529 658 571.5 Q616 614 559 638.5 Q502 663 437 663 Q372 663 315 638.5 Q258 614 215.5 571.5 Q173 529 148.5 471.5 Q124 414 124 349 Z M317 509 Q334 520 354 529 Q371 537 394.5 543.5 Q418 550 444 550 Q481 550 506 541 Q531 532 546.5 517 Q562 502 569 483.5 Q576 465 576 446 Q576 408 559 383.5 Q542 359 502 339 Q473 325 463 315.5 Q453 306 453 292 L453 279 L442 236 L412 236 L400 279 L400 292 Q400 321 416 337.5 Q432 354 464 370 Q496 387 505.5 405 Q515 423 515 443 Q515 456 511 468 Q507 480 498 489.5 Q489 499 474 504.5 Q459 510 437 510 Q414 510 396 503.5 Q378 497 364 491 L355 482 L355 429 L317 429 L317 509 Z M389 152 Q389 168 399.5 178.5 Q410 189 427 189 Q444 189 455 178.5 Q466 168 466 152 Q466 137 455 126 Q444 115 427 115 Q410 115 399.5 126 Q389 137 389 152 Z " />
<glyph glyph-name="NULL" d="" />
<glyph glyph-name="nonmarkingreturn" unicode="&#xd;" d="" />
<glyph glyph-name="space" unicode="&#x20;" horiz-adv-x="230" d="" />
<glyph glyph-name="exclam" unicode="&#x21;" horiz-adv-x="237" d="M58 48 Q58 72 75.5 89.5 Q93 107 119 107 Q147 107 164 89.5 Q181 72 181 48 Q181 24 164 7 Q147 -10 119 -10 Q93 -10 75.5 7 Q58 24 58 48 Z M101 189 L82 225 L67 493 L67 700 L169 700 L169 493 L154 225 L136 189 L101 189 Z " />
<glyph glyph-name="quotedbl" unicode="&#x22;" horiz-adv-x="348" d="M74 461 L61 614 L61 700 L142 700 L142 614 L129 461 L74 461 Z M219 461 L206 614 L206 700 L287 700 L287 614 L274 461 L219 461 Z " />
<glyph glyph-name="numbersign" unicode="&#x23;" horiz-adv-x="552" d="M474 158 L362 158 L310 0 L253 0 L305 158 L178 158 L126 0 L69 0 L121 158 L38 158 L38 207 L137 207 L174 321 L78 321 L78 370 L190 370 L242 526 L301 526 L249 370 L374 370 L426 526 L485 526 L433 370 L514 370 L514 321 L417 321 L379 207 L474 207 L474 158 Z M195 207 L321 207 L358 321 L233 321 L195 207 Z " />
<glyph glyph-name="dollar" unicode="&#x24;" horiz-adv-x="553" d="M303 710 Q343 709 376.5 706 Q410 703 435 698 Q464 693 487 687 L487 534 L423 534 L423 629 L408 643 Q388 647 362 650 Q336 653 303 653 L303 401 Q352 386 391 369 Q430 352 457 328.5 Q484 305 498 274 Q512 243 512 201 Q512 153 496.5 116.5 Q481 80 453.5 54 Q426 28 387.5 13 Q349 -2 303 -7 L303 -102 L259 -102 L259 -10 L255 -10 Q209 -10 171.5 -6 Q134 -2 107 3 Q75 9 50 17 L50 176 L114 176 L114 76 L130 60 Q150 55 181.5 51.5 Q213 48 255 48 L259 48 L259 318 Q157 348 106.5 395.5 Q56 443 56 521 Q56 604 111.5 651.5 Q167 699 259 708 L259 787 L303 787 L303 710 Z M419 180 Q419 226 392.5 254 Q366 282 303 304 L303 51 Q360 61 389.5 94 Q419 127 419 180 Z M145 538 Q145 519 149.5 502.5 Q154 486 166.5 471 Q179 456 201 442.5 Q223 429 259 416 L259 650 Q204 642 174.5 613 Q145 584 145 538 Z " />
<glyph glyph-name="percent" unicode="&#x25;" horiz-adv-x="663" d="M295 538 Q295 451 261 411 Q227 371 167 371 Q107 371 72.5 411 Q38 451 38 539 Q38 626 72.5 665.5 Q107 705 167 705 Q227 705 261 665.5 Q295 626 295 538 Z M235 538 Q235 602 219.5 632 Q204 662 166 662 Q131 662 114.5 632 Q98 602 98 539 Q98 414 166 414 Q204 414 219.5 444.5 Q235 475 235 538 Z M625 162 Q625 75 591 35 Q557 -5 497 -5 Q437 -5 402.5 35 Q368 75 368 163 Q368 250 402.5 289.5 Q437 329 497 329 Q557 329 591 289.5 Q625 250 625 162 Z M565 162 Q565 226 549.5 256 Q534 286 496 286 Q461 286 444.5 256 Q428 226 428 163 Q428 38 496 38 Q534 38 549.5 68.5 Q565 99 565 162 Z M78 0 L532 700 L586 700 L132 0 L78 0 Z " />
<glyph glyph-name="ampersand" unicode="&#x26;" horiz-adv-x="720" d="M682 391 L682 340 L620 340 L607 325 Q594 283 574.5 238 Q555 193 527 151 L599 66 L619 52 L692 52 L692 0 L570 0 Q546 0 531.5 11 Q517 22 506 36 L469 80 Q427 39 373 14.5 Q319 -10 250 -10 Q196 -10 156.5 5 Q117 20 91 45 Q65 70 52 102 Q39 134 39 168 Q39 220 60.5 255.5 Q82 291 112 314 Q142 337 174 349.5 Q206 362 227 368 L220 376 Q197 403 183.5 427 Q170 451 162.5 472 Q155 493 152.5 511 Q150 529 150 543 Q150 576 162 606 Q174 636 197 659 Q220 682 254.5 696 Q289 710 333 710 Q375 710 406 699 Q437 688 456.5 668.5 Q476 649 485.5 623 Q495 597 495 568 Q495 531 481.5 502.5 Q468 474 446 451 Q424 428 395.5 410.5 Q367 393 337 378 L489 195 Q507 224 521.5 256.5 Q536 289 547 325 L534 340 L486 340 L486 391 L682 391 Z M274 54 Q320 54 359.5 72.5 Q399 91 433 123 L253 337 Q239 331 219 320.5 Q199 310 180 292.5 Q161 275 148 248.5 Q135 222 135 183 Q135 158 143.5 134.5 Q152 111 169 93 Q186 75 212.5 64.5 Q239 54 274 54 Z M234 559 Q234 536 246 504 Q258 472 294 430 L313 407 Q332 419 352 434 Q372 449 388.5 469 Q405 489 415 513.5 Q425 538 425 570 Q425 614 401.5 638.5 Q378 663 337 663 Q288 663 261 634 Q234 605 234 559 Z " />
<glyph glyph-name="quotesingle" unicode="&#x27;" horiz-adv-x="205" d="M74 461 L61 614 L61 700 L144 700 L144 614 L131 461 L74 461 Z " />
<glyph glyph-name="parenleft" unicode="&#x28;" horiz-adv-x="333" d="M291 -113 Q240 -81 196.5 -44 Q153 -7 120.5 36 Q88 79 69.5 129 Q51 179 51 238 L51 443 Q51 502 69.5 552.5 Q88 603 120.5 646 Q153 689 196.5 726 Q240 763 291 796 L312 769 Q234 704 186 625 Q138 546 138 443 L138 238 Q138 136 186 56.5 Q234 -23 311 -86 L291 -113 Z " />
<glyph glyph-name="parenright" unicode="&#x29;" horiz-adv-x="333" d="M22 -86 Q100 -23 147.5 56.5 Q195 136 195 238 L195 443 Q195 546 147.5 625 Q100 704 21 769 L42 796 Q93 763 137 726 Q181 689 213.5 646 Q246 603 264.5 552.5 Q283 502 283 443 L283 238 Q283 179 264.5 129 Q246 79 213.5 36 Q181 -7 137 -44 Q93 -81 42 -113 L22 -86 Z " />
<glyph glyph-name="asterisk" unicode="&#x2a;" horiz-adv-x="444" d="M240 547 L321 605 L373 631 L403 571 L352 545 L249 514 L323 443 L357 397 L304 357 L269 403 L221 492 L174 403 L139 357 L86 397 L121 443 L195 514 L92 545 L41 571 L71 631 L122 605 L203 547 L188 643 L188 700 L255 700 L255 643 L240 547 Z " />
<glyph glyph-name="plus" unicode="&#x2b;" horiz-adv-x="492" d="M45 366 L215 366 L215 538 L276 538 L276 366 L448 366 L448 307 L276 307 L276 135 L215 135 L215 307 L45 307 L45 366 Z " />
<glyph glyph-name="comma" unicode="&#x2c;" horiz-adv-x="228" d="M56 46 Q56 71 70.5 86 Q85 101 114 101 Q142 101 157 86 Q172 71 172 46 Q172 34 167 23.5 Q162 13 157 4 L93 -118 Q92 -118 86 -115 L72 -108 Q63 -104 51 -97 L91 -22 L85 -5 Q56 11 56 46 Z " />
<glyph glyph-name="hyphen" unicode="&#x2d;" horiz-adv-x="369" d="M64 331 L305 331 L305 267 L64 267 L64 331 Z " />
<glyph glyph-name="period" unicode="&#x2e;" horiz-adv-x="227" d="M55 46 Q55 67 72.5 84 Q90 101 113 101 Q137 101 154.5 84 Q172 67 172 46 Q172 23 154.5 6.5 Q137 -10 113 -10 Q90 -10 72.5 6.5 Q55 23 55 46 Z " />
<glyph glyph-name="slash" unicode="&#x2f;" horiz-adv-x="431" d="M21 -102 L349 787 L410 787 L82 -102 L21 -102 Z " />
<glyph glyph-name="zero" unicode="0" horiz-adv-x="626" d="M574 350 Q574 258 555.5 190 Q537 122 503.5 77.5 Q470 33 421.5 11.5 Q373 -10 313 -10 Q253 -10 204.5 11.5 Q156 33 122 77.5 Q88 122 69.5 190 Q51 258 51 350 Q51 443 69.5 510.5 Q88 578 122.5 622.5 Q157 667 205.5 688.5 Q254 710 313 710 Q373 710 421.5 688.5 Q470 667 503.5 622.5 Q537 578 555.5 510.5 Q574 443 574 350 Z M474 350 Q474 503 435 575 Q396 647 313 647 Q229 647 190.5 575 Q152 503 152 350 Q152 198 190.5 125.5 Q229 53 313 53 Q396 53 435 125.5 Q474 198 474 350 Z " />
<glyph glyph-name="one" unicode="1" horiz-adv-x="403" d="M134 662 Q151 662 165 667 Q179 672 189 679.5 Q199 687 205.5 695 Q212 703 214 710 L265 710 L265 66 L278 52 L386 52 L386 0 L47 0 L47 52 L153 52 L168 66 L168 595 L153 609 L47 609 L47 662 L134 662 Z " />
<glyph glyph-name="two" unicode="2" horiz-adv-x="574" d="M62 654 Q91 670 125 682 Q154 693 194 701.5 Q234 710 281 710 Q344 710 387 695.5 Q430 681 456.5 656 Q483 631 495 599 Q507 567 507 531 Q507 495 495 465 Q483 435 458 407.5 Q433 380 395.5 351.5 Q358 323 306 290 Q262 262 232.5 240.5 Q203 219 185.5 200.5 Q168 182 160.5 164.5 Q153 147 153 126 L153 77 L450 77 L464 91 L464 176 L524 176 L524 0 L56 0 L56 122 Q56 151 66 176.5 Q76 202 99 228 Q122 254 159.5 282 Q197 310 251 344 Q295 371 325 393.5 Q355 416 373 437 Q391 458 399 480 Q407 502 407 529 Q407 554 399.5 575 Q392 596 375.5 612 Q359 628 332.5 637 Q306 646 269 646 Q229 646 196 637.5 Q163 629 141 620 L124 603 L124 515 L62 515 L62 654 Z " />
<glyph glyph-name="three" unicode="3" horiz-adv-x="561" d="M65 665 Q91 677 123 687 Q150 695 186 702.5 Q222 710 264 710 Q328 710 372.5 695 Q417 680 444.5 655.5 Q472 631 484.5 598.5 Q497 566 497 532 Q497 492 487.5 462.5 Q478 433 461 412.5 Q444 392 421 379.5 Q398 367 370 360 L370 357 Q433 343 471 304 Q509 265 509 186 Q509 149 496 113.5 Q483 78 453.5 50.5 Q424 23 377 6 Q330 -11 262 -11 Q219 -11 181.5 -4 Q144 3 116 11 Q83 21 55 33 L55 174 L117 174 L117 86 L131 72 Q152 64 183 57.5 Q214 51 252 51 Q294 51 324 62 Q354 73 372.5 92 Q391 111 400 136 Q409 161 409 189 Q409 229 398 256.5 Q387 284 367.5 300.5 Q348 317 321 324 Q294 331 263 331 L191 331 L191 389 L262 389 Q290 389 315 395.5 Q340 402 358.5 417 Q377 432 388 457.5 Q399 483 399 522 Q399 547 391.5 570.5 Q384 594 367 611 Q350 628 322 638.5 Q294 649 254 649 Q219 649 190.5 642 Q162 635 142 628 L127 614 L127 525 L65 525 L65 665 Z " />
<glyph glyph-name="four" unicode="4" horiz-adv-x="588" d="M24 260 L364 710 L451 710 L451 260 L547 260 L547 201 L451 201 L451 66 L465 52 L547 52 L547 0 L252 0 L252 52 L340 52 L354 66 L354 201 L24 201 L24 260 Z M354 260 L354 606 L91 260 L354 260 Z " />
<glyph glyph-name="five" unicode="5" horiz-adv-x="559" d="M146 623 L146 413 L258 413 Q317 413 365 401.5 Q413 390 446.5 365 Q480 340 498 300.5 Q516 261 516 206 Q516 165 500 126 Q484 87 452.5 56.5 Q421 26 374 7.5 Q327 -11 264 -11 Q219 -11 181.5 -4 Q144 3 115 11 Q82 21 54 33 L54 174 L115 174 L115 91 L131 76 Q151 68 183 61 Q215 54 257 54 Q301 54 331.5 67 Q362 80 381.5 100.5 Q401 121 409.5 147.5 Q418 174 418 201 Q418 243 405 270 Q392 297 368.5 313.5 Q345 330 313.5 336.5 Q282 343 245 343 L75 343 L75 700 L480 700 L480 535 L420 535 L420 609 L406 623 L146 623 Z " />
<glyph glyph-name="six" unicode="6" horiz-adv-x="579" d="M327 422 Q369 422 407.5 410 Q446 398 475 372.5 Q504 347 521 308 Q538 269 538 216 Q538 158 519.5 115.5 Q501 73 469.5 45 Q438 17 395 3.5 Q352 -10 304 -10 Q185 -10 118.5 66 Q52 142 52 306 Q52 394 67 468 Q82 542 116.5 596 Q151 650 207 680 Q263 710 345 710 Q372 710 396.5 706.5 Q421 703 440.5 698.5 Q460 694 473 689 Q486 684 492 681 L492 538 L432 538 L432 623 L417 638 Q388 651 345 651 Q291 651 254 628 Q217 605 194 564.5 Q171 524 160 467 Q149 410 147 343 Q162 358 180.5 372 Q199 386 221.5 397 Q244 408 270.5 415 Q297 422 327 422 Z M309 361 Q282 361 258 353.5 Q234 346 213.5 334 Q193 322 176 308 Q159 294 147 281 Q151 161 188.5 105.5 Q226 50 304 50 Q371 50 408 89.5 Q445 129 445 214 Q445 288 408 324.5 Q371 361 309 361 Z " />
<glyph glyph-name="seven" unicode="7" horiz-adv-x="505" d="M488 700 L488 649 L236 0 L135 0 L413 626 L105 626 L91 612 L91 534 L32 534 L32 700 L488 700 Z " />
<glyph glyph-name="eight" unicode="8" horiz-adv-x="590" d="M517 547 Q517 516 506.5 490.5 Q496 465 479 444.5 Q462 424 438.5 408.5 Q415 393 390 381 Q423 368 450.5 352.5 Q478 337 498.5 315 Q519 293 530 263.5 Q541 234 541 194 Q541 144 523 106 Q505 68 472 42 Q439 16 393 3 Q347 -10 292 -10 Q224 -10 177.5 5 Q131 20 102.5 45 Q74 70 61.5 101 Q49 132 49 165 Q49 211 64.5 243.5 Q80 276 103 298 Q126 320 152.5 333 Q179 346 201 354 Q174 367 150 383 Q126 399 109 419.5 Q92 440 82 466 Q72 492 72 524 Q72 566 88 600.5 Q104 635 134 659.5 Q164 684 206.5 697 Q249 710 301 710 Q362 710 403.5 695 Q445 680 470 656 Q495 632 506 603 Q517 574 517 547 Z M290 322 Q281 324 271.5 327.5 Q262 331 254 333 Q243 328 223 317 Q203 306 182.5 287 Q162 268 147 240.5 Q132 213 132 177 Q132 152 140.5 129 Q149 106 167.5 88.5 Q186 71 217 60.5 Q248 50 293 50 Q366 50 407 85.5 Q448 121 448 179 Q448 209 437.5 231 Q427 253 407 269.5 Q387 286 357.5 298.5 Q328 311 290 322 Z M155 543 Q155 518 164 499 Q173 480 191.5 465 Q210 450 238 437 Q266 424 304 411 Q311 409 319 406 Q327 403 332 402 Q352 411 371 424 Q390 437 405 454 Q420 471 429 491 Q438 511 438 533 Q438 557 429.5 578.5 Q421 600 404 616 Q387 632 360.5 641.5 Q334 651 297 651 Q231 651 193 621 Q155 591 155 543 Z " />
<glyph glyph-name="nine" unicode="9" horiz-adv-x="579" d="M252 278 Q209 278 171 290 Q133 302 104 327.5 Q75 353 58 392 Q41 431 41 484 Q41 542 60 584.5 Q79 627 111 655 Q143 683 185.5 696.5 Q228 710 275 710 Q393 710 460 634 Q527 558 527 394 Q527 306 512 232 Q497 158 462.5 104 Q428 50 372 20 Q316 -10 234 -10 Q207 -10 182.5 -6.5 Q158 -3 138.5 1.5 Q119 6 106 11.5 Q93 17 87 20 L87 162 L147 162 L147 77 L162 62 Q194 49 234 49 Q287 49 324 72 Q361 95 384 135.5 Q407 176 418 232.5 Q429 289 431 356 Q417 341 398.5 327 Q380 313 357.5 302 Q335 291 308.5 284.5 Q282 278 252 278 Z M270 340 Q297 340 321 347.5 Q345 355 365.5 366.5 Q386 378 402.5 392 Q419 406 431 419 Q427 538 390 594 Q353 650 275 650 Q208 650 171 610.5 Q134 571 134 487 Q134 412 171 376 Q208 340 270 340 Z " />
<glyph glyph-name="colon" unicode="&#x3a;" horiz-adv-x="244" d="M64 46 Q64 67 81 84 Q98 101 122 101 Q146 101 163 84 Q180 67 180 46 Q180 23 163 6.5 Q146 -10 122 -10 Q98 -10 81 6.5 Q64 23 64 46 Z M64 481 Q64 503 81 519.5 Q98 536 122 536 Q146 536 163 519.5 Q180 503 180 481 Q180 458 163 442 Q146 426 122 426 Q98 426 81 442 Q64 458 64 481 Z " />
<glyph glyph-name="semicolon" unicode="&#x3b;" horiz-adv-x="250" d="M69 46 Q69 71 83.5 86 Q98 101 127 101 Q155 101 170 86 Q185 71 185 46 Q185 34 180 23.5 Q175 13 170 4 L106 -118 Q105 -118 99 -115 L85 -108 Q76 -104 64 -97 L104 -22 L98 -5 Q69 11 69 46 Z M69 481 Q69 503 86 519.5 Q103 536 127 536 Q150 536 167.5 519.5 Q185 503 185 481 Q185 458 167.5 442 Q150 426 127 426 Q103 426 86 442 Q69 458 69 481 Z " />
<glyph glyph-name="less" unicode="&#x3c;" horiz-adv-x="520" d="M40 311 L40 356 L455 531 L455 466 L133 334 L455 199 L455 135 L40 311 Z " />
<glyph glyph-name="equal" unicode="&#x3d;" horiz-adv-x="535" d="M66 441 L469 441 L469 382 L66 382 L66 441 Z M66 283 L469 283 L469 224 L66 224 L66 283 Z " />
<glyph glyph-name="greater" unicode="&#x3e;" horiz-adv-x="520" d="M65 199 L387 334 L65 466 L65 531 L480 356 L480 311 L65 135 L65 199 Z " />
<glyph glyph-name="question" unicode="&#x3f;" horiz-adv-x="492" d="M35 644 Q62 662 95 677 Q123 689 160.5 699.5 Q198 710 243 710 Q304 710 345.5 695.5 Q387 681 413 657 Q439 633 450.5 602 Q462 571 462 539 Q462 477 434 436 Q406 395 338 363 Q291 340 274 322.5 Q257 305 257 281 L257 259 L239 189 L194 189 L174 259 L174 281 Q174 305 180.5 323.5 Q187 342 200 357 Q213 372 232.5 384.5 Q252 397 278 411 Q305 425 322 439.5 Q339 454 348 469 Q357 484 360 500.5 Q363 517 363 534 Q363 556 356 576.5 Q349 597 334 613 Q319 629 294 638.5 Q269 648 233 648 Q195 648 164 637.5 Q133 627 111 616 L93 598 L93 513 L35 513 L35 644 Z M155 48 Q155 73 172 90 Q189 107 216 107 Q244 107 260.5 90 Q277 73 277 48 Q277 24 260.5 7 Q244 -10 216 -10 Q189 -10 172 7 Q155 24 155 48 Z " />
<glyph glyph-name="at" unicode="&#x40;" horiz-adv-x="850" d="M644 -51 Q602 -70 547 -82.5 Q492 -95 426 -95 Q402 -95 364.5 -91 Q327 -87 284.5 -74.5 Q242 -62 199.5 -38.5 Q157 -15 123 25 Q89 65 67.5 123 Q46 181 46 263 Q46 359 76.5 441 Q107 523 163 583 Q219 643 297.5 676.5 Q376 710 472 710 Q557 710 621.5 682.5 Q686 655 729 609 Q772 563 793.5 503 Q815 443 815 378 Q815 298 794.5 244 Q774 190 742 156 Q710 122 672 107.5 Q634 93 599 93 Q504 93 480 163 Q471 152 457.5 140.5 Q444 129 428.5 120 Q413 111 395.5 105.5 Q378 100 361 100 Q301 100 263 139 Q225 178 225 266 Q225 332 244 381.5 Q263 431 291.5 464 Q320 497 354.5 513 Q389 529 421 529 Q453 529 479.5 514.5 Q506 500 520 482 L531 509 Q535 517 540 519.5 Q545 522 556 522 L601 522 L552 252 Q549 235 549 218 Q549 203 552.5 189.5 Q556 176 564 165.5 Q572 155 586 148.5 Q600 142 621 142 Q644 142 668.5 155 Q693 168 713 196.5 Q733 225 745.5 269.5 Q758 314 758 378 Q758 435 740 486.5 Q722 538 686 577.5 Q650 617 596.5 640.5 Q543 664 472 664 Q389 664 321 634 Q253 604 204.5 550.5 Q156 497 129.5 423.5 Q103 350 103 263 Q103 192 121.5 141 Q140 90 169.5 55 Q199 20 236 -0.5 Q273 -21 309.5 -32 Q346 -43 378 -46 Q410 -49 431 -49 Q494 -49 543 -39.5 Q592 -30 633 -15 L644 -51 Z M386 159 Q406 159 430 170.5 Q454 182 474 199 Q473 204 473 208 L473 219 Q473 229 474 240.5 Q475 252 477 263 L508 441 Q496 455 475 462.5 Q454 470 434 470 Q407 470 383 452.5 Q359 435 342 406 Q325 377 315 339.5 Q305 302 305 262 Q305 208 327 183.5 Q349 159 386 159 Z " />
<glyph glyph-name="A" unicode="A" horiz-adv-x="671" d="M452 204 L190 204 L145 64 L157 52 L223 52 L223 0 L-5 0 L-5 52 L58 52 L72 66 L291 702 L378 702 L601 64 L616 52 L678 52 L678 0 L426 0 L426 52 L488 52 L500 64 L452 204 Z M210 263 L432 263 L319 597 L210 263 Z " />
<glyph glyph-name="B" unicode="B" horiz-adv-x="661" d="M44 52 L110 52 L125 66 L125 634 L110 648 L44 648 L44 700 L343 700 Q455 700 519.5 657.5 Q584 615 584 526 Q584 463 553 424.5 Q522 386 465 368 L465 366 Q536 349 576 306 Q616 263 616 188 Q616 93 551 46.5 Q486 0 372 0 L44 0 L44 52 Z M222 642 L222 390 L337 390 Q412 390 450 420 Q488 450 488 515 Q488 642 337 642 L222 642 Z M222 332 L222 58 L368 58 Q516 58 516 197 Q516 266 479 299 Q442 332 368 332 L222 332 Z " />
<glyph glyph-name="C" unicode="C" horiz-adv-x="587" d="M543 27 Q511 13 466 1 Q421 -11 356 -10 Q210 -9 130 78 Q50 165 50 350 Q50 441 72.5 509 Q95 577 136.5 621.5 Q178 666 236.5 688 Q295 710 367 710 Q430 710 475 701 Q520 692 534 684 L534 531 L471 531 L471 620 L459 633 Q419 647 367 647 Q255 647 203.5 573.5 Q152 500 152 357 Q152 203 204.5 129 Q257 55 372 55 Q427 55 466 68 L479 82 L479 175 L543 175 L543 27 Z " />
<glyph glyph-name="D" unicode="D" horiz-adv-x="701" d="M44 52 L110 52 L125 66 L125 634 L110 648 L44 648 L44 700 L340 700 Q412 700 469.5 679.5 Q527 659 567.5 617 Q608 575 630 510 Q652 445 652 357 Q652 266 630 199 Q608 132 567.5 87.5 Q527 43 469.5 21.5 Q412 0 340 0 L44 0 L44 52 Z M222 61 L340 61 Q449 61 499 133.5 Q549 206 549 357 Q549 502 498.5 570.5 Q448 639 340 639 L222 639 L222 61 Z " />
<glyph glyph-name="E" unicode="E" horiz-adv-x="626" d="M222 641 L222 386 L405 386 L419 400 L419 466 L475 466 L475 251 L419 251 L419 317 L406 330 L222 330 L222 59 L506 59 L520 73 L520 161 L580 161 L580 0 L44 0 L44 52 L110 52 L125 66 L125 634 L110 648 L44 648 L44 700 L570 700 L570 540 L510 540 L510 628 L496 641 L222 641 Z " />
<glyph glyph-name="F" unicode="F" horiz-adv-x="612" d="M222 639 L222 373 L419 373 L432 386 L432 450 L487 450 L487 238 L432 238 L432 302 L419 314 L222 314 L222 66 L235 52 L318 52 L318 0 L44 0 L44 52 L110 52 L125 66 L125 634 L110 648 L44 648 L44 700 L582 700 L582 540 L523 540 L523 626 L508 639 L222 639 Z " />
<glyph glyph-name="G" unicode="G" horiz-adv-x="641" d="M549 277 L549 27 Q516 13 470 1.5 Q424 -10 358 -10 Q285 -10 227.5 11 Q170 32 130.5 76 Q91 120 70.5 188 Q50 256 50 350 Q50 441 72.5 508.5 Q95 576 136.5 621 Q178 666 236.5 688 Q295 710 368 710 Q434 710 482.5 701 Q531 692 545 684 L545 531 L482 531 L482 620 L471 631 Q449 639 424 643.5 Q399 648 368 648 Q255 648 203.5 574.5 Q152 501 152 358 Q152 204 204.5 127.5 Q257 51 373 51 Q395 51 421.5 54.5 Q448 58 462 65 L462 277 L448 291 L389 291 L389 343 L612 343 L612 291 L563 291 L549 277 Z " />
<glyph glyph-name="H" unicode="H" horiz-adv-x="741" d="M520 327 L222 327 L222 66 L235 52 L303 52 L303 0 L44 0 L44 52 L110 52 L125 66 L125 634 L110 648 L44 648 L44 700 L303 700 L303 648 L235 648 L222 634 L222 389 L520 389 L520 634 L506 648 L439 648 L439 700 L697 700 L697 648 L631 648 L616 634 L616 66 L631 52 L697 52 L697 0 L439 0 L439 52 L506 52 L520 66 L520 327 Z " />
<glyph glyph-name="I" unicode="I" horiz-adv-x="346" d="M125 634 L110 648 L44 648 L44 700 L303 700 L303 648 L235 648 L222 634 L222 66 L235 52 L303 52 L303 0 L44 0 L44 52 L110 52 L125 66 L125 634 Z " />
<glyph glyph-name="J" unicode="J" horiz-adv-x="526" d="M315 634 L301 648 L234 648 L234 700 L493 700 L493 648 L427 648 L413 634 L413 190 Q413 146 400 109.5 Q387 73 360.5 46.5 Q334 20 294 5 Q254 -10 200 -10 Q161 -10 131.5 -3.5 Q102 3 81 11.5 Q60 20 46.5 28.5 Q33 37 27 41 L27 175 L92 175 L92 82 L103 69 Q138 50 185 50 Q251 50 283 81 Q315 112 315 183 L315 634 Z " />
<glyph glyph-name="K" unicode="K" horiz-adv-x="705" d="M395 378 L613 63 L629 52 L690 52 L690 0 L433 0 L433 52 L499 52 L506 60 L322 330 L222 330 L222 66 L235 52 L303 52 L303 0 L44 0 L44 52 L110 52 L125 66 L125 634 L110 648 L44 648 L44 700 L303 700 L303 648 L235 648 L222 634 L222 386 L322 386 L525 640 L519 648 L457 648 L457 700 L680 700 L680 648 L622 648 L606 637 L395 378 Z " />
<glyph glyph-name="L" unicode="L" horiz-adv-x="580" d="M222 62 L477 62 L491 76 L491 169 L553 169 L553 0 L44 0 L44 52 L110 52 L125 66 L125 634 L110 648 L44 648 L44 700 L303 700 L303 648 L235 648 L222 634 L222 62 Z " />
<glyph glyph-name="M" unicode="M" horiz-adv-x="836" d="M44 52 L110 52 L125 66 L125 634 L110 648 L44 648 L44 700 L215 700 L421 326 L629 700 L793 700 L793 648 L726 648 L712 634 L712 66 L725 52 L793 52 L793 0 L540 0 L540 52 L606 52 L621 66 L621 552 L438 229 L376 229 L200 544 L200 66 L214 52 L281 52 L281 0 L44 0 L44 52 Z " />
<glyph glyph-name="N" unicode="N" horiz-adv-x="733" d="M44 0 L44 52 L110 52 L124 66 L124 634 L110 648 L44 648 L44 700 L209 700 L543 166 L543 634 L529 648 L462 648 L462 700 L697 700 L697 648 L631 648 L616 634 L616 -2 L546 -2 L198 553 L198 66 L212 52 L279 52 L279 0 L44 0 Z " />
<glyph glyph-name="O" unicode="O" horiz-adv-x="667" d="M49 351 Q49 439 69.5 506 Q90 573 127.5 618.5 Q165 664 217 687 Q269 710 333 710 Q397 710 449.5 687 Q502 664 539.5 618.5 Q577 573 597.5 506 Q618 439 618 351 Q618 262 597.5 194.5 Q577 127 539.5 81.5 Q502 36 449.5 13 Q397 -10 333 -10 Q269 -10 217 13 Q165 36 127.5 81.5 Q90 127 69.5 194.5 Q49 262 49 351 Z M151 351 Q151 200 196.5 127.5 Q242 55 333 55 Q425 55 470.5 127.5 Q516 200 516 351 Q516 501 470.5 573 Q425 645 333 645 Q242 645 196.5 573 Q151 501 151 351 Z " />
<glyph glyph-name="P" unicode="P" horiz-adv-x="643" d="M125 634 L110 648 L44 648 L44 700 L361 700 Q479 700 545.5 649 Q612 598 612 488 Q612 375 544.5 320 Q477 265 357 265 L222 265 L222 66 L235 52 L312 52 L312 0 L44 0 L44 52 L110 52 L125 66 L125 634 Z M222 640 L222 326 L357 326 Q439 326 476.5 364 Q514 402 514 483 Q514 564 477 602 Q440 640 361 640 L222 640 Z " />
<glyph glyph-name="Q" unicode="Q" horiz-adv-x="667" d="M49 351 Q49 439 69.5 506 Q90 573 127.5 618.5 Q165 664 217 687 Q269 710 333 710 Q397 710 449.5 687 Q502 664 539.5 618.5 Q577 573 597.5 506 Q618 439 618 351 Q618 212 570 126 Q522 40 439 8 L528 -79 L553 -90 L617 -90 L617 -142 L501 -142 Q479 -142 460.5 -133.5 Q442 -125 430 -112 L340 -10 L333 -10 Q269 -10 217 13 Q165 36 127.5 81.5 Q90 127 69.5 194.5 Q49 262 49 351 Z M151 351 Q151 200 196.5 127.5 Q242 55 333 55 Q425 55 470.5 127.5 Q516 200 516 351 Q516 501 470.5 573 Q425 645 333 645 Q242 645 196.5 573 Q151 501 151 351 Z " />
<glyph glyph-name="R" unicode="R" horiz-adv-x="683" d="M125 634 L110 648 L44 648 L44 700 L353 700 Q470 700 536.5 654.5 Q603 609 603 509 Q603 469 589.5 437.5 Q576 406 553.5 383.5 Q531 361 501 347.5 Q471 334 438 330 L438 329 Q473 323 498.5 301.5 Q524 280 541 228 L596 65 L613 52 L664 52 L664 0 L549 0 Q525 0 513.5 12 Q502 24 496 41 L438 227 Q430 252 419.5 267 Q409 282 397.5 289.5 Q386 297 372.5 299 Q359 301 345 301 L222 301 L222 66 L235 52 L307 52 L307 0 L44 0 L44 52 L110 52 L125 66 L125 634 Z M222 640 L222 361 L349 361 Q427 361 465 395.5 Q503 430 503 504 Q503 640 351 640 L222 640 Z " />
<glyph glyph-name="S" unicode="S" horiz-adv-x="557" d="M512 201 Q512 147 493 107.5 Q474 68 440 42 Q406 16 359 3 Q312 -10 257 -10 Q211 -10 174 -6 Q137 -2 110 3 Q78 9 53 17 L53 180 L117 180 L117 80 L133 63 Q153 58 184 54.5 Q215 51 257 51 Q335 51 377 84.5 Q419 118 419 180 Q419 232 384 262.5 Q349 293 265 317 Q162 347 110.5 395 Q59 443 59 521 Q59 567 77 602 Q95 637 127.5 661 Q160 685 204.5 697.5 Q249 710 303 710 Q343 710 376.5 706.5 Q410 703 435 698 Q464 693 488 687 L488 531 L424 531 L424 625 L409 640 Q389 643 362.5 646.5 Q336 650 303 650 Q230 650 189 620.5 Q148 591 148 538 Q148 517 154 498.5 Q160 480 176.5 463.5 Q193 447 223.5 432 Q254 417 303 402 Q352 387 391 369.5 Q430 352 457 328.5 Q484 305 498 274 Q512 243 512 201 Z " />
<glyph glyph-name="T" unicode="T" horiz-adv-x="579" d="M28 700 L550 700 L550 538 L491 538 L491 625 L477 639 L338 639 L338 66 L352 52 L424 52 L424 0 L154 0 L154 52 L226 52 L241 66 L241 639 L102 639 L88 625 L88 538 L28 538 L28 700 Z " />
<glyph glyph-name="U" unicode="U" horiz-adv-x="699" d="M509 634 L494 648 L428 648 L428 700 L669 700 L669 648 L602 648 L588 634 L588 235 Q588 110 524.5 50 Q461 -10 351 -10 Q240 -10 175.5 50 Q111 110 111 235 L111 634 L97 648 L30 648 L30 700 L291 700 L291 648 L224 648 L211 634 L211 234 Q211 143 247 98 Q283 53 359 53 Q438 53 473.5 98 Q509 143 509 234 L509 634 Z " />
<glyph glyph-name="V" unicode="V" horiz-adv-x="655" d="M496 648 L425 648 L425 700 L653 700 L653 648 L596 648 L581 634 L372 -2 L286 -2 L70 635 L57 648 L-1 648 L-1 700 L250 700 L250 648 L183 648 L171 634 L342 107 L507 634 L496 648 Z " />
<glyph glyph-name="W" unicode="W" horiz-adv-x="962" d="M961 648 L899 648 L885 634 L707 -2 L626 -2 L482 521 L340 -2 L258 -2 L74 636 L62 648 L1 648 L1 700 L249 700 L249 648 L187 648 L174 634 L310 122 L462 700 L527 700 L679 123 L813 634 L801 648 L734 648 L734 700 L961 700 L961 648 Z " />
<glyph glyph-name="X" unicode="X" horiz-adv-x="674" d="M72 52 L82 59 L286 355 L102 637 L89 648 L26 648 L26 700 L289 700 L289 648 L219 648 L210 639 L346 425 L495 641 L489 648 L426 648 L426 700 L648 700 L648 648 L584 648 L571 638 L382 373 L586 60 L597 52 L662 52 L662 0 L397 0 L397 52 L466 52 L475 61 L325 299 L164 60 L171 52 L232 52 L232 0 L13 0 L13 52 L72 52 Z " />
<glyph glyph-name="Y" unicode="Y" horiz-adv-x="629" d="M270 281 L68 635 L53 648 L0 648 L0 700 L249 700 L249 648 L184 648 L173 636 L330 356 L482 635 L472 648 L404 648 L404 700 L624 700 L624 648 L571 648 L556 634 L367 298 L367 66 L381 52 L448 52 L448 0 L190 0 L190 52 L256 52 L270 66 L270 281 Z " />
<glyph glyph-name="Z" unicode="Z" horiz-adv-x="593" d="M550 0 L40 0 L40 52 L423 640 L130 640 L117 627 L117 540 L53 540 L53 700 L534 700 L534 648 L154 61 L473 61 L487 74 L487 161 L550 161 L550 0 Z " />
<glyph glyph-name="bracketleft" unicode="&#x5b;" horiz-adv-x="301" d="M67 -102 L67 786 L270 786 L270 740 L152 740 L152 -57 L270 -57 L270 -102 L67 -102 Z " />
<glyph glyph-name="backslash" unicode="&#x5c;" horiz-adv-x="431" d="M21 787 L82 787 L410 -102 L349 -102 L21 787 Z " />
<glyph glyph-name="bracketright" unicode="&#x5d;" horiz-adv-x="301" d="M234.004 -102 L234.004 786 L31.0165 786 L31.0165 740 L149.009 740 L149.009 -57 L31.0165 -57 L31.0165 -102 L234.004 -102 Z " />
<glyph glyph-name="asciicircum" unicode="&#x5e;" horiz-adv-x="430" d="M320 383 L212 633 L109 383 L46 383 L182 700 L243 700 L384 383 L320 383 Z " />
<glyph glyph-name="underscore" unicode="&#x5f;" horiz-adv-x="492" d="M0 -80 L492 -80 L492 -130 L0 -130 L0 -80 Z " />
<glyph glyph-name="grave" unicode="&#x60;" horiz-adv-x="359" d="M241 582 L228 582 L92 697 L134 747 L152 747 L266 609 L241 582 Z " />
<glyph glyph-name="a" unicode="a" horiz-adv-x="531" d="M520 0 L395 0 Q370 0 361.5 11.5 Q353 23 353 40 L353 69 L350 69 Q339 57 324.5 43 Q310 29 291 17 Q272 5 248 -2.5 Q224 -10 195 -10 Q156 -10 127.5 2 Q99 14 79.5 34.5 Q60 55 50.5 82.5 Q41 110 41 141 Q41 178 53.5 207 Q66 236 88.5 255.5 Q111 275 141 285 Q171 295 206 295 L348 295 L348 352 Q348 378 344 401 Q340 424 328 441 Q316 458 294.5 468 Q273 478 237 478 Q214 478 192 473 Q170 468 152 463 L138 450 L138 367 L74 367 L74 501 Q106 512 152.5 524 Q199 536 262 536 Q313 536 347 522.5 Q381 509 401.5 486 Q422 463 430.5 432 Q439 401 439 366 L439 65 L453 49 L520 49 L520 0 Z M226 60 Q258 60 289.5 77.5 Q321 95 348 122 L348 236 L229 236 Q186 236 159.5 216 Q133 196 133 144 Q133 125 137 109.5 Q141 94 151.5 83 Q162 72 180 66 Q198 60 226 60 Z " />
<glyph glyph-name="b" unicode="b" horiz-adv-x="574" d="M149 730 Q174 730 182.5 719 Q191 708 191 691 L191 461 Q202 474 217 487 Q232 500 250 511 Q268 522 289.5 529 Q311 536 335 536 Q375 536 410.5 520 Q446 504 472.5 470.5 Q499 437 514.5 386.5 Q530 336 530 267 Q530 200 513.5 148.5 Q497 97 468 61.5 Q439 26 399.5 8 Q360 -10 313 -10 Q270 -10 240 6.5 Q210 23 188 43 L186 43 L186 40 Q186 23 177 11.5 Q168 0 144 0 L19 0 L19 49 L85 49 L100 64 L100 664 L85 678 L19 678 L19 730 L149 730 Z M312 467 Q248 467 191 402 L191 109 Q208 90 236 70.5 Q264 51 305 50 Q364 49 399.5 102 Q435 155 435 266 Q435 372 403.5 419.5 Q372 467 312 467 Z " />
<glyph glyph-name="c" unicode="c" horiz-adv-x="463" d="M420 26 Q397 8 360 -1 Q323 -10 281 -10 Q233 -10 189.5 6 Q146 22 113 54.5 Q80 87 61 136.5 Q42 186 42 254 Q42 322 61.5 374.5 Q81 427 114.5 463 Q148 499 193 517.5 Q238 536 288 536 Q337 536 372.5 527 Q408 518 421 513 L421 378 L358 378 L358 456 L345 468 Q334 472 321 474.5 Q308 477 294 477 Q220 477 178.5 423.5 Q137 370 137 258 Q137 148 182 99.5 Q227 51 304 51 Q339 51 371 58.5 Q403 66 420 76 L420 26 Z " />
<glyph glyph-name="d" unicode="d" horiz-adv-x="575" d="M431 0 Q406 0 398 11.5 Q390 23 390 40 L390 68 L388 68 Q377 55 362 41.5 Q347 28 328 16.5 Q309 5 287 -2.5 Q265 -10 240 -10 Q199 -10 163.5 6 Q128 22 101.5 55 Q75 88 59.5 138 Q44 188 44 257 Q44 324 60 376 Q76 428 105 463.5 Q134 499 174 517.5 Q214 536 261 536 Q301 536 331.5 523 Q362 510 384 493 L384 664 L370 678 L303 678 L303 730 L434 730 Q458 730 466.5 719 Q475 708 475 691 L475 64 L490 49 L556 49 L556 0 L431 0 Z M263 59 Q326 59 384 123 L384 424 Q367 442 339 458.5 Q311 475 272 475 Q212 475 176 422.5 Q140 370 140 258 Q140 153 171.5 106 Q203 59 263 59 Z " />
<glyph glyph-name="e" unicode="e" horiz-adv-x="507" d="M454 239 L137 239 Q142 139 187 94.5 Q232 50 310 50 Q352 50 386 58.5 Q420 67 440 76 L440 24 Q414 10 376 0 Q338 -10 281 -10 Q231 -10 187.5 5.5 Q144 21 112 53.5 Q80 86 61.5 136.5 Q43 187 43 257 Q43 328 61 380.5 Q79 433 109.5 467.5 Q140 502 181 519 Q222 536 268 536 Q309 536 345.5 522 Q382 508 409 481 Q436 454 452 413.5 Q468 373 468 321 L468 252 L454 239 Z M266 479 Q212 479 177.5 434.5 Q143 390 137 298 L376 298 L376 327 Q376 406 345 442.5 Q314 479 266 479 Z " />
<glyph glyph-name="f" unicode="f" horiz-adv-x="355" d="M202 474 L202 64 L216 49 L296 49 L296 0 L31 0 L31 49 L97 49 L111 64 L111 474 L31 474 L31 524 L97 524 L111 538 L111 562 Q111 646 148.5 693 Q186 740 277 740 Q315 740 340.5 736 Q366 732 374 730 L374 627 L317 627 L317 678 L304 691 Q290 694 278 694 Q236 694 219 662.5 Q202 631 202 567 L202 524 L334 524 L334 474 L202 474 Z " />
<glyph glyph-name="g" unicode="g" horiz-adv-x="539" d="M457 367 Q457 324 440.5 292 Q424 260 396.5 239 Q369 218 332 207.5 Q295 197 255 197 Q231 197 208.5 200 Q186 203 166 211 Q127 192 127 162 Q127 142 141 131 Q155 120 190 120 L347 120 Q383 120 412.5 112 Q442 104 464 88.5 Q486 73 498 49.5 Q510 26 510 -4 Q510 -48 489 -80.5 Q468 -113 432 -135.5 Q396 -158 347.5 -169 Q299 -180 244 -180 Q143 -180 86 -154.5 Q29 -129 29 -68 Q29 -45 36.5 -27 Q44 -9 56 5 Q68 19 83 28.5 Q98 38 112 45 Q82 56 64.5 78 Q47 100 47 130 Q47 159 66 186 Q85 213 123 232 Q91 253 73 286 Q55 319 55 367 Q55 410 71 442 Q87 474 114 495 Q141 516 177.5 526 Q214 536 255 536 Q275 536 294.5 533.5 Q314 531 332 526 L509 526 L509 474 L421 474 L419 472 Q437 452 447 426 Q457 400 457 367 Z M370 367 Q370 427 337.5 456.5 Q305 486 255 486 Q205 486 173 456.5 Q141 427 141 367 Q141 306 173 276.5 Q205 247 255 247 Q305 247 337.5 276.5 Q370 306 370 367 Z M166 38 Q159 35 149.5 28 Q140 21 131 10 Q122 -1 116 -16 Q110 -31 110 -50 Q110 -91 143 -109.5 Q176 -128 250 -128 Q286 -128 318 -122.5 Q350 -117 374 -105 Q398 -93 411.5 -73.5 Q425 -54 425 -27 Q425 6 402.5 22 Q380 38 329 38 L166 38 Z " />
<glyph glyph-name="h" unicode="h" horiz-adv-x="600" d="M341 0 L341 49 L401 49 L416 64 L416 362 Q416 381 412 400 Q408 419 398 433 Q388 447 371 456 Q354 465 329 465 Q290 465 257 450 Q224 435 192 401 L192 64 L206 49 L266 49 L266 0 L20 0 L20 49 L86 49 L101 64 L101 664 L86 678 L20 678 L20 730 L150 730 Q175 730 183.5 719 Q192 708 192 691 L192 461 Q203 473 219.5 486 Q236 499 256 510.5 Q276 522 300.5 529 Q325 536 353 536 Q395 536 424.5 523.5 Q454 511 472.5 489 Q491 467 499 438 Q507 409 507 376 L507 64 L521 49 L587 49 L587 0 L341 0 Z " />
<glyph glyph-name="i" unicode="i" horiz-adv-x="306" d="M163 526 Q187 526 195.5 514.5 Q204 503 204 486 L204 64 L218 49 L285 49 L285 0 L32 0 L32 49 L99 49 L113 64 L113 459 L99 474 L32 474 L32 526 L163 526 Z M93 677 Q93 701 107 715.5 Q121 730 149 730 Q176 730 190.5 715.5 Q205 701 205 677 Q205 653 190.5 638 Q176 623 149 623 Q121 623 107 638 Q93 653 93 677 Z " />
<glyph glyph-name="j" unicode="j" horiz-adv-x="274" d="M82 677 Q82 701 96.5 715.5 Q111 730 138 730 Q166 730 180 715.5 Q194 701 194 677 Q194 653 180 638 Q166 623 138 623 Q111 623 96.5 638 Q82 653 82 677 Z M-47 -69 L10 -69 L10 -121 L22 -133 Q26 -134 32 -134 Q72 -134 87.5 -98.5 Q103 -63 103 -4 L103 459 L88 474 L22 474 L22 526 L152 526 Q177 526 185.5 514.5 Q194 503 194 486 L194 0 Q194 -41 185.5 -74 Q177 -107 158.5 -130.5 Q140 -154 109.5 -167 Q79 -180 34 -180 Q0 -180 -21 -177 Q-42 -174 -47 -173 L-47 -69 Z " />
<glyph glyph-name="k" unicode="k" horiz-adv-x="596" d="M342 309 L514 61 L529 49 L583 49 L583 0 L338 0 L338 49 L401 49 L408 58 L270 266 L192 266 L192 64 L206 49 L266 49 L266 0 L20 0 L20 49 L86 49 L101 64 L101 664 L86 678 L20 678 L20 730 L150 730 Q175 730 183.5 719 Q192 708 192 691 L192 313 L270 313 L421 468 L417 474 L359 474 L359 526 L572 526 L572 474 L510 474 L493 462 L342 309 Z " />
<glyph glyph-name="l" unicode="l" horiz-adv-x="294" d="M150 730 Q175 730 183.5 719 Q192 708 192 691 L192 64 L206 49 L273 49 L273 0 L21 0 L21 49 L87 49 L102 64 L102 664 L87 678 L21 678 L21 730 L150 730 Z " />
<glyph glyph-name="m" unicode="m" horiz-adv-x="911" d="M31 0 L31 49 L97 49 L111 64 L111 459 L97 474 L31 474 L31 526 L155 526 Q180 526 189 514.5 Q198 503 198 486 L198 458 L200 458 Q211 470 227.5 483.5 Q244 497 264.5 509 Q285 521 310.5 528.5 Q336 536 365 536 Q422 536 453.5 512 Q485 488 499 449 Q509 461 525.5 476 Q542 491 564 504.5 Q586 518 613 527 Q640 536 672 536 Q712 536 739.5 523.5 Q767 511 784.5 489 Q802 467 809.5 438 Q817 409 817 376 L817 64 L831 49 L898 49 L898 0 L652 0 L652 49 L712 49 L726 64 L726 362 Q726 381 723 400 Q720 419 711 433 Q702 447 685.5 456 Q669 465 643 465 Q569 465 509 401 Q509 395 509.5 388.5 Q510 382 510 376 L510 64 L524 49 L590 49 L590 0 L345 0 L345 49 L404 49 L419 64 L419 362 Q419 381 416 399.5 Q413 418 404 432 Q395 446 378.5 455 Q362 464 336 464 Q301 464 267.5 449 Q234 434 202 400 L202 64 L217 49 L277 49 L277 0 L31 0 Z " />
<glyph glyph-name="n" unicode="n" horiz-adv-x="612" d="M31 0 L31 49 L97 49 L111 64 L111 459 L97 474 L31 474 L31 526 L155 526 Q180 526 189 514.5 Q198 503 198 486 L198 458 L200 458 Q211 470 227.5 484 Q244 498 264.5 509.5 Q285 521 309.5 528.5 Q334 536 363 536 Q406 536 435.5 523.5 Q465 511 483 489 Q501 467 509 438 Q517 409 517 376 L517 64 L532 49 L598 49 L598 0 L352 0 L352 49 L412 49 L426 64 L426 362 Q426 381 422.5 400 Q419 419 410 433 Q401 447 384 456 Q367 465 340 465 Q301 465 267.5 450 Q234 435 202 401 L202 64 L217 49 L277 49 L277 0 L31 0 Z " />
<glyph glyph-name="o" unicode="o" horiz-adv-x="540" d="M498 263 Q498 193 479.5 141.5 Q461 90 429.5 56.5 Q398 23 357 6.5 Q316 -10 270 -10 Q224 -10 183 6.5 Q142 23 111 56.5 Q80 90 61.5 141.5 Q43 193 43 263 Q43 332 61.5 383.5 Q80 435 111 469 Q142 503 183 519.5 Q224 536 270 536 Q316 536 357 519.5 Q398 503 429.5 469 Q461 435 479.5 383.5 Q498 332 498 263 Z M403 263 Q403 372 368 424.5 Q333 477 270 477 Q207 477 172.5 424.5 Q138 372 138 263 Q138 154 172.5 101 Q207 48 270 48 Q333 48 368 101 Q403 154 403 263 Z " />
<glyph glyph-name="p" unicode="p" horiz-adv-x="575" d="M19 526 L144 526 Q168 526 177 514.5 Q186 503 186 486 L186 459 L188 459 Q199 472 214 485.5 Q229 499 247.5 510 Q266 521 288 528.5 Q310 536 335 536 Q375 536 411 520 Q447 504 473.5 471 Q500 438 515.5 387.5 Q531 337 531 268 Q531 201 515 149.5 Q499 98 470 62.5 Q441 27 401 8.5 Q361 -10 314 -10 Q273 -10 242.5 2.5 Q212 15 191 32 L191 -106 L205 -121 L277 -121 L277 -170 L19 -170 L19 -121 L85 -121 L100 -106 L100 459 L85 474 L19 474 L19 526 Z M312 467 Q248 467 191 402 L191 101 Q208 83 235.5 66.5 Q263 50 303 50 Q363 50 399 102.5 Q435 155 435 267 Q435 372 403 419.5 Q371 467 312 467 Z " />
<glyph glyph-name="q" unicode="q" horiz-adv-x="575" d="M297 -170 L297 -121 L370 -121 L384 -106 L384 64 Q373 51 358 38 Q343 25 325 14.5 Q307 4 285.5 -3 Q264 -10 240 -10 Q199 -10 163.5 6 Q128 22 101.5 55.5 Q75 89 59.5 139.5 Q44 190 44 259 Q44 326 60.5 377.5 Q77 429 106 464 Q135 499 175 517.5 Q215 536 262 536 Q304 536 335 519.5 Q366 503 387 483 L389 483 L389 486 Q389 503 397.5 514.5 Q406 526 431 526 L556 526 L556 474 L490 474 L475 461 L475 -106 L490 -121 L556 -121 L556 -170 L297 -170 Z M263 59 Q326 59 384 123 L384 416 Q367 436 338.5 455 Q310 474 270 475 Q210 476 175 423.5 Q140 371 140 260 Q140 154 171.5 106.5 Q203 59 263 59 Z " />
<glyph glyph-name="r" unicode="r" horiz-adv-x="421" d="M217 49 L294 49 L294 0 L31 0 L31 49 L97 49 L111 64 L111 459 L97 474 L31 474 L31 526 L155 526 Q180 526 189 514.5 Q198 503 198 486 L198 455 L200 455 Q207 464 221.5 477.5 Q236 491 256.5 504 Q277 517 303 526.5 Q329 536 361 536 Q373 536 381.5 535 Q390 534 397 533 L397 368 L340 368 L340 443 L325 457 Q283 454 251.5 436 Q220 418 202 398 L202 64 L217 49 Z " />
<glyph glyph-name="s" unicode="s" horiz-adv-x="457" d="M417 155 Q417 116 401.5 85 Q386 54 358.5 33 Q331 12 293.5 1 Q256 -10 211 -10 Q173 -10 142.5 -7 Q112 -4 91 1 Q66 5 47 12 L47 137 L106 137 L106 69 L119 55 Q136 52 159.5 49.5 Q183 47 215 47 Q268 47 299.5 70.5 Q331 94 331 137 Q331 155 325 169.5 Q319 184 304.5 195.5 Q290 207 266.5 216 Q243 225 208 234 Q161 246 131 261.5 Q101 277 83 296.5 Q65 316 58 339.5 Q51 363 51 389 Q51 455 103 495.5 Q155 536 249 536 Q281 536 307.5 533 Q334 530 354 527 Q377 523 396 519 L396 395 L337 395 L337 462 L325 473 Q311 476 291 478.5 Q271 481 245 481 Q191 481 162.5 459 Q134 437 134 402 Q134 386 138.5 373 Q143 360 155 348.5 Q167 337 188.5 328 Q210 319 245 310 Q338 287 377.5 251 Q417 215 417 155 Z " />
<glyph glyph-name="t" unicode="t" horiz-adv-x="336" d="M188 474 L188 64 L202 49 L326 49 L326 0 Q297 -3 271 -5 Q248 -7 224.5 -8.5 Q201 -10 187 -10 Q142 -10 119.5 9.5 Q97 29 97 78 L97 474 L24 474 L24 524 L83 524 L97 538 L131 670 L188 670 L188 524 L305 524 L305 474 L188 474 Z " />
<glyph glyph-name="u" unicode="u" horiz-adv-x="594" d="M453 526 Q477 526 485.5 514.5 Q494 503 494 486 L494 64 L509 49 L575 49 L575 0 L450 0 Q425 0 417 11.5 Q409 23 409 40 L409 67 L407 67 Q395 55 379 41 Q363 27 343 16 Q323 5 298.5 -2.5 Q274 -10 246 -10 Q202 -10 172.5 2.5 Q143 15 125.5 37 Q108 59 101 88 Q94 117 94 150 L94 459 L80 474 L13 474 L13 526 L143 526 Q167 526 176 513.5 Q185 501 185 482 L185 163 Q185 144 188.5 125.5 Q192 107 202.5 92.5 Q213 78 231 69 Q249 60 279 60 Q311 60 341.5 74.5 Q372 89 403 122 L403 459 L389 474 L322 474 L322 526 L453 526 Z " />
<glyph glyph-name="v" unicode="v" horiz-adv-x="572" d="M509 474 L494 459 L325 -1 L252 -1 L76 459 L61 474 L2 474 L2 526 L242 526 L242 474 L184 474 L172 459 L300 106 L426 459 L413 474 L350 474 L350 526 L566 526 L566 474 L509 474 Z " />
<glyph glyph-name="w" unicode="w" horiz-adv-x="832" d="M458 526 L580 118 L686 459 L673 474 L611 474 L611 526 L824 526 L824 474 L765 474 L751 461 L602 -1 L534 -1 L416 368 L303 -1 L233 -1 L77 461 L65 474 L3 474 L3 526 L244 526 L244 474 L183 474 L170 459 L279 117 L401 526 L458 526 Z " />
<glyph glyph-name="x" unicode="x" horiz-adv-x="599" d="M72 49 L83 58 L251 260 L99 460 L82 474 L23 474 L23 526 L272 526 L272 474 L207 474 L201 467 L308 321 L435 467 L428 474 L369 474 L369 526 L578 526 L578 474 L521 474 L508 464 L343 279 L511 62 L528 49 L584 49 L584 0 L335 0 L335 49 L401 49 L407 56 L287 215 L157 57 L165 49 L224 49 L224 0 L15 0 L15 49 L72 49 Z " />
<glyph glyph-name="y" unicode="y" horiz-adv-x="575" d="M511 474 L497 459 L290 -106 L303 -121 L366 -121 L366 -170 L132 -170 L132 -121 L210 -121 L225 -106 L258 -15 L77 460 L64 474 L4 474 L4 526 L243 526 L243 474 L184 474 L170 459 L301 104 L430 459 L418 474 L354 474 L354 526 L569 526 L569 474 L511 474 Z " />
<glyph glyph-name="z" unicode="z" horiz-adv-x="512" d="M352 474 L122 474 L109 460 L109 381 L47 381 L47 526 L461 526 L461 482 L148 53 L397 53 L411 66 L411 146 L473 146 L473 0 L37 0 L37 42 L352 474 Z " />
<glyph glyph-name="braceleft" unicode="&#x7b;" horiz-adv-x="349" d="M320 -104 Q290 -107 264 -107 Q183 -107 142.5 -68 Q102 -29 102 59 L102 228 Q102 256 100 274 Q98 292 91 302.5 Q84 313 70.5 318 Q57 323 33 325 L33 373 Q56 375 70 380 Q84 385 91 395.5 Q98 406 100 423.5 Q102 441 102 470 L102 624 Q102 712 142.5 751 Q183 790 264 790 Q290 790 320 787 L320 750 Q313 751 300 750.5 Q287 750 281 750 Q239 748 215 724 Q191 700 191 640 L191 494 Q191 454 187.5 428.5 Q184 403 175 387.5 Q166 372 151 363.5 Q136 355 114 350 L114 348 Q137 342 152 334 Q167 326 175.5 310 Q184 294 187.5 269 Q191 244 191 204 L191 43 Q191 -17 214.5 -41 Q238 -65 280 -67 Q286 -67 299.5 -67.5 Q313 -68 320 -67 L320 -104 Z " />
<glyph glyph-name="bar" unicode="&#x7c;" horiz-adv-x="192" d="M67 -102 L67 787 L125 787 L125 -102 L67 -102 Z " />
<glyph glyph-name="braceright" unicode="&#x7d;" horiz-adv-x="349" d="M29.0195 -104 Q59.0177 -107 85.0161 -107 Q166.011 -107 206.509 -68 Q247.006 -29 247.006 59 L247.006 228 Q247.006 256 249.006 274 Q251.006 292 258.006 302.5 Q265.005 313 278.504 318 Q292.003 323 316.002 325 L316.002 373 Q293.003 375 279.004 380 Q265.005 385 258.006 395.5 Q251.006 406 249.006 423.5 Q247.006 441 247.006 470 L247.006 624 Q247.006 712 206.509 751 Q166.011 790 85.0161 790 Q59.0177 790 29.0195 787 L29.0195 750 Q36.0191 751 49.0183 750.5 Q62.0175 750 68.0172 750 Q110.015 748 134.013 724 Q158.012 700 158.012 640 L158.012 494 Q158.012 454 161.511 428.5 Q165.011 403 174.011 387.5 Q183.01 372 198.009 363.5 Q213.008 355 235.007 350 L235.007 348 Q212.008 342 197.009 334 Q182.01 326 173.511 310 Q165.011 294 161.511 269 Q158.012 244 158.012 204 L158.012 43 Q158.012 -17 134.513 -41 Q111.015 -65 69.0171 -67 Q63.0175 -67 49.5183 -67.5 Q36.0191 -68 29.0195 -67 L29.0195 -104 Z " />
<glyph glyph-name="asciitilde" unicode="&#x7e;" horiz-adv-x="626" d="M66 293 Q94 340 129.5 367 Q165 394 207 394 Q241 394 271.5 382 Q302 370 329.5 355.5 Q357 341 382.5 329 Q408 317 432 317 Q451 317 466 325 L528 389 Q531 387 534 384 L539 379 Q542 376 546 374 Q554 367 563 359 Q534 312 498 285.5 Q462 259 420 259 Q387 259 357 271 Q327 283 299.5 298 Q272 313 247 325 Q222 337 198 337 Q180 337 162 328 L100 264 L66 293 Z " />
<glyph glyph-name="uni00A0" unicode="&#xa0;" horiz-adv-x="231" d="" />
<glyph glyph-name="exclamdown" unicode="&#xa1;" horiz-adv-x="229" d="M54 482.003 Q54 458.004 71.5 440.505 Q89 423.007 115 423.007 Q143 423.007 160 440.505 Q177 458.004 177 482.003 Q177 506.001 160 523 Q143 539.999 115 539.999 Q89 539.999 71.5 523 Q54 506.001 54 482.003 Z M97 341.012 L78 305.014 L63 37.0301 L63 -169.957 L165 -169.957 L165 37.0301 L150 305.014 L132 341.012 L97 341.012 Z " />
<glyph glyph-name="cent" unicode="&#xa2;" horiz-adv-x="487" d="M299 624 L301 624 Q349 624 384 615.5 Q419 607 432 601 L432 469 L377 469 L377 547 L365 559 Q351 563 337.5 565.5 Q324 568 307 568 L299 568 L299 135 L315 135 Q350 135 382 143 Q414 151 432 160 L432 114 Q409 97 373.5 88.5 Q338 80 299 79 L299 -10 L256 -10 L256 81 Q212 86 173.5 104 Q135 122 106.5 154 Q78 186 62 233 Q46 280 46 343 Q46 407 62 455.5 Q78 504 106 538.5 Q134 573 172.5 593.5 Q211 614 256 621 L256 710 L299 710 L299 624 Z M136 346 Q136 255 167.5 206 Q199 157 256 142 L256 561 Q198 545 167 492 Q136 439 136 346 Z " />
<glyph glyph-name="sterling" unicode="&#xa3;" horiz-adv-x="605" d="M43 52 L105 52 L119 66 L119 322 L43 322 L43 369 L119 369 L119 497 Q119 541 132.5 580 Q146 619 174 648 Q202 677 245 693.5 Q288 710 348 710 Q390 710 425 704.5 Q460 699 486 693 Q516 685 540 676 L540 536 L481 536 L481 623 L468 635 Q448 640 420.5 644.5 Q393 649 358 649 Q286 649 251 613.5 Q216 578 216 497 L216 369 L385 369 L385 322 L216 322 L216 182 Q216 148 211 114 Q206 80 199 66 L475 66 L489 80 L489 170 L548 170 L548 0 L43 0 L43 52 Z " />
<glyph glyph-name="currency" unicode="&#xa4;" horiz-adv-x="500" d="M98 525 L181 441 Q195 451 212.5 456.5 Q230 462 250 462 Q270 462 287 456.5 Q304 451 320 441 L403 525 L447 481 L364 398 Q374 382 379.5 364.5 Q385 347 385 327 Q385 289 364 257 L447 175 L403 131 L320 213 Q287 194 250 194 Q211 194 180 214 L97 131 L53 175 L136 258 Q117 288 117 327 Q117 366 137 397 L54 481 L98 525 Z M169 327 Q169 310 175.5 294.5 Q182 279 193.5 267.5 Q205 256 219.5 249.5 Q234 243 251 243 Q267 243 282 249.5 Q297 256 308 267.5 Q319 279 325.5 294.5 Q332 310 332 327 Q332 345 325.5 360.5 Q319 376 308 387.5 Q297 399 282 405.5 Q267 412 251 412 Q234 412 219.5 405.5 Q205 399 193.5 387.5 Q182 376 175.5 360.5 Q169 345 169 327 Z " />
<glyph glyph-name="yen" unicode="&#xa5;" horiz-adv-x="677" d="M118 355 L256 355 L95 635 L80 648 L27 648 L27 700 L274 700 L274 648 L209 648 L199 636 L356 355 L357 355 L509 635 L499 648 L431 648 L431 700 L649 700 L649 648 L596 648 L581 634 L425 355 L570 355 L570 308 L399 308 L394 298 L394 233 L570 233 L570 186 L394 186 L394 66 L408 52 L475 52 L475 0 L217 0 L217 52 L283 52 L298 66 L298 186 L118 186 L118 233 L298 233 L298 283 L283 308 L118 308 L118 355 Z " />
<glyph glyph-name="brokenbar" unicode="&#xa6;" horiz-adv-x="202" d="M72 -102 L72 273 L130 273 L130 -102 L72 -102 Z M72 413 L72 787 L130 787 L130 413 L72 413 Z " />
<glyph glyph-name="section" unicode="&#xa7;" horiz-adv-x="552" d="M46 280 Q46 325 67 356 Q88 387 125 406 Q90 429 75 459.5 Q60 490 60 534 Q60 576 77.5 608.5 Q95 641 127.5 663.5 Q160 686 204.5 698 Q249 710 303 710 Q341 710 374 706.5 Q407 703 431 699 Q459 694 482 688 L482 539 L427 539 L427 631 L412 645 Q393 649 363 652 Q333 655 299 655 Q224 655 183 627.5 Q142 600 142 550 Q142 528 148 511.5 Q154 495 171 481.5 Q188 468 218 456 Q248 444 296 432 Q347 419 386 404.5 Q425 390 452 370 Q479 350 492.5 321 Q506 292 506 250 Q506 204 484 173.5 Q462 143 426 124 Q460 101 475.5 70.5 Q491 40 491 -4 Q491 -46 473.5 -78.5 Q456 -111 423.5 -133.5 Q391 -156 346.5 -168 Q302 -180 248 -180 Q210 -180 177.5 -177 Q145 -174 121 -169 Q93 -165 70 -158 L70 -9 L125 -9 L125 -101 L139 -115 Q159 -119 189 -122 Q219 -125 254 -125 Q328 -125 368.5 -97.5 Q409 -70 409 -20 Q409 2 403 18.5 Q397 35 380.5 49 Q364 63 334 75 Q304 87 256 99 Q205 112 166 126 Q127 140 100 160 Q73 180 59.5 209 Q46 238 46 280 Z M284 179 Q317 171 344 161.5 Q371 152 393 142 Q412 158 423 179 Q434 200 434 228 Q434 255 425.5 273 Q417 291 397.5 304.5 Q378 318 346 328.5 Q314 339 268 351 Q200 368 158 388 Q119 354 119 302 Q119 275 127 257 Q135 239 154.5 225.5 Q174 212 205.5 201.5 Q237 191 284 179 Z " />
<glyph glyph-name="dieresis" unicode="&#xa8;" horiz-adv-x="333" d="M54 658 Q54 677 66.5 690.5 Q79 704 99 704 Q119 704 131 690.5 Q143 677 143 658 Q143 639 131 626.5 Q119 614 99 614 Q79 614 66.5 626.5 Q54 639 54 658 Z M190 658 Q190 677 202.5 690.5 Q215 704 235 704 Q255 704 267.5 690.5 Q280 677 280 658 Q280 639 267.5 626.5 Q255 614 235 614 Q215 614 202.5 626.5 Q190 639 190 658 Z " />
<glyph glyph-name="copyright" unicode="&#xa9;" horiz-adv-x="811" d="M550 149 Q527 136 495 127.5 Q463 119 415 119 Q314 119 258 177 Q202 235 202 352 Q202 462 260.5 520.5 Q319 579 423 579 Q468 579 500 571.5 Q532 564 544 556 L544 438 L499 438 L499 507 L490 516 Q476 522 459.5 526 Q443 530 423 530 Q353 529 317.5 485.5 Q282 442 282 357 Q282 170 426 170 Q465 170 495 182 L506 193 L506 264 L550 264 L550 149 Z M46 349 Q46 423 74 488.5 Q102 554 151 603 Q200 652 265 680.5 Q330 709 405 709 Q479 709 544.5 680.5 Q610 652 659 603 Q708 554 736.5 488.5 Q765 423 765 349 Q765 274 736.5 209 Q708 144 659 95 Q610 46 544.5 18 Q479 -10 405 -10 Q330 -10 265 18 Q200 46 151 95 Q102 144 74 209 Q46 274 46 349 Z M85 349 Q85 282 110 223 Q135 164 178.5 120.5 Q222 77 280.5 51.5 Q339 26 405 26 Q471 26 529 51.5 Q587 77 630.5 120.5 Q674 164 699.5 223 Q725 282 725 349 Q725 416 699.5 475 Q674 534 630.5 578 Q587 622 529 647.5 Q471 673 405 673 Q339 673 280.5 647.5 Q222 622 178.5 578 Q135 534 110 475 Q85 416 85 349 Z " />
<glyph glyph-name="ordfeminine" unicode="&#xaa;" horiz-adv-x="402" d="M353 426 L353 385 L265 385 Q249 385 244 392 Q239 399 239 410 L239 428 L238 428 Q233 422 224.5 413.5 Q216 405 204.5 397.5 Q193 390 178 384.5 Q163 379 145 379 Q118 379 100 386.5 Q82 394 71 407 Q60 420 55 437.5 Q50 455 50 474 Q50 517 79 540 Q108 563 154 563 L235 563 L235 598 Q235 613 233 625.5 Q231 638 224.5 647.5 Q218 657 205.5 662.5 Q193 668 172 668 Q148 668 132 662 L124 653 L124 606 L72 606 L72 690 Q80 694 112.5 702 Q145 710 196 710 Q228 710 249.5 702 Q271 694 283.5 679.5 Q296 665 301.5 646.5 Q307 628 307 607 L307 434 L315 426 L353 426 Z M172 429 Q194 429 210.5 440 Q227 451 235 459 L235 526 L174 526 Q154 526 137.5 516 Q121 506 121 480 Q121 456 132 442.5 Q143 429 172 429 Z " />
<glyph glyph-name="guillemotleft" unicode="&#xab;" horiz-adv-x="503" d="M38.0162 239 L204.006 46 L255.003 46 L116.011 255 L255.003 463 L204.006 463 L38.0162 271 L38.0162 239 Z M238.016 239 L404.006 46 L455.003 46 L316.011 255 L455.003 463 L404.006 463 L238.016 271 L238.016 239 Z " />
<glyph glyph-name="logicalnot" unicode="&#xac;" horiz-adv-x="535" d="M66 366 L469 366 L469 153 L410 153 L410 307 L66 307 L66 366 Z " />
<glyph glyph-name="uni00AD" unicode="&#xad;" horiz-adv-x="369" d="M64 331 L305 331 L305 267 L64 267 L64 331 Z " />
<glyph glyph-name="registered" unicode="&#xae;" horiz-adv-x="671" d="M84 421 Q84 368 103.5 321 Q123 274 157.5 239 Q192 204 237.5 183.5 Q283 163 336 163 Q388 163 434 183.5 Q480 204 514 239.5 Q548 275 568 321.5 Q588 368 588 421 Q588 474 568 521 Q548 568 514 603.5 Q480 639 434 659.5 Q388 680 336 680 Q283 680 237.5 659.5 Q192 639 157.5 603.5 Q123 568 103.5 521 Q84 474 84 421 Z M285 537 L285 434 L343 434 Q405 434 405 486 Q405 537 343 537 L285 537 Z M222 300 L228 306 L228 538 L222 543 L192 543 L192 579 L344 579 Q401 579 432.5 558 Q464 537 464 492 Q464 455 441.5 436 Q419 417 393 412 L393 411 Q407 406 415.5 396.5 Q424 387 432 368 L457 306 L464 300 L487 300 L487 264 L425 264 Q413 264 407.5 269.5 Q402 275 400 283 L375 360 Q368 382 358.5 387 Q349 392 337 392 L285 392 L285 306 L290 300 L323 300 L323 264 L192 264 L192 300 L222 300 Z M49 421 Q49 481 71.5 533.5 Q94 586 133 625 Q172 664 224 687 Q276 710 335 710 Q395 710 447 687 Q499 664 538 625 Q577 586 599.5 533.5 Q622 481 622 421 Q622 361 599.5 308.5 Q577 256 538 217 Q499 178 447 155 Q395 132 335 132 Q276 132 224 155 Q172 178 133 217 Q94 256 71.5 308.5 Q49 361 49 421 Z " />
<glyph glyph-name="macron" unicode="&#xaf;" horiz-adv-x="392" d="M68 681 L323 681 L323 626 L68 626 L68 681 Z " />
<glyph glyph-name="degree" unicode="&#xb0;" horiz-adv-x="389" d="M44 559 Q44 590 56 617.5 Q68 645 88.5 665.5 Q109 686 136 698 Q163 710 194 710 Q225 710 252.5 698 Q280 686 300.5 665.5 Q321 645 333 617.5 Q345 590 345 559 Q345 528 333 501 Q321 474 300.5 453.5 Q280 433 252.5 421 Q225 409 194 409 Q163 409 136 421 Q109 433 88.5 453.5 Q68 474 56 501 Q44 528 44 559 Z M96 559 Q96 538 104 520 Q112 502 125.5 488.5 Q139 475 156.5 467 Q174 459 194 459 Q214 459 231.5 467 Q249 475 262.5 488.5 Q276 502 284 520 Q292 538 292 559 Q292 580 284 598 Q276 616 262.5 630 Q249 644 231.5 652 Q214 660 194 660 Q174 660 156.5 652 Q139 644 125.5 630 Q112 616 104 598 Q96 580 96 559 Z " />
<glyph glyph-name="plusminus" unicode="&#xb1;" horiz-adv-x="537" d="M67 428 L239 428 L239 586 L297 586 L297 428 L470 428 L470 370 L297 370 L297 211 L239 211 L239 370 L67 370 L67 428 Z M67 145 L470 145 L470 87 L67 87 L67 145 Z " />
<glyph glyph-name="twosuperior" unicode="&#xb2;" horiz-adv-x="290" d="M37 809 Q51 816 68 822 Q82 827 101.5 831 Q121 835 144 835 Q174 835 195 828 Q216 821 229 809.5 Q242 798 247.5 782.5 Q253 767 253 750 Q253 716 231 691.5 Q209 667 159 638 Q119 615 105 602.5 Q91 590 91 574 L91 549 L214 549 L221 556 L221 595 L260 595 L260 506 L33 506 L33 567 Q33 584 37.5 596.5 Q42 609 53 620.5 Q64 632 81 643.5 Q98 655 124 671 Q164 694 179 710.5 Q194 727 194 749 Q194 769 181.5 782 Q169 795 137 795 Q120 795 107 791.5 Q94 788 85 785 L77 777 L77 740 L37 740 L37 809 Z " />
<glyph glyph-name="threesuperior" unicode="&#xb3;" horiz-adv-x="285" d="M38 815 Q51 821 67 825 Q81 829 98.5 832 Q116 835 136 835 Q167 835 189 828 Q211 821 224 809 Q237 797 243 782 Q249 767 249 752 Q249 717 233.5 698.5 Q218 680 194 672 L194 670 Q221 665 238 647 Q255 629 255 596 Q255 578 248.5 561 Q242 544 228 530.5 Q214 517 191 509 Q168 501 135 501 Q115 501 96.5 504 Q78 507 64 511 Q47 515 33 521 L33 591 L75 591 L75 555 L82 548 Q89 544 101.5 541.5 Q114 539 129 539 Q164 539 179 556 Q194 573 194 596 Q194 630 177 642 Q160 654 134 654 L96 654 L96 691 L134 691 Q157 691 173 702.5 Q189 714 189 747 Q189 767 175 782 Q161 797 129 797 Q115 797 104 794 Q93 791 87 789 L79 782 L79 745 L38 745 L38 815 Z " />
<glyph glyph-name="acute" unicode="&#xb4;" horiz-adv-x="359" d="M117 582 L92 609 L206 747 L225 747 L267 697 L132 582 L117 582 Z " />
<glyph glyph-name="paragraph" unicode="&#xb6;" horiz-adv-x="617" d="M353 700 L353 -170 L302 -170 L302 250 Q239 250 188.5 264 Q138 278 102.5 306.5 Q67 335 47.5 377.5 Q28 420 28 478 Q28 536 47.5 578 Q67 620 103.5 647 Q140 674 191.5 687 Q243 700 306 700 L353 700 Z M514 634 L514 -170 L462 -170 L462 700 L576 700 L576 648 L528 648 L514 634 Z " />
<glyph glyph-name="periodcentered" unicode="&#xb7;" horiz-adv-x="242" d="M63 373 Q63 394 80.5 411 Q98 428 121 428 Q145 428 162.5 411 Q180 394 180 373 Q180 350 162.5 333.5 Q145 317 121 317 Q98 317 80.5 333.5 Q63 350 63 373 Z " />
<glyph glyph-name="cedilla" unicode="&#xb8;" horiz-adv-x="400" d="M173 -180 Q144 -180 117 -173 Q90 -166 74 -156 L88 -127 Q99 -133 121.5 -139.5 Q144 -146 166 -146 Q186 -146 202 -138.5 Q218 -131 218 -110 Q218 -90 192 -78.5 Q166 -67 123 -63 L123 -50 L171 11 L222 9 L184 -41 Q226 -44 254 -59 Q282 -74 282 -107 Q282 -128 272.5 -142 Q263 -156 248 -164.5 Q233 -173 213.5 -176.5 Q194 -180 173 -180 Z " />
<glyph glyph-name="onesuperior" unicode="&#xb9;" horiz-adv-x="217" d="M75 810 Q90 810 99 818.5 Q108 827 110 834 L146 834 L146 545 L153 539 L202 539 L202 506 L31 506 L31 539 L79 539 L86 545 L86 772 L79 779 L31 779 L31 810 L75 810 Z " />
<glyph glyph-name="ordmasculine" unicode="&#xba;" horiz-adv-x="383" d="M336 545 Q336 502 325 471 Q314 440 294.5 419.5 Q275 399 248.5 389.5 Q222 380 191 380 Q161 380 134.5 389.5 Q108 399 89 419.5 Q70 440 59 471 Q48 502 48 545 Q48 630 89 670 Q130 710 191 710 Q222 710 248.5 700 Q275 690 294.5 670 Q314 650 325 619 Q336 588 336 545 Z M272 545 Q272 670 191 670 Q153 670 132 639.5 Q111 609 111 545 Q111 481 132 451 Q153 421 191 421 Q231 421 251.5 451 Q272 481 272 545 Z " />
<glyph glyph-name="guillemotright" unicode="&#xbb;" horiz-adv-x="503" d="M265 239 L99 46 L48 46 L187 255 L48 463 L99 463 L265 271 L265 239 Z M465 239 L299 46 L248 46 L387 255 L248 463 L299 463 L465 271 L465 239 Z " />
<glyph glyph-name="onequarter" unicode="&#xbc;" horiz-adv-x="593" d="M449 328 L505 328 L505 126 L548 126 L548 92 L505 92 L505 39 L511 33 L548 33 L548 0 L398 0 L398 33 L439 33 L446 39 L446 92 L293 92 L293 123 L449 328 Z M446 126 L446 262 L339 126 L446 126 Z M105 680 Q120 680 129 688.5 Q138 697 140 704 L176 704 L176 415 L183 409 L232 409 L232 376 L61 376 L61 409 L109 409 L116 415 L116 642 L109 649 L61 649 L61 680 L105 680 Z M38 0 L492 700 L546 700 L92 0 L38 0 Z " />
<glyph glyph-name="onehalf" unicode="&#xbd;" horiz-adv-x="618" d="M351 303 Q365 310 382 316 Q396 321 415.5 325 Q435 329 458 329 Q488 329 509 322 Q530 315 543 303.5 Q556 292 561.5 276.5 Q567 261 567 244 Q567 210 545 185.5 Q523 161 473 132 Q433 109 419 96.5 Q405 84 405 68 L405 43 L528 43 L535 50 L535 89 L574 89 L574 0 L347 0 L347 61 Q347 78 351.5 90.5 Q356 103 367 114.5 Q378 126 395 137.5 Q412 149 438 165 Q478 188 493 204.5 Q508 221 508 243 Q508 263 495.5 276 Q483 289 451 289 Q434 289 421 285.5 Q408 282 399 279 L391 271 L391 234 L351 234 L351 303 Z M105 680 Q120 680 129 688.5 Q138 697 140 704 L176 704 L176 415 L183 409 L232 409 L232 376 L61 376 L61 409 L109 409 L116 415 L116 642 L109 649 L61 649 L61 680 L105 680 Z M38 0 L492 700 L546 700 L92 0 L38 0 Z " />
<glyph glyph-name="threequarters" unicode="&#xbe;" horiz-adv-x="631" d="M486 328 L542 328 L542 126 L585 126 L585 92 L542 92 L542 39 L548 33 L585 33 L585 0 L435 0 L435 33 L476 33 L483 39 L483 92 L330 92 L330 123 L486 328 Z M483 126 L483 262 L376 126 L483 126 Z M75 0 L529 700 L583 700 L129 0 L75 0 Z M55 685 Q68 691 84 695 Q98 699 115.5 702 Q133 705 153 705 Q184 705 206 698 Q228 691 241 679 Q254 667 260 652 Q266 637 266 622 Q266 587 250.5 568.5 Q235 550 211 542 L211 540 Q238 535 255 517 Q272 499 272 466 Q272 448 265.5 431 Q259 414 245 400.5 Q231 387 208 379 Q185 371 152 371 Q132 371 113.5 374 Q95 377 81 381 Q64 385 50 391 L50 461 L92 461 L92 425 L99 418 Q106 414 118.5 411.5 Q131 409 146 409 Q181 409 196 426 Q211 443 211 466 Q211 500 194 512 Q177 524 151 524 L113 524 L113 561 L151 561 Q174 561 190 572.5 Q206 584 206 617 Q206 637 192 652 Q178 667 146 667 Q132 667 121 664 Q110 661 104 659 L96 652 L96 615 L55 615 L55 685 Z " />
<glyph glyph-name="questiondown" unicode="&#xbf;" horiz-adv-x="486" d="M454.002 -113.961 Q427.004 -131.96 394.006 -146.959 Q366.008 -158.958 328.51 -169.457 Q291.012 -179.957 246.015 -179.957 Q185.019 -179.957 143.521 -165.458 Q102.024 -150.958 76.0252 -126.96 Q50.0268 -102.961 38.5275 -71.9633 Q27.0282 -40.9651 27.0282 -8.9671 Q27.0282 53.0291 55.0265 94.0266 Q83.0248 135.024 151.021 167.022 Q198.018 190.021 215.017 207.52 Q232.016 225.019 232.016 249.017 L232.016 271.016 L250.015 341.012 L295.012 341.012 L315.011 271.016 L315.011 249.017 Q315.011 225.019 308.511 206.52 Q302.011 188.021 289.012 173.022 Q276.013 158.023 256.514 145.523 Q237.015 133.024 211.017 119.025 Q184.019 105.026 167.02 90.5268 Q150.021 76.0277 141.021 61.0286 Q132.022 46.0295 129.022 29.5305 Q126.022 13.0316 126.022 -3.96741 Q126.022 -25.9661 133.022 -46.4648 Q140.021 -66.9636 155.02 -82.9626 Q170.019 -98.9616 195.018 -108.461 Q220.016 -117.96 256.014 -117.96 Q294.012 -117.96 325.01 -107.461 Q356.008 -96.9617 378.007 -85.9624 L396.006 -67.9635 L396.006 17.0313 L454.002 17.0313 L454.002 -113.961 Z M334.009 482.003 Q334.009 457.004 317.01 440.005 Q300.012 423.007 273.013 423.007 Q245.015 423.007 228.516 440.005 Q212.017 457.004 212.017 482.003 Q212.017 506.001 228.516 523 Q245.015 539.999 273.013 539.999 Q300.012 539.999 317.01 523 Q334.009 506.001 334.009 482.003 Z " />
<glyph glyph-name="Agrave" unicode="&#xc0;" horiz-adv-x="671" d="M452 204 L190 204 L145 64 L157 52 L223 52 L223 0 L-5 0 L-5 52 L58 52 L72 66 L291 702 L378 702 L601 64 L616 52 L678 52 L678 0 L426 0 L426 52 L488 52 L500 64 L452 204 Z M210 263 L432 263 L319 597 L210 263 Z M343 756 L329 756 L193 871 L235 922 L254 922 L368 783 L343 756 Z " />
<glyph glyph-name="Aacute" unicode="&#xc1;" horiz-adv-x="671" d="M452 204 L190 204 L145 64 L157 52 L223 52 L223 0 L-5 0 L-5 52 L58 52 L72 66 L291 702 L378 702 L601 64 L616 52 L678 52 L678 0 L426 0 L426 52 L488 52 L500 64 L452 204 Z M210 263 L432 263 L319 597 L210 263 Z M323 756 L298 783 L412 922 L430 922 L472 871 L337 756 L323 756 Z " />
<glyph glyph-name="Acircumflex" unicode="&#xc2;" horiz-adv-x="671" d="M452 204 L190 204 L145 64 L157 52 L223 52 L223 0 L-5 0 L-5 52 L58 52 L72 66 L291 702 L378 702 L601 64 L616 52 L678 52 L678 0 L426 0 L426 52 L488 52 L500 64 L452 204 Z M210 263 L432 263 L319 597 L210 263 Z M216 756 L197 778 L318 924 L351 924 L471 778 L453 756 L437 756 L335 855 L231 756 L216 756 Z " />
<glyph glyph-name="Atilde" unicode="&#xc3;" horiz-adv-x="671" d="M452 204 L190 204 L145 64 L157 52 L223 52 L223 0 L-5 0 L-5 52 L58 52 L72 66 L291 702 L378 702 L601 64 L616 52 L678 52 L678 0 L426 0 L426 52 L488 52 L500 64 L452 204 Z M210 263 L432 263 L319 597 L210 263 Z M494 894 L494 855 Q494 815 474 794 Q454 773 417 773 Q394 773 373 781 Q352 789 332.5 799 Q313 809 294.5 817 Q276 825 258 825 Q236 825 227 816 Q218 807 218 798 L218 764 L175 764 L175 800 Q175 845 196.5 866 Q218 887 255 887 Q277 887 297.5 878.5 Q318 870 337.5 859.5 Q357 849 376.5 840.5 Q396 832 416 832 Q438 832 446 842 Q454 852 454 861 L454 894 L494 894 Z " />
<glyph glyph-name="Adieresis" unicode="&#xc4;" horiz-adv-x="671" d="M452 204 L190 204 L145 64 L157 52 L223 52 L223 0 L-5 0 L-5 52 L58 52 L72 66 L291 702 L378 702 L601 64 L616 52 L678 52 L678 0 L426 0 L426 52 L488 52 L500 64 L452 204 Z M210 263 L432 263 L319 597 L210 263 Z M221 833 Q221 851 233.5 864.5 Q246 878 266 878 Q286 878 298 864.5 Q310 851 310 833 Q310 814 298 801.5 Q286 789 266 789 Q246 789 233.5 801.5 Q221 814 221 833 Z M357 833 Q357 851 369.5 864.5 Q382 878 402 878 Q422 878 434.5 864.5 Q447 851 447 833 Q447 814 434.5 801.5 Q422 789 402 789 Q382 789 369.5 801.5 Q357 814 357 833 Z " />
<glyph glyph-name="Aring" unicode="&#xc5;" horiz-adv-x="671" d="M452 204 L190 204 L145 64 L157 52 L223 52 L223 0 L-5 0 L-5 52 L58 52 L72 66 L291 702 L378 702 L601 64 L616 52 L678 52 L678 0 L426 0 L426 52 L488 52 L500 64 L452 204 Z M210 263 L432 263 L319 597 L210 263 Z M447 831 Q447 788 414.5 767.5 Q382 747 334 747 Q287 747 255 767.5 Q223 788 223 831 Q223 874 255 894 Q287 914 334 914 Q382 914 414.5 894 Q447 874 447 831 Z M394 831 Q394 858 378 871 Q362 884 334 884 Q307 884 290.5 871 Q274 858 274 831 Q274 804 290.5 791 Q307 778 334 778 Q362 778 378 791 Q394 804 394 831 Z " />
<glyph glyph-name="AE" unicode="&#xc6;" horiz-adv-x="993" d="M937 540 L877 540 L877 628 L863 641 L588 641 L588 386 L772 386 L785 400 L785 466 L842 466 L842 251 L785 251 L785 317 L772 330 L588 330 L588 59 L873 59 L887 73 L887 161 L947 161 L947 0 L410 0 L410 52 L477 52 L491 66 L491 204 L232 204 L150 60 L157 52 L225 52 L225 0 L-6 0 L-6 52 L55 52 L68 64 L437 700 L937 700 L937 540 Z M477 638 L263 263 L491 263 L491 638 L477 638 Z " />
<glyph glyph-name="Ccedilla" unicode="&#xc7;" horiz-adv-x="587" d="M543 27 Q511 13 466 1 Q421 -11 356 -10 Q210 -9 130 78 Q50 165 50 350 Q50 441 72.5 509 Q95 577 136.5 621.5 Q178 666 236.5 688 Q295 710 367 710 Q430 710 475 701 Q520 692 534 684 L534 531 L471 531 L471 620 L459 633 Q419 647 367 647 Q255 647 203.5 573.5 Q152 500 152 357 Q152 203 204.5 129 Q257 55 372 55 Q427 55 466 68 L479 82 L479 175 L543 175 L543 27 Z M326 -180 Q297 -180 270 -173 Q243 -166 227 -156 L241 -127 Q252 -133 274.5 -139.5 Q297 -146 319 -146 Q339 -146 355 -138.5 Q371 -131 371 -110 Q371 -90 345 -78.5 Q319 -67 276 -63 L276 -50 L324 11 L375 9 L337 -41 Q379 -44 407 -59 Q435 -74 435 -107 Q435 -128 425.5 -142 Q416 -156 401 -164.5 Q386 -173 366.5 -176.5 Q347 -180 326 -180 Z " />
<glyph glyph-name="Egrave" unicode="&#xc8;" horiz-adv-x="626" d="M350 756 L336 756 L200 871 L242 922 L261 922 L375 783 L350 756 Z M222 641 L222 386 L405 386 L419 400 L419 466 L475 466 L475 251 L419 251 L419 317 L406 330 L222 330 L222 59 L506 59 L520 73 L520 161 L580 161 L580 0 L44 0 L44 52 L110 52 L125 66 L125 634 L110 648 L44 648 L44 700 L570 700 L570 540 L510 540 L510 628 L496 641 L222 641 Z " />
<glyph glyph-name="Eacute" unicode="&#xc9;" horiz-adv-x="626" d="M222 641 L222 386 L405 386 L419 400 L419 466 L475 466 L475 251 L419 251 L419 317 L406 330 L222 330 L222 59 L506 59 L520 73 L520 161 L580 161 L580 0 L44 0 L44 52 L110 52 L125 66 L125 634 L110 648 L44 648 L44 700 L570 700 L570 540 L510 540 L510 628 L496 641 L222 641 Z M330 756 L305 783 L419 922 L437 922 L479 871 L344 756 L330 756 Z " />
<glyph glyph-name="Ecircumflex" unicode="&#xca;" horiz-adv-x="626" d="M223 756 L204 778 L325 924 L358 924 L478 778 L460 756 L444 756 L342 855 L238 756 L223 756 Z M222 641 L222 386 L405 386 L419 400 L419 466 L475 466 L475 251 L419 251 L419 317 L406 330 L222 330 L222 59 L506 59 L520 73 L520 161 L580 161 L580 0 L44 0 L44 52 L110 52 L125 66 L125 634 L110 648 L44 648 L44 700 L570 700 L570 540 L510 540 L510 628 L496 641 L222 641 Z " />
<glyph glyph-name="Edieresis" unicode="&#xcb;" horiz-adv-x="626" d="M222 641 L222 386 L405 386 L419 400 L419 466 L475 466 L475 251 L419 251 L419 317 L406 330 L222 330 L222 59 L506 59 L520 73 L520 161 L580 161 L580 0 L44 0 L44 52 L110 52 L125 66 L125 634 L110 648 L44 648 L44 700 L570 700 L570 540 L510 540 L510 628 L496 641 L222 641 Z M228 833 Q228 851 240.5 864.5 Q253 878 273 878 Q293 878 305 864.5 Q317 851 317 833 Q317 814 305 801.5 Q293 789 273 789 Q253 789 240.5 801.5 Q228 814 228 833 Z M364 833 Q364 851 376.5 864.5 Q389 878 409 878 Q429 878 441.5 864.5 Q454 851 454 833 Q454 814 441.5 801.5 Q429 789 409 789 Q389 789 376.5 801.5 Q364 814 364 833 Z " />
<glyph glyph-name="Igrave" unicode="&#xcc;" horiz-adv-x="346" d="M125 634 L110 648 L44 648 L44 700 L303 700 L303 648 L235 648 L222 634 L222 66 L235 52 L303 52 L303 0 L44 0 L44 52 L110 52 L125 66 L125 634 Z M180 756 L166 756 L30 871 L72 922 L91 922 L205 783 L180 756 Z " />
<glyph glyph-name="Iacute" unicode="&#xcd;" horiz-adv-x="346" d="M125 634 L110 648 L44 648 L44 700 L303 700 L303 648 L235 648 L222 634 L222 66 L235 52 L303 52 L303 0 L44 0 L44 52 L110 52 L125 66 L125 634 Z M160 756 L135 783 L249 922 L267 922 L309 871 L174 756 L160 756 Z " />
<glyph glyph-name="Icircumflex" unicode="&#xce;" horiz-adv-x="346" d="M125 634 L110 648 L44 648 L44 700 L303 700 L303 648 L235 648 L222 634 L222 66 L235 52 L303 52 L303 0 L44 0 L44 52 L110 52 L125 66 L125 634 Z M54 756 L35 778 L156 924 L189 924 L309 778 L291 756 L275 756 L173 855 L69 756 L54 756 Z " />
<glyph glyph-name="Idieresis" unicode="&#xcf;" horiz-adv-x="346" d="M125 634 L110 648 L44 648 L44 700 L303 700 L303 648 L235 648 L222 634 L222 66 L235 52 L303 52 L303 0 L44 0 L44 52 L110 52 L125 66 L125 634 Z M59 833 Q59 851 71.5 864.5 Q84 878 104 878 Q124 878 136 864.5 Q148 851 148 833 Q148 814 136 801.5 Q124 789 104 789 Q84 789 71.5 801.5 Q59 814 59 833 Z M195 833 Q195 851 207.5 864.5 Q220 878 240 878 Q260 878 272.5 864.5 Q285 851 285 833 Q285 814 272.5 801.5 Q260 789 240 789 Q220 789 207.5 801.5 Q195 814 195 833 Z " />
<glyph glyph-name="Eth" unicode="&#xd0;" horiz-adv-x="702" d="M45 381 L125 381 L125 635 L111 649 L45 649 L45 701 L341 701 Q413 701 470.5 680.5 Q528 660 568.5 618 Q609 576 631 511 Q653 446 653 358 Q653 267 631 200 Q609 133 568.5 88.5 Q528 44 470.5 22.5 Q413 1 341 1 L45 1 L45 53 L111 53 L125 67 L125 334 L45 334 L45 381 Z M223 381 L400 381 L400 334 L223 334 L223 62 L341 62 Q450 62 500 134.5 Q550 207 550 358 Q550 503 499.5 571.5 Q449 640 341 640 L223 640 L223 381 Z " />
<glyph glyph-name="Ntilde" unicode="&#xd1;" horiz-adv-x="733" d="M527 894 L527 855 Q527 815 507 794 Q487 773 450 773 Q427 773 406 781 Q385 789 365.5 799 Q346 809 327.5 817 Q309 825 291 825 Q269 825 260 816 Q251 807 251 798 L251 764 L208 764 L208 800 Q208 845 229.5 866 Q251 887 288 887 Q310 887 330.5 878.5 Q351 870 370.5 859.5 Q390 849 409.5 840.5 Q429 832 449 832 Q471 832 479 842 Q487 852 487 861 L487 894 L527 894 Z M44 0 L44 52 L110 52 L124 66 L124 634 L110 648 L44 648 L44 700 L209 700 L543 166 L543 634 L529 648 L462 648 L462 700 L697 700 L697 648 L631 648 L616 634 L616 -2 L546 -2 L198 553 L198 66 L212 52 L279 52 L279 0 L44 0 Z " />
<glyph glyph-name="Ograve" unicode="&#xd2;" horiz-adv-x="667" d="M342 756 L328 756 L192 871 L234 922 L253 922 L367 783 L342 756 Z M49 351 Q49 439 69.5 506 Q90 573 127.5 618.5 Q165 664 217 687 Q269 710 333 710 Q397 710 449.5 687 Q502 664 539.5 618.5 Q577 573 597.5 506 Q618 439 618 351 Q618 262 597.5 194.5 Q577 127 539.5 81.5 Q502 36 449.5 13 Q397 -10 333 -10 Q269 -10 217 13 Q165 36 127.5 81.5 Q90 127 69.5 194.5 Q49 262 49 351 Z M151 351 Q151 200 196.5 127.5 Q242 55 333 55 Q425 55 470.5 127.5 Q516 200 516 351 Q516 501 470.5 573 Q425 645 333 645 Q242 645 196.5 573 Q151 501 151 351 Z " />
<glyph glyph-name="Oacute" unicode="&#xd3;" horiz-adv-x="667" d="M322 756 L297 783 L411 922 L429 922 L471 871 L336 756 L322 756 Z M49 351 Q49 439 69.5 506 Q90 573 127.5 618.5 Q165 664 217 687 Q269 710 333 710 Q397 710 449.5 687 Q502 664 539.5 618.5 Q577 573 597.5 506 Q618 439 618 351 Q618 262 597.5 194.5 Q577 127 539.5 81.5 Q502 36 449.5 13 Q397 -10 333 -10 Q269 -10 217 13 Q165 36 127.5 81.5 Q90 127 69.5 194.5 Q49 262 49 351 Z M151 351 Q151 200 196.5 127.5 Q242 55 333 55 Q425 55 470.5 127.5 Q516 200 516 351 Q516 501 470.5 573 Q425 645 333 645 Q242 645 196.5 573 Q151 501 151 351 Z " />
<glyph glyph-name="Ocircumflex" unicode="&#xd4;" horiz-adv-x="667" d="M215 756 L196 778 L317 924 L350 924 L470 778 L452 756 L436 756 L334 855 L230 756 L215 756 Z M49 351 Q49 439 69.5 506 Q90 573 127.5 618.5 Q165 664 217 687 Q269 710 333 710 Q397 710 449.5 687 Q502 664 539.5 618.5 Q577 573 597.5 506 Q618 439 618 351 Q618 262 597.5 194.5 Q577 127 539.5 81.5 Q502 36 449.5 13 Q397 -10 333 -10 Q269 -10 217 13 Q165 36 127.5 81.5 Q90 127 69.5 194.5 Q49 262 49 351 Z M151 351 Q151 200 196.5 127.5 Q242 55 333 55 Q425 55 470.5 127.5 Q516 200 516 351 Q516 501 470.5 573 Q425 645 333 645 Q242 645 196.5 573 Q151 501 151 351 Z " />
<glyph glyph-name="Otilde" unicode="&#xd5;" horiz-adv-x="667" d="M49 351 Q49 439 69.5 506 Q90 573 127.5 618.5 Q165 664 217 687 Q269 710 333 710 Q397 710 449.5 687 Q502 664 539.5 618.5 Q577 573 597.5 506 Q618 439 618 351 Q618 262 597.5 194.5 Q577 127 539.5 81.5 Q502 36 449.5 13 Q397 -10 333 -10 Q269 -10 217 13 Q165 36 127.5 81.5 Q90 127 69.5 194.5 Q49 262 49 351 Z M151 351 Q151 200 196.5 127.5 Q242 55 333 55 Q425 55 470.5 127.5 Q516 200 516 351 Q516 501 470.5 573 Q425 645 333 645 Q242 645 196.5 573 Q151 501 151 351 Z M493 894 L493 855 Q493 815 473 794 Q453 773 416 773 Q393 773 372 781 Q351 789 331.5 799 Q312 809 293.5 817 Q275 825 257 825 Q235 825 226 816 Q217 807 217 798 L217 764 L174 764 L174 800 Q174 845 195.5 866 Q217 887 254 887 Q276 887 296.5 878.5 Q317 870 336.5 859.5 Q356 849 375.5 840.5 Q395 832 415 832 Q437 832 445 842 Q453 852 453 861 L453 894 L493 894 Z " />
<glyph glyph-name="Odieresis" unicode="&#xd6;" horiz-adv-x="667" d="M49 351 Q49 439 69.5 506 Q90 573 127.5 618.5 Q165 664 217 687 Q269 710 333 710 Q397 710 449.5 687 Q502 664 539.5 618.5 Q577 573 597.5 506 Q618 439 618 351 Q618 262 597.5 194.5 Q577 127 539.5 81.5 Q502 36 449.5 13 Q397 -10 333 -10 Q269 -10 217 13 Q165 36 127.5 81.5 Q90 127 69.5 194.5 Q49 262 49 351 Z M151 351 Q151 200 196.5 127.5 Q242 55 333 55 Q425 55 470.5 127.5 Q516 200 516 351 Q516 501 470.5 573 Q425 645 333 645 Q242 645 196.5 573 Q151 501 151 351 Z M220 833 Q220 851 232.5 864.5 Q245 878 265 878 Q285 878 297 864.5 Q309 851 309 833 Q309 814 297 801.5 Q285 789 265 789 Q245 789 232.5 801.5 Q220 814 220 833 Z M356 833 Q356 851 368.5 864.5 Q381 878 401 878 Q421 878 433.5 864.5 Q446 851 446 833 Q446 814 433.5 801.5 Q421 789 401 789 Q381 789 368.5 801.5 Q356 814 356 833 Z " />
<glyph glyph-name="multiply" unicode="&#xd7;" horiz-adv-x="464" d="M58 200 L188 330 L58 460 L103 504 L232 374 L362 504 L406 460 L276 330 L407 200 L363 156 L232 287 L102 156 L58 200 Z " />
<glyph glyph-name="Oslash" unicode="&#xd8;" horiz-adv-x="676" d="M53 351 Q53 439 73.5 506 Q94 573 131.5 618.5 Q169 664 221.5 687 Q274 710 338 710 Q449 710 523 641 L573 710 L626 710 L552 608 Q586 563 604.5 499 Q623 435 623 351 Q623 262 602.5 194.5 Q582 127 544.5 81.5 Q507 36 454.5 13 Q402 -10 338 -10 Q230 -10 157 55 L111 -10 L58 -10 L127 87 Q92 132 72.5 198 Q53 264 53 351 Z M156 351 Q156 234 183 165 L474 572 Q429 645 338 645 Q247 645 201.5 573 Q156 501 156 351 Z M520 351 Q520 460 495 528 L205 122 Q251 55 338 55 Q429 55 474.5 127.5 Q520 200 520 351 Z " />
<glyph glyph-name="Ugrave" unicode="&#xd9;" horiz-adv-x="699" d="M372 756 L358 756 L222 871 L264 922 L283 922 L397 783 L372 756 Z M509 634 L494 648 L428 648 L428 700 L669 700 L669 648 L602 648 L588 634 L588 235 Q588 110 524.5 50 Q461 -10 351 -10 Q240 -10 175.5 50 Q111 110 111 235 L111 634 L97 648 L30 648 L30 700 L291 700 L291 648 L224 648 L211 634 L211 234 Q211 143 247 98 Q283 53 359 53 Q438 53 473.5 98 Q509 143 509 234 L509 634 Z " />
<glyph glyph-name="Uacute" unicode="&#xda;" horiz-adv-x="699" d="M509 634 L494 648 L428 648 L428 700 L669 700 L669 648 L602 648 L588 634 L588 235 Q588 110 524.5 50 Q461 -10 351 -10 Q240 -10 175.5 50 Q111 110 111 235 L111 634 L97 648 L30 648 L30 700 L291 700 L291 648 L224 648 L211 634 L211 234 Q211 143 247 98 Q283 53 359 53 Q438 53 473.5 98 Q509 143 509 234 L509 634 Z M352 756 L327 783 L441 922 L459 922 L501 871 L366 756 L352 756 Z " />
<glyph glyph-name="Ucircumflex" unicode="&#xdb;" horiz-adv-x="699" d="M245 756 L226 778 L347 924 L380 924 L500 778 L482 756 L466 756 L364 855 L260 756 L245 756 Z M509 634 L494 648 L428 648 L428 700 L669 700 L669 648 L602 648 L588 634 L588 235 Q588 110 524.5 50 Q461 -10 351 -10 Q240 -10 175.5 50 Q111 110 111 235 L111 634 L97 648 L30 648 L30 700 L291 700 L291 648 L224 648 L211 634 L211 234 Q211 143 247 98 Q283 53 359 53 Q438 53 473.5 98 Q509 143 509 234 L509 634 Z " />
<glyph glyph-name="Udieresis" unicode="&#xdc;" horiz-adv-x="699" d="M509 634 L494 648 L428 648 L428 700 L669 700 L669 648 L602 648 L588 634 L588 235 Q588 110 524.5 50 Q461 -10 351 -10 Q240 -10 175.5 50 Q111 110 111 235 L111 634 L97 648 L30 648 L30 700 L291 700 L291 648 L224 648 L211 634 L211 234 Q211 143 247 98 Q283 53 359 53 Q438 53 473.5 98 Q509 143 509 234 L509 634 Z M250 833 Q250 851 262.5 864.5 Q275 878 295 878 Q315 878 327 864.5 Q339 851 339 833 Q339 814 327 801.5 Q315 789 295 789 Q275 789 262.5 801.5 Q250 814 250 833 Z M386 833 Q386 851 398.5 864.5 Q411 878 431 878 Q451 878 463.5 864.5 Q476 851 476 833 Q476 814 463.5 801.5 Q451 789 431 789 Q411 789 398.5 801.5 Q386 814 386 833 Z " />
<glyph glyph-name="Yacute" unicode="&#xdd;" horiz-adv-x="629" d="M270 281 L68 635 L53 648 L0 648 L0 700 L249 700 L249 648 L184 648 L173 636 L330 356 L482 635 L472 648 L404 648 L404 700 L624 700 L624 648 L571 648 L556 634 L367 298 L367 66 L381 52 L448 52 L448 0 L190 0 L190 52 L256 52 L270 66 L270 281 Z M313 756 L288 783 L402 922 L420 922 L462 871 L327 756 L313 756 Z " />
<glyph glyph-name="Ygrave" unicode="&#x1ef2;" horiz-adv-x="629" d="M270 281 L68 635 L53 648 L0 648 L0 700 L249 700 L249 648 L184 648 L173 636 L330 356 L482 635 L472 648 L404 648 L404 700 L624 700 L624 648 L571 648 L556 634 L367 298 L367 66 L381 52 L448 52 L448 0 L190 0 L190 52 L256 52 L270 66 L270 281 Z M343 756 L329 756 L193 871 L235 922 L254 922 L368 783 L343 756 Z " />
<glyph glyph-name="Thorn" unicode="&#xde;" horiz-adv-x="642" d="M44 0 L44 52 L110 52 L125 66 L125 634 L110 648 L44 648 L44 700 L303 700 L303 648 L235 648 L222 634 L222 551 L357 551 Q475 551 542 504.5 Q609 458 609 356 Q609 255 542 206.5 Q475 158 357 158 L222 158 L222 66 L235 52 L303 52 L303 0 L44 0 Z M222 493 L222 216 L357 216 Q438 216 473.5 249.5 Q509 283 509 354 Q509 426 473.5 459.5 Q438 493 357 493 L222 493 Z " />
<glyph glyph-name="germandbls" unicode="&#xdf;" horiz-adv-x="619" d="M31 50 L97 50 L111 64 L111 474 L31 474 L31 524 L97 524 L111 538 L111 556 Q111 641 162.5 690.5 Q214 740 320 740 Q354 740 386 731 Q418 722 443 702.5 Q468 683 483.5 653.5 Q499 624 499 583 Q499 549 482.5 526.5 Q466 504 445.5 485.5 Q425 467 408.5 449.5 Q392 432 392 409 Q392 395 397.5 384 Q403 373 413 362 Q423 351 437.5 338 Q452 325 470 308 Q495 284 516.5 264 Q538 244 554 224 Q570 204 579 180 Q588 156 588 125 Q588 62 548 26 Q508 -10 442 -10 Q414 -10 392.5 -7 Q371 -4 356 1 Q338 5 325 12 L325 124 L377 124 L377 58 L390 44 Q395 42 404 40.5 Q413 39 425 39 Q460 39 483 58 Q506 77 506 118 Q506 138 498.5 154 Q491 170 478.5 184.5 Q466 199 448.5 213.5 Q431 228 411 246 Q387 267 369 284.5 Q351 302 339 318 Q327 334 321 350.5 Q315 367 315 387 Q315 418 331.5 437.5 Q348 457 368.5 476.5 Q389 496 405.5 519.5 Q422 543 422 582 Q422 637 393.5 666.5 Q365 696 314 696 Q291 696 270.5 690.5 Q250 685 235 670 Q220 655 211 629 Q202 603 202 563 L202 64 L216 50 L272 50 L272 0 L31 0 L31 50 Z " />
<glyph glyph-name="agrave" unicode="&#xe0;" horiz-adv-x="531" d="M520 0 L395 0 Q370 0 361.5 11.5 Q353 23 353 40 L353 69 L350 69 Q339 57 324.5 43 Q310 29 291 17 Q272 5 248 -2.5 Q224 -10 195 -10 Q156 -10 127.5 2 Q99 14 79.5 34.5 Q60 55 50.5 82.5 Q41 110 41 141 Q41 178 53.5 207 Q66 236 88.5 255.5 Q111 275 141 285 Q171 295 206 295 L348 295 L348 352 Q348 378 344 401 Q340 424 328 441 Q316 458 294.5 468 Q273 478 237 478 Q214 478 192 473 Q170 468 152 463 L138 450 L138 367 L74 367 L74 501 Q106 512 152.5 524 Q199 536 262 536 Q313 536 347 522.5 Q381 509 401.5 486 Q422 463 430.5 432 Q439 401 439 366 L439 65 L453 49 L520 49 L520 0 Z M226 60 Q258 60 289.5 77.5 Q321 95 348 122 L348 236 L229 236 Q186 236 159.5 216 Q133 196 133 144 Q133 125 137 109.5 Q141 94 151.5 83 Q162 72 180 66 Q198 60 226 60 Z M268 582 L255 582 L119 697 L161 747 L179 747 L293 609 L268 582 Z " />
<glyph glyph-name="aacute" unicode="&#xe1;" horiz-adv-x="531" d="M520 0 L395 0 Q370 0 361.5 11.5 Q353 23 353 40 L353 69 L350 69 Q339 57 324.5 43 Q310 29 291 17 Q272 5 248 -2.5 Q224 -10 195 -10 Q156 -10 127.5 2 Q99 14 79.5 34.5 Q60 55 50.5 82.5 Q41 110 41 141 Q41 178 53.5 207 Q66 236 88.5 255.5 Q111 275 141 285 Q171 295 206 295 L348 295 L348 352 Q348 378 344 401 Q340 424 328 441 Q316 458 294.5 468 Q273 478 237 478 Q214 478 192 473 Q170 468 152 463 L138 450 L138 367 L74 367 L74 501 Q106 512 152.5 524 Q199 536 262 536 Q313 536 347 522.5 Q381 509 401.5 486 Q422 463 430.5 432 Q439 401 439 366 L439 65 L453 49 L520 49 L520 0 Z M226 60 Q258 60 289.5 77.5 Q321 95 348 122 L348 236 L229 236 Q186 236 159.5 216 Q133 196 133 144 Q133 125 137 109.5 Q141 94 151.5 83 Q162 72 180 66 Q198 60 226 60 Z M244 582 L219 609 L333 747 L352 747 L394 697 L259 582 L244 582 Z " />
<glyph glyph-name="acircumflex" unicode="&#xe2;" horiz-adv-x="531" d="M520 0 L395 0 Q370 0 361.5 11.5 Q353 23 353 40 L353 69 L350 69 Q339 57 324.5 43 Q310 29 291 17 Q272 5 248 -2.5 Q224 -10 195 -10 Q156 -10 127.5 2 Q99 14 79.5 34.5 Q60 55 50.5 82.5 Q41 110 41 141 Q41 178 53.5 207 Q66 236 88.5 255.5 Q111 275 141 285 Q171 295 206 295 L348 295 L348 352 Q348 378 344 401 Q340 424 328 441 Q316 458 294.5 468 Q273 478 237 478 Q214 478 192 473 Q170 468 152 463 L138 450 L138 367 L74 367 L74 501 Q106 512 152.5 524 Q199 536 262 536 Q313 536 347 522.5 Q381 509 401.5 486 Q422 463 430.5 432 Q439 401 439 366 L439 65 L453 49 L520 49 L520 0 Z M226 60 Q258 60 289.5 77.5 Q321 95 348 122 L348 236 L229 236 Q186 236 159.5 216 Q133 196 133 144 Q133 125 137 109.5 Q141 94 151.5 83 Q162 72 180 66 Q198 60 226 60 Z M141 582 L124 602 L242 747 L274 747 L391 602 L375 582 L359 582 L257 682 L156 582 L141 582 Z " />
<glyph glyph-name="atilde" unicode="&#xe3;" horiz-adv-x="531" d="M520 0 L395 0 Q370 0 361.5 11.5 Q353 23 353 40 L353 69 L350 69 Q339 57 324.5 43 Q310 29 291 17 Q272 5 248 -2.5 Q224 -10 195 -10 Q156 -10 127.5 2 Q99 14 79.5 34.5 Q60 55 50.5 82.5 Q41 110 41 141 Q41 178 53.5 207 Q66 236 88.5 255.5 Q111 275 141 285 Q171 295 206 295 L348 295 L348 352 Q348 378 344 401 Q340 424 328 441 Q316 458 294.5 468 Q273 478 237 478 Q214 478 192 473 Q170 468 152 463 L138 450 L138 367 L74 367 L74 501 Q106 512 152.5 524 Q199 536 262 536 Q313 536 347 522.5 Q381 509 401.5 486 Q422 463 430.5 432 Q439 401 439 366 L439 65 L453 49 L520 49 L520 0 Z M226 60 Q258 60 289.5 77.5 Q321 95 348 122 L348 236 L229 236 Q186 236 159.5 216 Q133 196 133 144 Q133 125 137 109.5 Q141 94 151.5 83 Q162 72 180 66 Q198 60 226 60 Z M416 719 L416 680 Q416 641 396 620 Q376 599 339 599 Q316 599 295 607 Q274 615 254.5 625 Q235 635 216.5 643 Q198 651 180 651 Q158 651 149 642 Q140 633 140 624 L140 590 L97 590 L97 625 Q97 670 118.5 691 Q140 712 177 712 Q199 712 219.5 703.5 Q240 695 259.5 685 Q279 675 298.5 666.5 Q318 658 338 658 Q360 658 368 667.5 Q376 677 376 687 L376 719 L416 719 Z " />
<glyph glyph-name="adieresis" unicode="&#xe4;" horiz-adv-x="531" d="M520 0 L395 0 Q370 0 361.5 11.5 Q353 23 353 40 L353 69 L350 69 Q339 57 324.5 43 Q310 29 291 17 Q272 5 248 -2.5 Q224 -10 195 -10 Q156 -10 127.5 2 Q99 14 79.5 34.5 Q60 55 50.5 82.5 Q41 110 41 141 Q41 178 53.5 207 Q66 236 88.5 255.5 Q111 275 141 285 Q171 295 206 295 L348 295 L348 352 Q348 378 344 401 Q340 424 328 441 Q316 458 294.5 468 Q273 478 237 478 Q214 478 192 473 Q170 468 152 463 L138 450 L138 367 L74 367 L74 501 Q106 512 152.5 524 Q199 536 262 536 Q313 536 347 522.5 Q381 509 401.5 486 Q422 463 430.5 432 Q439 401 439 366 L439 65 L453 49 L520 49 L520 0 Z M226 60 Q258 60 289.5 77.5 Q321 95 348 122 L348 236 L229 236 Q186 236 159.5 216 Q133 196 133 144 Q133 125 137 109.5 Q141 94 151.5 83 Q162 72 180 66 Q198 60 226 60 Z M144 658 Q144 677 156.5 690.5 Q169 704 189 704 Q209 704 221 690.5 Q233 677 233 658 Q233 639 221 626.5 Q209 614 189 614 Q169 614 156.5 626.5 Q144 639 144 658 Z M280 658 Q280 677 292.5 690.5 Q305 704 325 704 Q345 704 357.5 690.5 Q370 677 370 658 Q370 639 357.5 626.5 Q345 614 325 614 Q305 614 292.5 626.5 Q280 639 280 658 Z " />
<glyph glyph-name="aring" unicode="&#xe5;" horiz-adv-x="531" d="M520 0 L395 0 Q370 0 361.5 11.5 Q353 23 353 40 L353 69 L350 69 Q339 57 324.5 43 Q310 29 291 17 Q272 5 248 -2.5 Q224 -10 195 -10 Q156 -10 127.5 2 Q99 14 79.5 34.5 Q60 55 50.5 82.5 Q41 110 41 141 Q41 178 53.5 207 Q66 236 88.5 255.5 Q111 275 141 285 Q171 295 206 295 L348 295 L348 352 Q348 378 344 401 Q340 424 328 441 Q316 458 294.5 468 Q273 478 237 478 Q214 478 192 473 Q170 468 152 463 L138 450 L138 367 L74 367 L74 501 Q106 512 152.5 524 Q199 536 262 536 Q313 536 347 522.5 Q381 509 401.5 486 Q422 463 430.5 432 Q439 401 439 366 L439 65 L453 49 L520 49 L520 0 Z M226 60 Q258 60 289.5 77.5 Q321 95 348 122 L348 236 L229 236 Q186 236 159.5 216 Q133 196 133 144 Q133 125 137 109.5 Q141 94 151.5 83 Q162 72 180 66 Q198 60 226 60 Z M369 656 Q369 614 336.5 593.5 Q304 573 256 573 Q209 573 177 593.5 Q145 614 145 656 Q145 699 177 719.5 Q209 740 256 740 Q304 740 336.5 719.5 Q369 699 369 656 Z M317 656 Q317 683 300.5 696 Q284 709 256 709 Q229 709 213 696 Q197 683 197 656 Q197 630 213 616.5 Q229 603 256 603 Q284 603 300.5 616.5 Q317 630 317 656 Z " />
<glyph glyph-name="ae" unicode="&#xe6;" horiz-adv-x="807" d="M440 239 Q445 139 489 94.5 Q533 50 610 50 Q652 50 686 58.5 Q720 67 740 76 L740 24 Q714 10 676 0 Q638 -10 581 -10 Q523 -10 472.5 13.5 Q422 37 390 87 Q378 73 359.5 56 Q341 39 316.5 24.5 Q292 10 261.5 0 Q231 -10 195 -10 Q156 -10 127.5 2 Q99 14 79.5 35 Q60 56 50.5 83.5 Q41 111 41 143 Q41 180 53.5 208.5 Q66 237 88.5 256.5 Q111 276 141 285.5 Q171 295 206 295 L348 295 L348 352 Q348 378 344 401 Q340 424 328 441 Q316 458 294.5 468 Q273 478 237 478 Q214 478 192 473 Q170 468 152 463 L138 450 L138 367 L74 367 L74 501 Q106 512 153.5 524 Q201 536 264 536 Q325 536 359.5 513.5 Q394 491 410 453 Q439 495 479 515.5 Q519 536 566 536 Q608 536 644.5 522 Q681 508 708.5 481 Q736 454 752 413.5 Q768 373 768 321 L768 252 L754 239 L440 239 Z M566 478 Q507 478 476.5 429 Q446 380 441 298 L676 298 L676 327 Q676 405 645 441.5 Q614 478 566 478 Z M226 60 Q267 60 304 79.5 Q341 99 370 125 Q360 148 354.5 176 Q349 204 348 236 L229 236 Q211 236 193.5 232 Q176 228 162.5 218 Q149 208 141 192.5 Q133 177 133 154 Q133 111 153 85.5 Q173 60 226 60 Z " />
<glyph glyph-name="ccedilla" unicode="&#xe7;" horiz-adv-x="463" d="M420 26 Q397 8 360 -1 Q323 -10 281 -10 Q233 -10 189.5 6 Q146 22 113 54.5 Q80 87 61 136.5 Q42 186 42 254 Q42 322 61.5 374.5 Q81 427 114.5 463 Q148 499 193 517.5 Q238 536 288 536 Q337 536 372.5 527 Q408 518 421 513 L421 378 L358 378 L358 456 L345 468 Q334 472 321 474.5 Q308 477 294 477 Q220 477 178.5 423.5 Q137 370 137 258 Q137 148 182 99.5 Q227 51 304 51 Q339 51 371 58.5 Q403 66 420 76 L420 26 Z M253 -180 Q224 -180 197 -173 Q170 -166 154 -156 L168 -127 Q179 -133 201.5 -139.5 Q224 -146 246 -146 Q266 -146 282 -138.5 Q298 -131 298 -110 Q298 -90 272 -78.5 Q246 -67 203 -63 L203 -50 L251 11 L302 9 L264 -41 Q306 -44 334 -59 Q362 -74 362 -107 Q362 -128 352.5 -142 Q343 -156 328 -164.5 Q313 -173 293.5 -176.5 Q274 -180 253 -180 Z " />
<glyph glyph-name="egrave" unicode="&#xe8;" horiz-adv-x="507" d="M454 239 L137 239 Q142 139 187 94.5 Q232 50 310 50 Q352 50 386 58.5 Q420 67 440 76 L440 24 Q414 10 376 0 Q338 -10 281 -10 Q231 -10 187.5 5.5 Q144 21 112 53.5 Q80 86 61.5 136.5 Q43 187 43 257 Q43 328 61 380.5 Q79 433 109.5 467.5 Q140 502 181 519 Q222 536 268 536 Q309 536 345.5 522 Q382 508 409 481 Q436 454 452 413.5 Q468 373 468 321 L468 252 L454 239 Z M266 479 Q212 479 177.5 434.5 Q143 390 137 298 L376 298 L376 327 Q376 406 345 442.5 Q314 479 266 479 Z M286 582 L273 582 L137 697 L179 747 L197 747 L311 609 L286 582 Z " />
<glyph glyph-name="eacute" unicode="&#xe9;" horiz-adv-x="507" d="M262 582 L237 609 L351 747 L370 747 L412 697 L277 582 L262 582 Z M454 239 L137 239 Q142 139 187 94.5 Q232 50 310 50 Q352 50 386 58.5 Q420 67 440 76 L440 24 Q414 10 376 0 Q338 -10 281 -10 Q231 -10 187.5 5.5 Q144 21 112 53.5 Q80 86 61.5 136.5 Q43 187 43 257 Q43 328 61 380.5 Q79 433 109.5 467.5 Q140 502 181 519 Q222 536 268 536 Q309 536 345.5 522 Q382 508 409 481 Q436 454 452 413.5 Q468 373 468 321 L468 252 L454 239 Z M266 479 Q212 479 177.5 434.5 Q143 390 137 298 L376 298 L376 327 Q376 406 345 442.5 Q314 479 266 479 Z " />
<glyph glyph-name="ecircumflex" unicode="&#xea;" horiz-adv-x="507" d="M159 582 L142 602 L260 747 L292 747 L409 602 L393 582 L377 582 L275 682 L174 582 L159 582 Z M454 239 L137 239 Q142 139 187 94.5 Q232 50 310 50 Q352 50 386 58.5 Q420 67 440 76 L440 24 Q414 10 376 0 Q338 -10 281 -10 Q231 -10 187.5 5.5 Q144 21 112 53.5 Q80 86 61.5 136.5 Q43 187 43 257 Q43 328 61 380.5 Q79 433 109.5 467.5 Q140 502 181 519 Q222 536 268 536 Q309 536 345.5 522 Q382 508 409 481 Q436 454 452 413.5 Q468 373 468 321 L468 252 L454 239 Z M266 479 Q212 479 177.5 434.5 Q143 390 137 298 L376 298 L376 327 Q376 406 345 442.5 Q314 479 266 479 Z " />
<glyph glyph-name="edieresis" unicode="&#xeb;" horiz-adv-x="507" d="M163 658 Q163 677 175.5 690.5 Q188 704 208 704 Q228 704 240 690.5 Q252 677 252 658 Q252 639 240 626.5 Q228 614 208 614 Q188 614 175.5 626.5 Q163 639 163 658 Z M299 658 Q299 677 311.5 690.5 Q324 704 344 704 Q364 704 376.5 690.5 Q389 677 389 658 Q389 639 376.5 626.5 Q364 614 344 614 Q324 614 311.5 626.5 Q299 639 299 658 Z M454 239 L137 239 Q142 139 187 94.5 Q232 50 310 50 Q352 50 386 58.5 Q420 67 440 76 L440 24 Q414 10 376 0 Q338 -10 281 -10 Q231 -10 187.5 5.5 Q144 21 112 53.5 Q80 86 61.5 136.5 Q43 187 43 257 Q43 328 61 380.5 Q79 433 109.5 467.5 Q140 502 181 519 Q222 536 268 536 Q309 536 345.5 522 Q382 508 409 481 Q436 454 452 413.5 Q468 373 468 321 L468 252 L454 239 Z M266 479 Q212 479 177.5 434.5 Q143 390 137 298 L376 298 L376 327 Q376 406 345 442.5 Q314 479 266 479 Z " />
<glyph glyph-name="igrave" unicode="&#xec;" horiz-adv-x="306" d="M163 526 Q187 526 195.5 514.5 Q204 503 204 486 L204 64 L218 49 L285 49 L285 0 L32 0 L32 49 L99 49 L113 64 L113 459 L99 474 L32 474 L32 526 L163 526 Z M165 582 L152 582 L16 697 L58 747 L76 747 L190 609 L165 582 Z " />
<glyph glyph-name="iacute" unicode="&#xed;" horiz-adv-x="306" d="M141 582 L116 609 L230 747 L249 747 L291 697 L156 582 L141 582 Z M163 526 Q187 526 195.5 514.5 Q204 503 204 486 L204 64 L218 49 L285 49 L285 0 L32 0 L32 49 L99 49 L113 64 L113 459 L99 474 L32 474 L32 526 L163 526 Z " />
<glyph glyph-name="icircumflex" unicode="&#xee;" horiz-adv-x="306" d="M37 582 L20 602 L138 747 L170 747 L287 602 L271 582 L255 582 L153 682 L52 582 L37 582 Z M163 526 Q187 526 195.5 514.5 Q204 503 204 486 L204 64 L218 49 L285 49 L285 0 L32 0 L32 49 L99 49 L113 64 L113 459 L99 474 L32 474 L32 526 L163 526 Z " />
<glyph glyph-name="idieresis" unicode="&#xef;" horiz-adv-x="306" d="M41 658 Q41 677 53.5 690.5 Q66 704 86 704 Q106 704 118 690.5 Q130 677 130 658 Q130 639 118 626.5 Q106 614 86 614 Q66 614 53.5 626.5 Q41 639 41 658 Z M177 658 Q177 677 189.5 690.5 Q202 704 222 704 Q242 704 254.5 690.5 Q267 677 267 658 Q267 639 254.5 626.5 Q242 614 222 614 Q202 614 189.5 626.5 Q177 639 177 658 Z M163 526 Q187 526 195.5 514.5 Q204 503 204 486 L204 64 L218 49 L285 49 L285 0 L32 0 L32 49 L99 49 L113 64 L113 459 L99 474 L32 474 L32 526 L163 526 Z " />
<glyph glyph-name="eth" unicode="&#xf0;" horiz-adv-x="543" d="M181 617 L251 649 Q234 666 214.5 680.5 Q195 695 175 707 L204 741 Q232 727 258.5 711.5 Q285 696 309 677 L386 713 L403 677 L341 648 Q417 575 457.5 475.5 Q498 376 498 263 Q498 193 479.5 141.5 Q461 90 429.5 56.5 Q398 23 357 6.5 Q316 -10 270 -10 Q224 -10 183 6.5 Q142 23 111 56.5 Q80 90 61.5 141.5 Q43 193 43 263 Q43 332 61.5 383.5 Q80 435 111 469 Q142 503 183 519.5 Q224 536 270 536 Q315 536 355 516 Q325 573 280 621 L197 582 L181 617 Z M403 263 Q403 372 368 424.5 Q333 477 270 477 Q207 477 172.5 424.5 Q138 372 138 263 Q138 154 172.5 101 Q207 48 270 48 Q333 48 368 101 Q403 154 403 263 Z " />
<glyph glyph-name="ntilde" unicode="&#xf1;" horiz-adv-x="612" d="M31 0 L31 49 L97 49 L111 64 L111 459 L97 474 L31 474 L31 526 L155 526 Q180 526 189 514.5 Q198 503 198 486 L198 458 L200 458 Q211 470 227.5 484 Q244 498 264.5 509.5 Q285 521 309.5 528.5 Q334 536 363 536 Q406 536 435.5 523.5 Q465 511 483 489 Q501 467 509 438 Q517 409 517 376 L517 64 L532 49 L598 49 L598 0 L352 0 L352 49 L412 49 L426 64 L426 362 Q426 381 422.5 400 Q419 419 410 433 Q401 447 384 456 Q367 465 340 465 Q301 465 267.5 450 Q234 435 202 401 L202 64 L217 49 L277 49 L277 0 L31 0 Z M483 719 L483 680 Q483 641 463 620 Q443 599 406 599 Q383 599 362 607 Q341 615 321.5 625 Q302 635 283.5 643 Q265 651 247 651 Q225 651 216 642 Q207 633 207 624 L207 590 L164 590 L164 625 Q164 670 185.5 691 Q207 712 244 712 Q266 712 286.5 703.5 Q307 695 326.5 685 Q346 675 365.5 666.5 Q385 658 405 658 Q427 658 435 667.5 Q443 677 443 687 L443 719 L483 719 Z " />
<glyph glyph-name="ograve" unicode="&#xf2;" horiz-adv-x="540" d="M498 263 Q498 193 479.5 141.5 Q461 90 429.5 56.5 Q398 23 357 6.5 Q316 -10 270 -10 Q224 -10 183 6.5 Q142 23 111 56.5 Q80 90 61.5 141.5 Q43 193 43 263 Q43 332 61.5 383.5 Q80 435 111 469 Q142 503 183 519.5 Q224 536 270 536 Q316 536 357 519.5 Q398 503 429.5 469 Q461 435 479.5 383.5 Q498 332 498 263 Z M403 263 Q403 372 368 424.5 Q333 477 270 477 Q207 477 172.5 424.5 Q138 372 138 263 Q138 154 172.5 101 Q207 48 270 48 Q333 48 368 101 Q403 154 403 263 Z M288 582 L275 582 L139 697 L181 747 L199 747 L313 609 L288 582 Z " />
<glyph glyph-name="oacute" unicode="&#xf3;" horiz-adv-x="540" d="M265 582 L240 609 L354 747 L373 747 L415 697 L280 582 L265 582 Z M498 263 Q498 193 479.5 141.5 Q461 90 429.5 56.5 Q398 23 357 6.5 Q316 -10 270 -10 Q224 -10 183 6.5 Q142 23 111 56.5 Q80 90 61.5 141.5 Q43 193 43 263 Q43 332 61.5 383.5 Q80 435 111 469 Q142 503 183 519.5 Q224 536 270 536 Q316 536 357 519.5 Q398 503 429.5 469 Q461 435 479.5 383.5 Q498 332 498 263 Z M403 263 Q403 372 368 424.5 Q333 477 270 477 Q207 477 172.5 424.5 Q138 372 138 263 Q138 154 172.5 101 Q207 48 270 48 Q333 48 368 101 Q403 154 403 263 Z " />
<glyph glyph-name="ocircumflex" unicode="&#xf4;" horiz-adv-x="540" d="M161 582 L144 602 L262 747 L294 747 L411 602 L395 582 L379 582 L277 682 L176 582 L161 582 Z M498 263 Q498 193 479.5 141.5 Q461 90 429.5 56.5 Q398 23 357 6.5 Q316 -10 270 -10 Q224 -10 183 6.5 Q142 23 111 56.5 Q80 90 61.5 141.5 Q43 193 43 263 Q43 332 61.5 383.5 Q80 435 111 469 Q142 503 183 519.5 Q224 536 270 536 Q316 536 357 519.5 Q398 503 429.5 469 Q461 435 479.5 383.5 Q498 332 498 263 Z M403 263 Q403 372 368 424.5 Q333 477 270 477 Q207 477 172.5 424.5 Q138 372 138 263 Q138 154 172.5 101 Q207 48 270 48 Q333 48 368 101 Q403 154 403 263 Z " />
<glyph glyph-name="otilde" unicode="&#xf5;" horiz-adv-x="540" d="M498 263 Q498 193 479.5 141.5 Q461 90 429.5 56.5 Q398 23 357 6.5 Q316 -10 270 -10 Q224 -10 183 6.5 Q142 23 111 56.5 Q80 90 61.5 141.5 Q43 193 43 263 Q43 332 61.5 383.5 Q80 435 111 469 Q142 503 183 519.5 Q224 536 270 536 Q316 536 357 519.5 Q398 503 429.5 469 Q461 435 479.5 383.5 Q498 332 498 263 Z M403 263 Q403 372 368 424.5 Q333 477 270 477 Q207 477 172.5 424.5 Q138 372 138 263 Q138 154 172.5 101 Q207 48 270 48 Q333 48 368 101 Q403 154 403 263 Z M436 719 L436 680 Q436 641 416 620 Q396 599 359 599 Q336 599 315 607 Q294 615 274.5 625 Q255 635 236.5 643 Q218 651 200 651 Q178 651 169 642 Q160 633 160 624 L160 590 L117 590 L117 625 Q117 670 138.5 691 Q160 712 197 712 Q219 712 239.5 703.5 Q260 695 279.5 685 Q299 675 318.5 666.5 Q338 658 358 658 Q380 658 388 667.5 Q396 677 396 687 L396 719 L436 719 Z " />
<glyph glyph-name="odieresis" unicode="&#xf6;" horiz-adv-x="540" d="M165 658 Q165 677 177.5 690.5 Q190 704 210 704 Q230 704 242 690.5 Q254 677 254 658 Q254 639 242 626.5 Q230 614 210 614 Q190 614 177.5 626.5 Q165 639 165 658 Z M301 658 Q301 677 313.5 690.5 Q326 704 346 704 Q366 704 378.5 690.5 Q391 677 391 658 Q391 639 378.5 626.5 Q366 614 346 614 Q326 614 313.5 626.5 Q301 639 301 658 Z M498 263 Q498 193 479.5 141.5 Q461 90 429.5 56.5 Q398 23 357 6.5 Q316 -10 270 -10 Q224 -10 183 6.5 Q142 23 111 56.5 Q80 90 61.5 141.5 Q43 193 43 263 Q43 332 61.5 383.5 Q80 435 111 469 Q142 503 183 519.5 Q224 536 270 536 Q316 536 357 519.5 Q398 503 429.5 469 Q461 435 479.5 383.5 Q498 332 498 263 Z M403 263 Q403 372 368 424.5 Q333 477 270 477 Q207 477 172.5 424.5 Q138 372 138 263 Q138 154 172.5 101 Q207 48 270 48 Q333 48 368 101 Q403 154 403 263 Z " />
<glyph glyph-name="divide" unicode="&#xf7;" horiz-adv-x="528" d="M63 362 L466 362 L466 303 L63 303 L63 362 Z M217 170 Q217 190 231 203.5 Q245 217 264 217 Q283 217 297 203.5 Q311 190 311 170 Q311 151 297 137 Q283 123 264 123 Q245 123 231 137 Q217 151 217 170 Z M217 494 Q217 514 231 527.5 Q245 541 264 541 Q283 541 297 527.5 Q311 514 311 494 Q311 475 297 461 Q283 447 264 447 Q245 447 231 461 Q217 475 217 494 Z " />
<glyph glyph-name="oslash" unicode="&#xf8;" horiz-adv-x="548" d="M56 -10 L109 61 Q79 95 62 145 Q45 195 45 263 Q45 332 63.5 383.5 Q82 435 113.5 469 Q145 503 186 519.5 Q227 536 273 536 Q314 536 351.5 522.5 Q389 509 419 482 L459 536 L509 536 L447 452 Q472 418 486.5 371 Q501 324 501 263 Q501 193 482.5 141.5 Q464 90 432.5 56.5 Q401 23 360 6.5 Q319 -10 273 -10 Q236 -10 202 0.5 Q168 11 139 33 L108 -10 L56 -10 Z M140 263 Q140 182 160 131 L373 420 Q338 477 273 477 Q210 477 175 424.5 Q140 372 140 263 Z M406 263 Q406 329 392 377 L182 91 Q215 48 273 48 Q336 48 371 101 Q406 154 406 263 Z " />
<glyph glyph-name="ugrave" unicode="&#xf9;" horiz-adv-x="594" d="M453 526 Q477 526 485.5 514.5 Q494 503 494 486 L494 64 L509 49 L575 49 L575 0 L450 0 Q425 0 417 11.5 Q409 23 409 40 L409 67 L407 67 Q395 55 379 41 Q363 27 343 16 Q323 5 298.5 -2.5 Q274 -10 246 -10 Q202 -10 172.5 2.5 Q143 15 125.5 37 Q108 59 101 88 Q94 117 94 150 L94 459 L80 474 L13 474 L13 526 L143 526 Q167 526 176 513.5 Q185 501 185 482 L185 163 Q185 144 188.5 125.5 Q192 107 202.5 92.5 Q213 78 231 69 Q249 60 279 60 Q311 60 341.5 74.5 Q372 89 403 122 L403 459 L389 474 L322 474 L322 526 L453 526 Z M284 582 L271 582 L135 697 L177 747 L195 747 L309 609 L284 582 Z " />
<glyph glyph-name="uacute" unicode="&#xfa;" horiz-adv-x="594" d="M261 582 L236 609 L350 747 L369 747 L411 697 L276 582 L261 582 Z M453 526 Q477 526 485.5 514.5 Q494 503 494 486 L494 64 L509 49 L575 49 L575 0 L450 0 Q425 0 417 11.5 Q409 23 409 40 L409 67 L407 67 Q395 55 379 41 Q363 27 343 16 Q323 5 298.5 -2.5 Q274 -10 246 -10 Q202 -10 172.5 2.5 Q143 15 125.5 37 Q108 59 101 88 Q94 117 94 150 L94 459 L80 474 L13 474 L13 526 L143 526 Q167 526 176 513.5 Q185 501 185 482 L185 163 Q185 144 188.5 125.5 Q192 107 202.5 92.5 Q213 78 231 69 Q249 60 279 60 Q311 60 341.5 74.5 Q372 89 403 122 L403 459 L389 474 L322 474 L322 526 L453 526 Z " />
<glyph glyph-name="ucircumflex" unicode="&#xfb;" horiz-adv-x="594" d="M157 582 L140 602 L258 747 L290 747 L407 602 L391 582 L375 582 L273 682 L172 582 L157 582 Z M453 526 Q477 526 485.5 514.5 Q494 503 494 486 L494 64 L509 49 L575 49 L575 0 L450 0 Q425 0 417 11.5 Q409 23 409 40 L409 67 L407 67 Q395 55 379 41 Q363 27 343 16 Q323 5 298.5 -2.5 Q274 -10 246 -10 Q202 -10 172.5 2.5 Q143 15 125.5 37 Q108 59 101 88 Q94 117 94 150 L94 459 L80 474 L13 474 L13 526 L143 526 Q167 526 176 513.5 Q185 501 185 482 L185 163 Q185 144 188.5 125.5 Q192 107 202.5 92.5 Q213 78 231 69 Q249 60 279 60 Q311 60 341.5 74.5 Q372 89 403 122 L403 459 L389 474 L322 474 L322 526 L453 526 Z " />
<glyph glyph-name="udieresis" unicode="&#xfc;" horiz-adv-x="594" d="M161 658 Q161 677 173.5 690.5 Q186 704 206 704 Q226 704 238 690.5 Q250 677 250 658 Q250 639 238 626.5 Q226 614 206 614 Q186 614 173.5 626.5 Q161 639 161 658 Z M297 658 Q297 677 309.5 690.5 Q322 704 342 704 Q362 704 374.5 690.5 Q387 677 387 658 Q387 639 374.5 626.5 Q362 614 342 614 Q322 614 309.5 626.5 Q297 639 297 658 Z M453 526 Q477 526 485.5 514.5 Q494 503 494 486 L494 64 L509 49 L575 49 L575 0 L450 0 Q425 0 417 11.5 Q409 23 409 40 L409 67 L407 67 Q395 55 379 41 Q363 27 343 16 Q323 5 298.5 -2.5 Q274 -10 246 -10 Q202 -10 172.5 2.5 Q143 15 125.5 37 Q108 59 101 88 Q94 117 94 150 L94 459 L80 474 L13 474 L13 526 L143 526 Q167 526 176 513.5 Q185 501 185 482 L185 163 Q185 144 188.5 125.5 Q192 107 202.5 92.5 Q213 78 231 69 Q249 60 279 60 Q311 60 341.5 74.5 Q372 89 403 122 L403 459 L389 474 L322 474 L322 526 L453 526 Z " />
<glyph glyph-name="yacute" unicode="&#xfd;" horiz-adv-x="575" d="M511 474 L497 459 L290 -106 L303 -121 L366 -121 L366 -170 L132 -170 L132 -121 L210 -121 L225 -106 L258 -15 L77 460 L64 474 L4 474 L4 526 L243 526 L243 474 L184 474 L170 459 L301 104 L430 459 L418 474 L354 474 L354 526 L569 526 L569 474 L511 474 Z M290 582 L265 609 L379 747 L398 747 L440 697 L305 582 L290 582 Z " />
<glyph glyph-name="ygrave" unicode="&#x1ef3;" horiz-adv-x="575" d="M511 474 L497 459 L290 -106 L303 -121 L366 -121 L366 -170 L132 -170 L132 -121 L210 -121 L225 -106 L258 -15 L77 460 L64 474 L4 474 L4 526 L243 526 L243 474 L184 474 L170 459 L301 104 L430 459 L418 474 L354 474 L354 526 L569 526 L569 474 L511 474 Z M314 582 L301 582 L165 697 L207 747 L225 747 L339 609 L314 582 Z " />
<glyph glyph-name="thorn" unicode="&#xfe;" horiz-adv-x="556" d="M1 730 L132 730 Q156 730 164.5 719 Q173 708 173 691 L173 461 Q184 474 199 487 Q214 500 232 511 Q250 522 272 529 Q294 536 318 536 Q358 536 393.5 520 Q429 504 455.5 470.5 Q482 437 497.5 386.5 Q513 336 513 267 Q513 200 496.5 148.5 Q480 97 451 61.5 Q422 26 382.5 8 Q343 -10 296 -10 Q254 -10 224 5 Q194 20 173 39 L173 -106 L187 -121 L257 -121 L257 -170 L1 -170 L1 -121 L68 -121 L82 -106 L82 664 L68 678 L1 678 L1 730 Z M294 467 Q232 467 173 402 L173 109 Q190 90 218.5 70.5 Q247 51 287 50 Q346 49 382 102 Q418 155 418 266 Q418 372 386 419.5 Q354 467 294 467 Z " />
<glyph glyph-name="ydieresis" unicode="&#xff;" horiz-adv-x="575" d="M511 474 L497 459 L290 -106 L303 -121 L366 -121 L366 -170 L132 -170 L132 -121 L210 -121 L225 -106 L258 -15 L77 460 L64 474 L4 474 L4 526 L243 526 L243 474 L184 474 L170 459 L301 104 L430 459 L418 474 L354 474 L354 526 L569 526 L569 474 L511 474 Z M190 658 Q190 677 202.5 690.5 Q215 704 235 704 Q255 704 267 690.5 Q279 677 279 658 Q279 639 267 626.5 Q255 614 235 614 Q215 614 202.5 626.5 Q190 639 190 658 Z M326 658 Q326 677 338.5 690.5 Q351 704 371 704 Q391 704 403.5 690.5 Q416 677 416 658 Q416 639 403.5 626.5 Q391 614 371 614 Q351 614 338.5 626.5 Q326 639 326 658 Z " />
<glyph glyph-name="Amacron" unicode="&#x100;" horiz-adv-x="671" d="M452 204 L190 204 L145 64 L157 52 L223 52 L223 0 L-5 0 L-5 52 L58 52 L72 66 L291 702 L378 702 L601 64 L616 52 L678 52 L678 0 L426 0 L426 52 L488 52 L500 64 L452 204 Z M210 263 L432 263 L319 597 L210 263 Z M206 855 L462 855 L462 801 L206 801 L206 855 Z " />
<glyph glyph-name="amacron" unicode="&#x101;" horiz-adv-x="531" d="M520 0 L395 0 Q370 0 361.5 11.5 Q353 23 353 40 L353 69 L350 69 Q339 57 324.5 43 Q310 29 291 17 Q272 5 248 -2.5 Q224 -10 195 -10 Q156 -10 127.5 2 Q99 14 79.5 34.5 Q60 55 50.5 82.5 Q41 110 41 141 Q41 178 53.5 207 Q66 236 88.5 255.5 Q111 275 141 285 Q171 295 206 295 L348 295 L348 352 Q348 378 344 401 Q340 424 328 441 Q316 458 294.5 468 Q273 478 237 478 Q214 478 192 473 Q170 468 152 463 L138 450 L138 367 L74 367 L74 501 Q106 512 152.5 524 Q199 536 262 536 Q313 536 347 522.5 Q381 509 401.5 486 Q422 463 430.5 432 Q439 401 439 366 L439 65 L453 49 L520 49 L520 0 Z M226 60 Q258 60 289.5 77.5 Q321 95 348 122 L348 236 L229 236 Q186 236 159.5 216 Q133 196 133 144 Q133 125 137 109.5 Q141 94 151.5 83 Q162 72 180 66 Q198 60 226 60 Z M129 681 L384 681 L384 626 L129 626 L129 681 Z " />
<glyph glyph-name="Abreve" unicode="&#x102;" horiz-adv-x="671" d="M452 204 L190 204 L145 64 L157 52 L223 52 L223 0 L-5 0 L-5 52 L58 52 L72 66 L291 702 L378 702 L601 64 L616 52 L678 52 L678 0 L426 0 L426 52 L488 52 L500 64 L452 204 Z M210 263 L432 263 L319 597 L210 263 Z M458 881 Q454 859 444.5 839 Q435 819 420 803.5 Q405 788 383.5 778.5 Q362 769 335 769 Q308 769 286.5 778.5 Q265 788 250 803.5 Q235 819 225.5 839 Q216 859 212 881 L257 892 Q264 864 282.5 842.5 Q301 821 335 821 Q370 821 390.5 842 Q411 863 417 890 L458 881 Z " />
<glyph glyph-name="abreve" unicode="&#x103;" horiz-adv-x="531" d="M520 0 L395 0 Q370 0 361.5 11.5 Q353 23 353 40 L353 69 L350 69 Q339 57 324.5 43 Q310 29 291 17 Q272 5 248 -2.5 Q224 -10 195 -10 Q156 -10 127.5 2 Q99 14 79.5 34.5 Q60 55 50.5 82.5 Q41 110 41 141 Q41 178 53.5 207 Q66 236 88.5 255.5 Q111 275 141 285 Q171 295 206 295 L348 295 L348 352 Q348 378 344 401 Q340 424 328 441 Q316 458 294.5 468 Q273 478 237 478 Q214 478 192 473 Q170 468 152 463 L138 450 L138 367 L74 367 L74 501 Q106 512 152.5 524 Q199 536 262 536 Q313 536 347 522.5 Q381 509 401.5 486 Q422 463 430.5 432 Q439 401 439 366 L439 65 L453 49 L520 49 L520 0 Z M226 60 Q258 60 289.5 77.5 Q321 95 348 122 L348 236 L229 236 Q186 236 159.5 216 Q133 196 133 144 Q133 125 137 109.5 Q141 94 151.5 83 Q162 72 180 66 Q198 60 226 60 Z M380 706 Q376 685 366.5 665 Q357 645 342 629.5 Q327 614 305.5 604.5 Q284 595 257 595 Q230 595 208.5 604.5 Q187 614 172 629.5 Q157 645 147.5 665 Q138 685 134 706 L180 718 Q186 690 204.5 668.5 Q223 647 258 647 Q293 647 313 668 Q333 689 340 716 L380 706 Z " />
<glyph glyph-name="Aogonek" unicode="&#x104;" horiz-adv-x="670" d="M451 204 L190 204 L144 64 L156 52 L222 52 L222 0 L-6 0 L-6 52 L57 52 L71 66 L290 702 L377 702 L600 64 L615 52 L677 52 L677 0 L623 0 Q574 -9 541 -30.5 Q508 -52 508 -86 Q508 -119 526.5 -131.5 Q545 -144 576 -144 Q597 -144 618 -137 Q639 -130 650 -123 L665 -151 Q648 -163 618.5 -171.5 Q589 -180 557 -180 Q506 -180 475 -160.5 Q444 -141 444 -97 Q444 -63 466 -39 Q488 -15 522 0 L425 0 L425 52 L487 52 L499 64 L451 204 Z M209 263 L431 263 L318 597 L209 263 Z " />
<glyph glyph-name="aogonek" unicode="&#x105;" horiz-adv-x="531" d="M520 0 L473 0 Q425 -9 391.5 -30.5 Q358 -52 358 -86 Q358 -119 377 -131.5 Q396 -144 426 -144 Q447 -144 468.5 -137 Q490 -130 500 -123 L516 -151 Q499 -163 469.5 -171.5 Q440 -180 408 -180 Q356 -180 325.5 -160.5 Q295 -141 295 -97 Q295 -62 318.5 -37.5 Q342 -13 379 2 Q363 6 358 16 Q353 26 353 40 L353 69 L350 69 Q339 57 324.5 43 Q310 29 291 17 Q272 5 248 -2.5 Q224 -10 195 -10 Q156 -10 127.5 2 Q99 14 79.5 34.5 Q60 55 50.5 82.5 Q41 110 41 141 Q41 178 53.5 207 Q66 236 88.5 255.5 Q111 275 141 285 Q171 295 206 295 L348 295 L348 352 Q348 378 344 401 Q340 424 328 441 Q316 458 294.5 468 Q273 478 237 478 Q214 478 192 473 Q170 468 152 463 L138 450 L138 367 L74 367 L74 501 Q106 512 152.5 524 Q199 536 262 536 Q313 536 347 522.5 Q381 509 401.5 486 Q422 463 430.5 432 Q439 401 439 366 L439 65 L453 49 L520 49 L520 0 Z M226 60 Q258 60 289.5 77.5 Q321 95 348 122 L348 236 L229 236 Q186 236 159.5 216 Q133 196 133 144 Q133 125 137 109.5 Q141 94 151.5 83 Q162 72 180 66 Q198 60 226 60 Z " />
<glyph glyph-name="Cacute" unicode="&#x106;" horiz-adv-x="587" d="M543 27 Q511 13 466 1 Q421 -11 356 -10 Q210 -9 130 78 Q50 165 50 350 Q50 441 72.5 509 Q95 577 136.5 621.5 Q178 666 236.5 688 Q295 710 367 710 Q430 710 475 701 Q520 692 534 684 L534 531 L471 531 L471 620 L459 633 Q419 647 367 647 Q255 647 203.5 573.5 Q152 500 152 357 Q152 203 204.5 129 Q257 55 372 55 Q427 55 466 68 L479 82 L479 175 L543 175 L543 27 Z M353 756 L328 783 L442 922 L460 922 L502 871 L367 756 L353 756 Z " />
<glyph glyph-name="cacute" unicode="&#x107;" horiz-adv-x="463" d="M282 582 L257 609 L371 747 L390 747 L432 697 L297 582 L282 582 Z M420 26 Q397 8 360 -1 Q323 -10 281 -10 Q233 -10 189.5 6 Q146 22 113 54.5 Q80 87 61 136.5 Q42 186 42 254 Q42 322 61.5 374.5 Q81 427 114.5 463 Q148 499 193 517.5 Q238 536 288 536 Q337 536 372.5 527 Q408 518 421 513 L421 378 L358 378 L358 456 L345 468 Q334 472 321 474.5 Q308 477 294 477 Q220 477 178.5 423.5 Q137 370 137 258 Q137 148 182 99.5 Q227 51 304 51 Q339 51 371 58.5 Q403 66 420 76 L420 26 Z " />
<glyph glyph-name="Ccircumflex" unicode="&#x108;" horiz-adv-x="587" d="M543 27 Q511 13 466 1 Q421 -11 356 -10 Q210 -9 130 78 Q50 165 50 350 Q50 441 72.5 509 Q95 577 136.5 621.5 Q178 666 236.5 688 Q295 710 367 710 Q430 710 475 701 Q520 692 534 684 L534 531 L471 531 L471 620 L459 633 Q419 647 367 647 Q255 647 203.5 573.5 Q152 500 152 357 Q152 203 204.5 129 Q257 55 372 55 Q427 55 466 68 L479 82 L479 175 L543 175 L543 27 Z M246 756 L227 778 L348 924 L381 924 L501 778 L483 756 L467 756 L365 855 L261 756 L246 756 Z " />
<glyph glyph-name="ccircumflex" unicode="&#x109;" horiz-adv-x="463" d="M179 582 L162 602 L280 747 L312 747 L429 602 L413 582 L397 582 L295 682 L194 582 L179 582 Z M420 26 Q397 8 360 -1 Q323 -10 281 -10 Q233 -10 189.5 6 Q146 22 113 54.5 Q80 87 61 136.5 Q42 186 42 254 Q42 322 61.5 374.5 Q81 427 114.5 463 Q148 499 193 517.5 Q238 536 288 536 Q337 536 372.5 527 Q408 518 421 513 L421 378 L358 378 L358 456 L345 468 Q334 472 321 474.5 Q308 477 294 477 Q220 477 178.5 423.5 Q137 370 137 258 Q137 148 182 99.5 Q227 51 304 51 Q339 51 371 58.5 Q403 66 420 76 L420 26 Z " />
<glyph glyph-name="Cdotaccent" unicode="&#x10a;" horiz-adv-x="587" d="M305 836 Q305 859 322.5 875 Q340 891 363 891 Q387 891 404.5 875 Q422 859 422 836 Q422 814 404.5 797.5 Q387 781 363 781 Q340 781 322.5 797.5 Q305 814 305 836 Z M543 27 Q511 13 466 1 Q421 -11 356 -10 Q210 -9 130 78 Q50 165 50 350 Q50 441 72.5 509 Q95 577 136.5 621.5 Q178 666 236.5 688 Q295 710 367 710 Q430 710 475 701 Q520 692 534 684 L534 531 L471 531 L471 620 L459 633 Q419 647 367 647 Q255 647 203.5 573.5 Q152 500 152 357 Q152 203 204.5 129 Q257 55 372 55 Q427 55 466 68 L479 82 L479 175 L543 175 L543 27 Z " />
<glyph glyph-name="cdotaccent" unicode="&#x10b;" horiz-adv-x="463" d="M420 26 Q397 8 360 -1 Q323 -10 281 -10 Q233 -10 189.5 6 Q146 22 113 54.5 Q80 87 61 136.5 Q42 186 42 254 Q42 322 61.5 374.5 Q81 427 114.5 463 Q148 499 193 517.5 Q238 536 288 536 Q337 536 372.5 527 Q408 518 421 513 L421 378 L358 378 L358 456 L345 468 Q334 472 321 474.5 Q308 477 294 477 Q220 477 178.5 423.5 Q137 370 137 258 Q137 148 182 99.5 Q227 51 304 51 Q339 51 371 58.5 Q403 66 420 76 L420 26 Z M235 663 Q235 684 252 701 Q269 718 293 718 Q316 718 333.5 701 Q351 684 351 663 Q351 640 333.5 623.5 Q316 607 293 607 Q269 607 252 623.5 Q235 640 235 663 Z " />
<glyph glyph-name="Ccaron" unicode="&#x10c;" horiz-adv-x="587" d="M543 27 Q511 13 466 1 Q421 -11 356 -10 Q210 -9 130 78 Q50 165 50 350 Q50 441 72.5 509 Q95 577 136.5 621.5 Q178 666 236.5 688 Q295 710 367 710 Q430 710 475 701 Q520 692 534 684 L534 531 L471 531 L471 620 L459 633 Q419 647 367 647 Q255 647 203.5 573.5 Q152 500 152 357 Q152 203 204.5 129 Q257 55 372 55 Q427 55 466 68 L479 82 L479 175 L543 175 L543 27 Z M484 924 L501 902 L382 756 L348 756 L228 902 L246 924 L262 924 L365 825 L468 924 L484 924 Z " />
<glyph glyph-name="ccaron" unicode="&#x10d;" horiz-adv-x="463" d="M414 749 L431 728 L312 582 L278 582 L159 728 L176 749 L193 749 L295 650 L398 749 L414 749 Z M420 26 Q397 8 360 -1 Q323 -10 281 -10 Q233 -10 189.5 6 Q146 22 113 54.5 Q80 87 61 136.5 Q42 186 42 254 Q42 322 61.5 374.5 Q81 427 114.5 463 Q148 499 193 517.5 Q238 536 288 536 Q337 536 372.5 527 Q408 518 421 513 L421 378 L358 378 L358 456 L345 468 Q334 472 321 474.5 Q308 477 294 477 Q220 477 178.5 423.5 Q137 370 137 258 Q137 148 182 99.5 Q227 51 304 51 Q339 51 371 58.5 Q403 66 420 76 L420 26 Z " />
<glyph glyph-name="Dcaron" unicode="&#x10e;" horiz-adv-x="701" d="M44 52 L110 52 L125 66 L125 634 L110 648 L44 648 L44 700 L340 700 Q412 700 469.5 679.5 Q527 659 567.5 617 Q608 575 630 510 Q652 445 652 357 Q652 266 630 199 Q608 132 567.5 87.5 Q527 43 469.5 21.5 Q412 0 340 0 L44 0 L44 52 Z M222 61 L340 61 Q449 61 499 133.5 Q549 206 549 357 Q549 502 498.5 570.5 Q448 639 340 639 L222 639 L222 61 Z M477 924 L494 902 L375 756 L341 756 L221 902 L239 924 L255 924 L358 825 L461 924 L477 924 Z " />
<glyph glyph-name="dcaron" unicode="&#x10f;" horiz-adv-x="605" d="M575 582 L575 780 L636 780 L636 699 L625 582 L575 582 Z M431 0 Q406 0 398 11.5 Q390 23 390 40 L390 68 L388 68 Q377 55 362 41.5 Q347 28 328 16.5 Q309 5 287 -2.5 Q265 -10 240 -10 Q199 -10 163.5 6 Q128 22 101.5 55 Q75 88 59.5 138 Q44 188 44 257 Q44 324 60 376 Q76 428 105 463.5 Q134 499 174 517.5 Q214 536 261 536 Q301 536 331.5 523 Q362 510 384 493 L384 664 L370 678 L303 678 L303 730 L434 730 Q458 730 466.5 719 Q475 708 475 691 L475 64 L490 49 L556 49 L556 0 L431 0 Z M263 59 Q326 59 384 123 L384 424 Q367 442 339 458.5 Q311 475 272 475 Q212 475 176 422.5 Q140 370 140 258 Q140 153 171.5 106 Q203 59 263 59 Z " />
<glyph glyph-name="Dcroat" unicode="&#x110;" horiz-adv-x="702" d="M45 381 L125 381 L125 635 L111 649 L45 649 L45 701 L341 701 Q413 701 470.5 680.5 Q528 660 568.5 618 Q609 576 631 511 Q653 446 653 358 Q653 267 631 200 Q609 133 568.5 88.5 Q528 44 470.5 22.5 Q413 1 341 1 L45 1 L45 53 L111 53 L125 67 L125 334 L45 334 L45 381 Z M223 381 L400 381 L400 334 L223 334 L223 62 L341 62 Q450 62 500 134.5 Q550 207 550 358 Q550 503 499.5 571.5 Q449 640 341 640 L223 640 L223 381 Z " />
<glyph glyph-name="dcroat" unicode="&#x111;" horiz-adv-x="575" d="M273 629 L384 629 L384 664 L370 678 L303 678 L303 730 L434 730 Q458 730 466.5 719 Q475 708 475 691 L475 629 L564 629 L564 584 L475 584 L475 64 L490 49 L556 49 L556 0 L431 0 Q406 0 398 11.5 Q390 23 390 40 L390 68 L388 68 Q377 55 362 41.5 Q347 28 328 16.5 Q309 5 287 -2.5 Q265 -10 240 -10 Q199 -10 163.5 6 Q128 22 101.5 55 Q75 88 59.5 138 Q44 188 44 257 Q44 324 60 376 Q76 428 105 463.5 Q134 499 174 517.5 Q214 536 261 536 Q301 536 331.5 523 Q362 510 384 493 L384 584 L273 584 L273 629 Z M263 59 Q326 59 384 123 L384 424 Q367 442 339 458.5 Q311 475 272 475 Q212 475 176 422.5 Q140 370 140 258 Q140 153 171.5 106 Q203 59 263 59 Z " />
<glyph glyph-name="Emacron" unicode="&#x112;" horiz-adv-x="626" d="M222 641 L222 386 L405 386 L419 400 L419 466 L475 466 L475 251 L419 251 L419 317 L406 330 L222 330 L222 59 L506 59 L520 73 L520 161 L580 161 L580 0 L44 0 L44 52 L110 52 L125 66 L125 634 L110 648 L44 648 L44 700 L570 700 L570 540 L510 540 L510 628 L496 641 L222 641 Z M213 855 L469 855 L469 801 L213 801 L213 855 Z " />
<glyph glyph-name="emacron" unicode="&#x113;" horiz-adv-x="507" d="M454 239 L137 239 Q142 139 187 94.5 Q232 50 310 50 Q352 50 386 58.5 Q420 67 440 76 L440 24 Q414 10 376 0 Q338 -10 281 -10 Q231 -10 187.5 5.5 Q144 21 112 53.5 Q80 86 61.5 136.5 Q43 187 43 257 Q43 328 61 380.5 Q79 433 109.5 467.5 Q140 502 181 519 Q222 536 268 536 Q309 536 345.5 522 Q382 508 409 481 Q436 454 452 413.5 Q468 373 468 321 L468 252 L454 239 Z M266 479 Q212 479 177.5 434.5 Q143 390 137 298 L376 298 L376 327 Q376 406 345 442.5 Q314 479 266 479 Z M147 681 L402 681 L402 626 L147 626 L147 681 Z " />
<glyph glyph-name="Ebreve" unicode="&#x114;" horiz-adv-x="626" d="M222 641 L222 386 L405 386 L419 400 L419 466 L475 466 L475 251 L419 251 L419 317 L406 330 L222 330 L222 59 L506 59 L520 73 L520 161 L580 161 L580 0 L44 0 L44 52 L110 52 L125 66 L125 634 L110 648 L44 648 L44 700 L570 700 L570 540 L510 540 L510 628 L496 641 L222 641 Z M465 881 Q461 859 451.5 839 Q442 819 427 803.5 Q412 788 390.5 778.5 Q369 769 342 769 Q315 769 293.5 778.5 Q272 788 257 803.5 Q242 819 232.5 839 Q223 859 219 881 L264 892 Q271 864 289.5 842.5 Q308 821 342 821 Q377 821 397.5 842 Q418 863 424 890 L465 881 Z " />
<glyph glyph-name="ebreve" unicode="&#x115;" horiz-adv-x="507" d="M454 239 L137 239 Q142 139 187 94.5 Q232 50 310 50 Q352 50 386 58.5 Q420 67 440 76 L440 24 Q414 10 376 0 Q338 -10 281 -10 Q231 -10 187.5 5.5 Q144 21 112 53.5 Q80 86 61.5 136.5 Q43 187 43 257 Q43 328 61 380.5 Q79 433 109.5 467.5 Q140 502 181 519 Q222 536 268 536 Q309 536 345.5 522 Q382 508 409 481 Q436 454 452 413.5 Q468 373 468 321 L468 252 L454 239 Z M266 479 Q212 479 177.5 434.5 Q143 390 137 298 L376 298 L376 327 Q376 406 345 442.5 Q314 479 266 479 Z M398 706 Q394 685 384.5 665 Q375 645 360 629.5 Q345 614 323.5 604.5 Q302 595 275 595 Q248 595 226.5 604.5 Q205 614 190 629.5 Q175 645 165.5 665 Q156 685 152 706 L198 718 Q204 690 222.5 668.5 Q241 647 276 647 Q311 647 331 668 Q351 689 358 716 L398 706 Z " />
<glyph glyph-name="Edotaccent" unicode="&#x116;" horiz-adv-x="626" d="M282 836 Q282 859 299.5 875 Q317 891 340 891 Q364 891 381.5 875 Q399 859 399 836 Q399 814 381.5 797.5 Q364 781 340 781 Q317 781 299.5 797.5 Q282 814 282 836 Z M222 641 L222 386 L405 386 L419 400 L419 466 L475 466 L475 251 L419 251 L419 317 L406 330 L222 330 L222 59 L506 59 L520 73 L520 161 L580 161 L580 0 L44 0 L44 52 L110 52 L125 66 L125 634 L110 648 L44 648 L44 700 L570 700 L570 540 L510 540 L510 628 L496 641 L222 641 Z " />
<glyph glyph-name="edotaccent" unicode="&#x117;" horiz-adv-x="507" d="M454 239 L137 239 Q142 139 187 94.5 Q232 50 310 50 Q352 50 386 58.5 Q420 67 440 76 L440 24 Q414 10 376 0 Q338 -10 281 -10 Q231 -10 187.5 5.5 Q144 21 112 53.5 Q80 86 61.5 136.5 Q43 187 43 257 Q43 328 61 380.5 Q79 433 109.5 467.5 Q140 502 181 519 Q222 536 268 536 Q309 536 345.5 522 Q382 508 409 481 Q436 454 452 413.5 Q468 373 468 321 L468 252 L454 239 Z M266 479 Q212 479 177.5 434.5 Q143 390 137 298 L376 298 L376 327 Q376 406 345 442.5 Q314 479 266 479 Z M215 663 Q215 684 232 701 Q249 718 273 718 Q296 718 313.5 701 Q331 684 331 663 Q331 640 313.5 623.5 Q296 607 273 607 Q249 607 232 623.5 Q215 640 215 663 Z " />
<glyph glyph-name="Eogonek" unicode="&#x118;" horiz-adv-x="626" d="M222 641 L222 386 L405 386 L419 400 L419 466 L475 466 L475 251 L419 251 L419 317 L406 330 L222 330 L222 59 L506 59 L520 73 L520 161 L580 161 L580 0 L533 0 Q485 -9 452.5 -30.5 Q420 -52 420 -86 Q420 -119 438.5 -131.5 Q457 -144 487 -144 Q509 -144 530 -137 Q551 -130 562 -123 L577 -151 Q560 -163 530.5 -171.5 Q501 -180 469 -180 Q418 -180 387 -160.5 Q356 -141 356 -97 Q356 -62 379 -38.5 Q402 -15 436 0 L44 0 L44 52 L110 52 L125 66 L125 634 L110 648 L44 648 L44 700 L570 700 L570 540 L510 540 L510 628 L496 641 L222 641 Z " />
<glyph glyph-name="eogonek" unicode="&#x119;" horiz-adv-x="507" d="M413 -151 Q396 -163 366.5 -171.5 Q337 -180 305 -180 Q253 -180 222.5 -160.5 Q192 -141 192 -97 Q192 -67 209.5 -45 Q227 -23 255 -9 Q210 -5 171 12.5 Q132 30 103.5 62.5 Q75 95 58.5 143 Q42 191 42 257 Q42 328 60 380.5 Q78 433 109 467.5 Q140 502 181 519 Q222 536 268 536 Q309 536 345.5 522 Q382 508 409 481 Q436 454 451.5 413.5 Q467 373 467 321 L467 252 L454 239 L136 239 Q141 139 186.5 94.5 Q232 50 310 50 Q352 50 385.5 58.5 Q419 67 440 76 L440 24 Q426 16 406.5 9 Q387 2 364 -3 Q317 -13 286 -33 Q255 -53 255 -86 Q255 -119 274 -131.5 Q293 -144 323 -144 Q344 -144 365.5 -137 Q387 -130 397 -123 L413 -151 Z M266 479 Q212 479 178 434.5 Q144 390 137 298 L376 298 L376 327 Q376 406 345 442.5 Q314 479 266 479 Z " />
<glyph glyph-name="Ecaron" unicode="&#x11a;" horiz-adv-x="626" d="M222 641 L222 386 L405 386 L419 400 L419 466 L475 466 L475 251 L419 251 L419 317 L406 330 L222 330 L222 59 L506 59 L520 73 L520 161 L580 161 L580 0 L44 0 L44 52 L110 52 L125 66 L125 634 L110 648 L44 648 L44 700 L570 700 L570 540 L510 540 L510 628 L496 641 L222 641 Z M461 924 L478 902 L359 756 L325 756 L205 902 L223 924 L239 924 L342 825 L445 924 L461 924 Z " />
<glyph glyph-name="ecaron" unicode="&#x11b;" horiz-adv-x="507" d="M394 749 L411 728 L292 582 L258 582 L139 728 L156 749 L173 749 L275 650 L378 749 L394 749 Z M454 239 L137 239 Q142 139 187 94.5 Q232 50 310 50 Q352 50 386 58.5 Q420 67 440 76 L440 24 Q414 10 376 0 Q338 -10 281 -10 Q231 -10 187.5 5.5 Q144 21 112 53.5 Q80 86 61.5 136.5 Q43 187 43 257 Q43 328 61 380.5 Q79 433 109.5 467.5 Q140 502 181 519 Q222 536 268 536 Q309 536 345.5 522 Q382 508 409 481 Q436 454 452 413.5 Q468 373 468 321 L468 252 L454 239 Z M266 479 Q212 479 177.5 434.5 Q143 390 137 298 L376 298 L376 327 Q376 406 345 442.5 Q314 479 266 479 Z " />
<glyph glyph-name="Gcircumflex" unicode="&#x11c;" horiz-adv-x="641" d="M247 756 L228 778 L349 924 L382 924 L502 778 L484 756 L468 756 L366 855 L262 756 L247 756 Z M549 277 L549 27 Q516 13 470 1.5 Q424 -10 358 -10 Q285 -10 227.5 11 Q170 32 130.5 76 Q91 120 70.5 188 Q50 256 50 350 Q50 441 72.5 508.5 Q95 576 136.5 621 Q178 666 236.5 688 Q295 710 368 710 Q434 710 482.5 701 Q531 692 545 684 L545 531 L482 531 L482 620 L471 631 Q449 639 424 643.5 Q399 648 368 648 Q255 648 203.5 574.5 Q152 501 152 358 Q152 204 204.5 127.5 Q257 51 373 51 Q395 51 421.5 54.5 Q448 58 462 65 L462 277 L448 291 L389 291 L389 343 L612 343 L612 291 L563 291 L549 277 Z " />
<glyph glyph-name="gcircumflex" unicode="&#x11d;" horiz-adv-x="539" d="M149 582 L132 602 L250 747 L282 747 L399 602 L383 582 L367 582 L265 682 L164 582 L149 582 Z M457 367 Q457 324 440.5 292 Q424 260 396.5 239 Q369 218 332 207.5 Q295 197 255 197 Q231 197 208.5 200 Q186 203 166 211 Q127 192 127 162 Q127 142 141 131 Q155 120 190 120 L347 120 Q383 120 412.5 112 Q442 104 464 88.5 Q486 73 498 49.5 Q510 26 510 -4 Q510 -48 489 -80.5 Q468 -113 432 -135.5 Q396 -158 347.5 -169 Q299 -180 244 -180 Q143 -180 86 -154.5 Q29 -129 29 -68 Q29 -45 36.5 -27 Q44 -9 56 5 Q68 19 83 28.5 Q98 38 112 45 Q82 56 64.5 78 Q47 100 47 130 Q47 159 66 186 Q85 213 123 232 Q91 253 73 286 Q55 319 55 367 Q55 410 71 442 Q87 474 114 495 Q141 516 177.5 526 Q214 536 255 536 Q275 536 294.5 533.5 Q314 531 332 526 L509 526 L509 474 L421 474 L419 472 Q437 452 447 426 Q457 400 457 367 Z M370 367 Q370 427 337.5 456.5 Q305 486 255 486 Q205 486 173 456.5 Q141 427 141 367 Q141 306 173 276.5 Q205 247 255 247 Q305 247 337.5 276.5 Q370 306 370 367 Z M166 38 Q159 35 149.5 28 Q140 21 131 10 Q122 -1 116 -16 Q110 -31 110 -50 Q110 -91 143 -109.5 Q176 -128 250 -128 Q286 -128 318 -122.5 Q350 -117 374 -105 Q398 -93 411.5 -73.5 Q425 -54 425 -27 Q425 6 402.5 22 Q380 38 329 38 L166 38 Z " />
<glyph glyph-name="Gbreve" unicode="&#x11e;" horiz-adv-x="641" d="M549 277 L549 27 Q516 13 470 1.5 Q424 -10 358 -10 Q285 -10 227.5 11 Q170 32 130.5 76 Q91 120 70.5 188 Q50 256 50 350 Q50 441 72.5 508.5 Q95 576 136.5 621 Q178 666 236.5 688 Q295 710 368 710 Q434 710 482.5 701 Q531 692 545 684 L545 531 L482 531 L482 620 L471 631 Q449 639 424 643.5 Q399 648 368 648 Q255 648 203.5 574.5 Q152 501 152 358 Q152 204 204.5 127.5 Q257 51 373 51 Q395 51 421.5 54.5 Q448 58 462 65 L462 277 L448 291 L389 291 L389 343 L612 343 L612 291 L563 291 L549 277 Z M489 881 Q485 859 475.5 839 Q466 819 451 803.5 Q436 788 414.5 778.5 Q393 769 366 769 Q339 769 317.5 778.5 Q296 788 281 803.5 Q266 819 256.5 839 Q247 859 243 881 L288 892 Q295 864 313.5 842.5 Q332 821 366 821 Q401 821 421.5 842 Q442 863 448 890 L489 881 Z " />
<glyph glyph-name="gbreve" unicode="&#x11f;" horiz-adv-x="539" d="M457 367 Q457 324 440.5 292 Q424 260 396.5 239 Q369 218 332 207.5 Q295 197 255 197 Q231 197 208.5 200 Q186 203 166 211 Q127 192 127 162 Q127 142 141 131 Q155 120 190 120 L347 120 Q383 120 412.5 112 Q442 104 464 88.5 Q486 73 498 49.5 Q510 26 510 -4 Q510 -48 489 -80.5 Q468 -113 432 -135.5 Q396 -158 347.5 -169 Q299 -180 244 -180 Q143 -180 86 -154.5 Q29 -129 29 -68 Q29 -45 36.5 -27 Q44 -9 56 5 Q68 19 83 28.5 Q98 38 112 45 Q82 56 64.5 78 Q47 100 47 130 Q47 159 66 186 Q85 213 123 232 Q91 253 73 286 Q55 319 55 367 Q55 410 71 442 Q87 474 114 495 Q141 516 177.5 526 Q214 536 255 536 Q275 536 294.5 533.5 Q314 531 332 526 L509 526 L509 474 L421 474 L419 472 Q437 452 447 426 Q457 400 457 367 Z M370 367 Q370 427 337.5 456.5 Q305 486 255 486 Q205 486 173 456.5 Q141 427 141 367 Q141 306 173 276.5 Q205 247 255 247 Q305 247 337.5 276.5 Q370 306 370 367 Z M166 38 Q159 35 149.5 28 Q140 21 131 10 Q122 -1 116 -16 Q110 -31 110 -50 Q110 -91 143 -109.5 Q176 -128 250 -128 Q286 -128 318 -122.5 Q350 -117 374 -105 Q398 -93 411.5 -73.5 Q425 -54 425 -27 Q425 6 402.5 22 Q380 38 329 38 L166 38 Z M388 706 Q384 685 374.5 665 Q365 645 350 629.5 Q335 614 313.5 604.5 Q292 595 265 595 Q238 595 216.5 604.5 Q195 614 180 629.5 Q165 645 155.5 665 Q146 685 142 706 L188 718 Q194 690 212.5 668.5 Q231 647 266 647 Q301 647 321 668 Q341 689 348 716 L388 706 Z " />
<glyph glyph-name="Gdotaccent" unicode="&#x120;" horiz-adv-x="641" d="M307 836 Q307 859 324.5 875 Q342 891 365 891 Q389 891 406.5 875 Q424 859 424 836 Q424 814 406.5 797.5 Q389 781 365 781 Q342 781 324.5 797.5 Q307 814 307 836 Z M549 277 L549 27 Q516 13 470 1.5 Q424 -10 358 -10 Q285 -10 227.5 11 Q170 32 130.5 76 Q91 120 70.5 188 Q50 256 50 350 Q50 441 72.5 508.5 Q95 576 136.5 621 Q178 666 236.5 688 Q295 710 368 710 Q434 710 482.5 701 Q531 692 545 684 L545 531 L482 531 L482 620 L471 631 Q449 639 424 643.5 Q399 648 368 648 Q255 648 203.5 574.5 Q152 501 152 358 Q152 204 204.5 127.5 Q257 51 373 51 Q395 51 421.5 54.5 Q448 58 462 65 L462 277 L448 291 L389 291 L389 343 L612 343 L612 291 L563 291 L549 277 Z " />
<glyph glyph-name="gdotaccent" unicode="&#x121;" horiz-adv-x="539" d="M457 367 Q457 324 440.5 292 Q424 260 396.5 239 Q369 218 332 207.5 Q295 197 255 197 Q231 197 208.5 200 Q186 203 166 211 Q127 192 127 162 Q127 142 141 131 Q155 120 190 120 L347 120 Q383 120 412.5 112 Q442 104 464 88.5 Q486 73 498 49.5 Q510 26 510 -4 Q510 -48 489 -80.5 Q468 -113 432 -135.5 Q396 -158 347.5 -169 Q299 -180 244 -180 Q143 -180 86 -154.5 Q29 -129 29 -68 Q29 -45 36.5 -27 Q44 -9 56 5 Q68 19 83 28.5 Q98 38 112 45 Q82 56 64.5 78 Q47 100 47 130 Q47 159 66 186 Q85 213 123 232 Q91 253 73 286 Q55 319 55 367 Q55 410 71 442 Q87 474 114 495 Q141 516 177.5 526 Q214 536 255 536 Q275 536 294.5 533.5 Q314 531 332 526 L509 526 L509 474 L421 474 L419 472 Q437 452 447 426 Q457 400 457 367 Z M370 367 Q370 427 337.5 456.5 Q305 486 255 486 Q205 486 173 456.5 Q141 427 141 367 Q141 306 173 276.5 Q205 247 255 247 Q305 247 337.5 276.5 Q370 306 370 367 Z M166 38 Q159 35 149.5 28 Q140 21 131 10 Q122 -1 116 -16 Q110 -31 110 -50 Q110 -91 143 -109.5 Q176 -128 250 -128 Q286 -128 318 -122.5 Q350 -117 374 -105 Q398 -93 411.5 -73.5 Q425 -54 425 -27 Q425 6 402.5 22 Q380 38 329 38 L166 38 Z M205 663 Q205 684 222 701 Q239 718 263 718 Q286 718 303.5 701 Q321 684 321 663 Q321 640 303.5 623.5 Q286 607 263 607 Q239 607 222 623.5 Q205 640 205 663 Z " />
<glyph glyph-name="uni0122" unicode="&#x122;" horiz-adv-x="641" d="M338 -276 Q337 -276 331.5 -273.5 Q326 -271 319 -267 L301 -257 L335 -196 L328 -180 Q303 -167 303 -138 Q303 -114 315.5 -100.5 Q328 -87 354 -87 Q379 -87 392.5 -100 Q406 -113 406 -136 Q406 -146 402 -155.5 Q398 -165 393 -174 L338 -276 Z M549 277 L549 27 Q516 13 470 1.5 Q424 -10 358 -10 Q285 -10 227.5 11 Q170 32 130.5 76 Q91 120 70.5 188 Q50 256 50 350 Q50 441 72.5 508.5 Q95 576 136.5 621 Q178 666 236.5 688 Q295 710 368 710 Q434 710 482.5 701 Q531 692 545 684 L545 531 L482 531 L482 620 L471 631 Q449 639 424 643.5 Q399 648 368 648 Q255 648 203.5 574.5 Q152 501 152 358 Q152 204 204.5 127.5 Q257 51 373 51 Q395 51 421.5 54.5 Q448 58 462 65 L462 277 L448 291 L389 291 L389 343 L612 343 L612 291 L563 291 L549 277 Z " />
<glyph glyph-name="uni0123" unicode="&#x123;" horiz-adv-x="539" d="M319 777 L285 716 L291 700 Q316 687 316 658 Q316 634 304 620.5 Q292 607 266 607 Q241 607 227.5 620 Q214 633 214 656 Q214 666 218 675.5 Q222 685 227 694 L282 796 L319 777 Z M457 367 Q457 324 440.5 292 Q424 260 396.5 239 Q369 218 332 207.5 Q295 197 255 197 Q231 197 208.5 200 Q186 203 166 211 Q127 192 127 162 Q127 142 141 131 Q155 120 190 120 L347 120 Q383 120 412.5 112 Q442 104 464 88.5 Q486 73 498 49.5 Q510 26 510 -4 Q510 -48 489 -80.5 Q468 -113 432 -135.5 Q396 -158 347.5 -169 Q299 -180 244 -180 Q143 -180 86 -154.5 Q29 -129 29 -68 Q29 -45 36.5 -27 Q44 -9 56 5 Q68 19 83 28.5 Q98 38 112 45 Q82 56 64.5 78 Q47 100 47 130 Q47 159 66 186 Q85 213 123 232 Q91 253 73 286 Q55 319 55 367 Q55 410 71 442 Q87 474 114 495 Q141 516 177.5 526 Q214 536 255 536 Q275 536 294.5 533.5 Q314 531 332 526 L509 526 L509 474 L421 474 L419 472 Q437 452 447 426 Q457 400 457 367 Z M370 367 Q370 427 337.5 456.5 Q305 486 255 486 Q205 486 173 456.5 Q141 427 141 367 Q141 306 173 276.5 Q205 247 255 247 Q305 247 337.5 276.5 Q370 306 370 367 Z M166 38 Q159 35 149.5 28 Q140 21 131 10 Q122 -1 116 -16 Q110 -31 110 -50 Q110 -91 143 -109.5 Q176 -128 250 -128 Q286 -128 318 -122.5 Q350 -117 374 -105 Q398 -93 411.5 -73.5 Q425 -54 425 -27 Q425 6 402.5 22 Q380 38 329 38 L166 38 Z " />
<glyph glyph-name="Hcircumflex" unicode="&#x124;" horiz-adv-x="741" d="M520 327 L222 327 L222 66 L235 52 L303 52 L303 0 L44 0 L44 52 L110 52 L125 66 L125 634 L110 648 L44 648 L44 700 L303 700 L303 648 L235 648 L222 634 L222 389 L520 389 L520 634 L506 648 L439 648 L439 700 L697 700 L697 648 L631 648 L616 634 L616 66 L631 52 L697 52 L697 0 L439 0 L439 52 L506 52 L520 66 L520 327 Z M255 756 L236 778 L357 924 L390 924 L510 778 L492 756 L476 756 L374 855 L270 756 L255 756 Z " />
<glyph glyph-name="hcircumflex" unicode="&#x125;" horiz-adv-x="600" d="M29 776 L12 796 L130 941 L162 941 L279 796 L263 776 L247 776 L145 876 L44 776 L29 776 Z M341 0 L341 49 L401 49 L416 64 L416 362 Q416 381 412 400 Q408 419 398 433 Q388 447 371 456 Q354 465 329 465 Q290 465 257 450 Q224 435 192 401 L192 64 L206 49 L266 49 L266 0 L20 0 L20 49 L86 49 L101 64 L101 664 L86 678 L20 678 L20 730 L150 730 Q175 730 183.5 719 Q192 708 192 691 L192 461 Q203 473 219.5 486 Q236 499 256 510.5 Q276 522 300.5 529 Q325 536 353 536 Q395 536 424.5 523.5 Q454 511 472.5 489 Q491 467 499 438 Q507 409 507 376 L507 64 L521 49 L587 49 L587 0 L341 0 Z " />
<glyph glyph-name="Hbar" unicode="&#x126;" horiz-adv-x="741" d="M44 535 L125 535 L125 634 L110 648 L44 648 L44 700 L303 700 L303 648 L235 648 L222 634 L222 535 L520 535 L520 634 L506 648 L439 648 L439 700 L697 700 L697 648 L631 648 L616 634 L616 535 L697 535 L697 488 L616 488 L616 66 L631 52 L697 52 L697 0 L439 0 L439 52 L506 52 L520 66 L520 327 L222 327 L222 66 L235 52 L303 52 L303 0 L44 0 L44 52 L110 52 L125 66 L125 488 L44 488 L44 535 Z M520 389 L520 488 L222 488 L222 389 L520 389 Z " />
<glyph glyph-name="hbar" unicode="&#x127;" horiz-adv-x="600" d="M22 629 L101 629 L101 665 L86 679 L20 679 L20 731 L150 731 Q175 731 183.5 720 Q192 709 192 692 L192 629 L312 629 L312 584 L192 584 L192 462 Q203 474 219.5 487 Q236 500 256 511.5 Q276 523 300.5 530 Q325 537 353 537 Q395 537 424.5 524.5 Q454 512 472.5 490 Q491 468 499 439 Q507 410 507 377 L507 65 L521 50 L587 50 L587 1 L341 1 L341 50 L401 50 L416 65 L416 363 Q416 382 412 401 Q408 420 398 434 Q388 448 371 457 Q354 466 329 466 Q290 466 257 451 Q224 436 192 402 L192 65 L206 50 L266 50 L266 1 L20 1 L20 50 L86 50 L101 65 L101 584 L22 584 L22 629 Z " />
<glyph glyph-name="Itilde" unicode="&#x128;" horiz-adv-x="346" d="M125 634 L110 648 L44 648 L44 700 L303 700 L303 648 L235 648 L222 634 L222 66 L235 52 L303 52 L303 0 L44 0 L44 52 L110 52 L125 66 L125 634 Z M331 894 L331 855 Q331 815 311 794 Q291 773 254 773 Q231 773 210 781 Q189 789 169.5 799 Q150 809 131.5 817 Q113 825 95 825 Q73 825 64 816 Q55 807 55 798 L55 764 L12 764 L12 800 Q12 845 33.5 866 Q55 887 92 887 Q114 887 134.5 878.5 Q155 870 174.5 859.5 Q194 849 213.5 840.5 Q233 832 253 832 Q275 832 283 842 Q291 852 291 861 L291 894 L331 894 Z " />
<glyph glyph-name="itilde" unicode="&#x129;" horiz-adv-x="306" d="M163 526 Q187 526 195.5 514.5 Q204 503 204 486 L204 64 L218 49 L285 49 L285 0 L32 0 L32 49 L99 49 L113 64 L113 459 L99 474 L32 474 L32 526 L163 526 Z M303 719 L303 680 Q303 641 283 620 Q263 599 226 599 Q203 599 182 607 Q161 615 141.5 625 Q122 635 103.5 643 Q85 651 67 651 Q45 651 36 642 Q27 633 27 624 L27 590 L-16 590 L-16 625 Q-16 670 5.5 691 Q27 712 64 712 Q86 712 106.5 703.5 Q127 695 146.5 685 Q166 675 185.5 666.5 Q205 658 225 658 Q247 658 255 667.5 Q263 677 263 687 L263 719 L303 719 Z " />
<glyph glyph-name="Imacron" unicode="&#x12a;" horiz-adv-x="346" d="M125 634 L110 648 L44 648 L44 700 L303 700 L303 648 L235 648 L222 634 L222 66 L235 52 L303 52 L303 0 L44 0 L44 52 L110 52 L125 66 L125 634 Z M44 855 L300 855 L300 801 L44 801 L44 855 Z " />
<glyph glyph-name="imacron" unicode="&#x12b;" horiz-adv-x="306" d="M163 526 Q187 526 195.5 514.5 Q204 503 204 486 L204 64 L218 49 L285 49 L285 0 L32 0 L32 49 L99 49 L113 64 L113 459 L99 474 L32 474 L32 526 L163 526 Z M16 681 L271 681 L271 626 L16 626 L16 681 Z " />
<glyph glyph-name="Iogonek" unicode="&#x12e;" horiz-adv-x="346" d="M124 634 L110 648 L44 648 L44 700 L303 700 L303 648 L235 648 L222 634 L222 66 L235 52 L303 52 L303 0 L246 0 Q198 -9 165.5 -30.5 Q133 -52 133 -86 Q133 -119 151.5 -131.5 Q170 -144 201 -144 Q222 -144 243 -137 Q264 -130 275 -123 L290 -151 Q273 -163 243.5 -171.5 Q214 -180 182 -180 Q131 -180 100 -160.5 Q69 -141 69 -97 Q69 -63 91.5 -39 Q114 -15 147 0 L44 0 L44 52 L110 52 L124 66 L124 634 Z " />
<glyph glyph-name="iogonek" unicode="&#x12f;" horiz-adv-x="304" d="M162 526 Q186 526 194.5 514.5 Q203 503 203 486 L203 64 L217 49 L284 49 L284 0 L225 0 Q177 -9 144 -30.5 Q111 -52 111 -86 Q111 -119 129.5 -131.5 Q148 -144 179 -144 Q200 -144 221 -137 Q242 -130 253 -123 L268 -151 Q251 -163 221.5 -171.5 Q192 -180 160 -180 Q109 -180 78 -160.5 Q47 -141 47 -97 Q47 -63 69.5 -39 Q92 -15 126 0 L31 0 L31 49 L98 49 L112 64 L112 459 L98 474 L31 474 L31 526 L162 526 Z M92 677 Q92 701 106.5 715.5 Q121 730 148 730 Q175 730 189.5 715.5 Q204 701 204 677 Q204 653 189.5 638 Q175 623 148 623 Q121 623 106.5 638 Q92 653 92 677 Z " />
<glyph glyph-name="Idotaccent" unicode="&#x130;" horiz-adv-x="346" d="M125 634 L110 648 L44 648 L44 700 L303 700 L303 648 L235 648 L222 634 L222 66 L235 52 L303 52 L303 0 L44 0 L44 52 L110 52 L125 66 L125 634 Z M113 836 Q113 859 130.5 875 Q148 891 171 891 Q195 891 212.5 875 Q230 859 230 836 Q230 814 212.5 797.5 Q195 781 171 781 Q148 781 130.5 797.5 Q113 814 113 836 Z " />
<glyph glyph-name="dotlessi" unicode="&#x131;" horiz-adv-x="306" d="M163 526 Q187 526 195.5 514.5 Q204 503 204 486 L204 64 L218 49 L285 49 L285 0 L32 0 L32 49 L99 49 L113 64 L113 459 L99 474 L32 474 L32 526 L163 526 Z " />
<glyph glyph-name="IJ" unicode="&#x132;" horiz-adv-x="662" d="M125 634 L111 648 L44 648 L44 700 L302 700 L302 648 L236 648 L221 634 L221 284 L236 270 L302 270 L302 218 L44 218 L44 270 L111 270 L125 284 L125 634 Z M452 634 L437 648 L371 648 L371 700 L629 700 L629 648 L562 648 L548 634 L548 190 Q548 146 534 109.5 Q520 73 492 46.5 Q464 20 421.5 5 Q379 -10 321 -10 Q280 -10 249.5 -3.5 Q219 3 197 11.5 Q175 20 161 28.5 Q147 37 141 41 L141 170 L206 170 L206 82 L217 69 Q237 58 260 54 Q283 50 307 50 Q381 50 416.5 81 Q452 112 452 182 L452 634 Z " />
<glyph glyph-name="ij" unicode="&#x133;" horiz-adv-x="595" d="M162 526 Q186 526 194.5 514.5 Q203 503 203 486 L203 64 L217 49 L284 49 L284 0 L31 0 L31 49 L98 49 L112 64 L112 459 L98 474 L31 474 L31 526 L162 526 Z M92 677 Q92 701 106 715.5 Q120 730 148 730 Q175 730 189.5 715.5 Q204 701 204 677 Q204 653 189.5 638 Q175 623 148 623 Q120 623 106 638 Q92 653 92 677 Z M403 677 Q403 701 417.5 715.5 Q432 730 459 730 Q487 730 501 715.5 Q515 701 515 677 Q515 653 501 638 Q487 623 459 623 Q432 623 417.5 638 Q403 653 403 677 Z M274 -69 L331 -69 L331 -121 L343 -133 Q347 -134 353 -134 Q393 -134 408.5 -98.5 Q424 -63 424 -4 L424 459 L409 474 L343 474 L343 526 L473 526 Q498 526 506.5 514.5 Q515 503 515 486 L515 0 Q515 -41 506.5 -74 Q498 -107 479.5 -130.5 Q461 -154 430.5 -167 Q400 -180 355 -180 Q321 -180 300 -177 Q279 -174 274 -173 L274 -69 Z " />
<glyph glyph-name="Jcircumflex" unicode="&#x134;" horiz-adv-x="526" d="M315 634 L301 648 L234 648 L234 700 L493 700 L493 648 L427 648 L413 634 L413 190 Q413 146 400 109.5 Q387 73 360.5 46.5 Q334 20 294 5 Q254 -10 200 -10 Q161 -10 131.5 -3.5 Q102 3 81 11.5 Q60 20 46.5 28.5 Q33 37 27 41 L27 175 L92 175 L92 82 L103 69 Q138 50 185 50 Q251 50 283 81 Q315 112 315 183 L315 634 Z M243 756 L224 778 L345 924 L378 924 L498 778 L480 756 L464 756 L362 855 L258 756 L243 756 Z " />
<glyph glyph-name="jcircumflex" unicode="&#x135;" horiz-adv-x="274" d="M-47 -69 L10 -69 L10 -121 L22 -133 Q26 -134 32 -134 Q72 -134 87.5 -98.5 Q103 -63 103 -4 L103 459 L88 474 L22 474 L22 526 L152 526 Q177 526 185.5 514.5 Q194 503 194 486 L194 0 Q194 -41 185.5 -74 Q177 -107 158.5 -130.5 Q140 -154 109.5 -167 Q79 -180 34 -180 Q0 -180 -21 -177 Q-42 -174 -47 -173 L-47 -69 Z M10 582 L-7 602 L111 747 L143 747 L260 602 L244 582 L228 582 L126 682 L25 582 L10 582 Z " />
<glyph glyph-name="uni0136" unicode="&#x136;" horiz-adv-x="705" d="M347 -276 Q346 -276 340.5 -273.5 Q335 -271 328 -267 L310 -257 L344 -196 L337 -180 Q312 -167 312 -138 Q312 -114 324.5 -100.5 Q337 -87 363 -87 Q388 -87 401.5 -100 Q415 -113 415 -136 Q415 -146 411 -155.5 Q407 -165 402 -174 L347 -276 Z M395 378 L613 63 L629 52 L690 52 L690 0 L433 0 L433 52 L499 52 L506 60 L322 330 L222 330 L222 66 L235 52 L303 52 L303 0 L44 0 L44 52 L110 52 L125 66 L125 634 L110 648 L44 648 L44 700 L303 700 L303 648 L235 648 L222 634 L222 386 L322 386 L525 640 L519 648 L457 648 L457 700 L680 700 L680 648 L622 648 L606 637 L395 378 Z " />
<glyph glyph-name="uni0137" unicode="&#x137;" horiz-adv-x="596" d="M273 -276 Q272 -276 266.5 -273.5 Q261 -271 254 -267 L236 -257 L270 -196 L263 -180 Q238 -167 238 -138 Q238 -114 250.5 -100.5 Q263 -87 289 -87 Q314 -87 327.5 -100 Q341 -113 341 -136 Q341 -146 337 -155.5 Q333 -165 328 -174 L273 -276 Z M342 309 L514 61 L529 49 L583 49 L583 0 L338 0 L338 49 L401 49 L408 58 L270 266 L192 266 L192 64 L206 49 L266 49 L266 0 L20 0 L20 49 L86 49 L101 64 L101 664 L86 678 L20 678 L20 730 L150 730 Q175 730 183.5 719 Q192 708 192 691 L192 313 L270 313 L421 468 L417 474 L359 474 L359 526 L572 526 L572 474 L510 474 L493 462 L342 309 Z " />
<glyph glyph-name="kgreenlandic" unicode="&#x138;" horiz-adv-x="606" d="M277 0 L31 0 L31 49 L97 49 L111 64 L111 459 L97 474 L31 474 L31 526 L160 526 Q185 526 193.5 514.5 Q202 503 202 486 L202 313 L280 313 L432 468 L428 474 L370 474 L370 526 L583 526 L583 474 L521 474 L504 462 L353 309 L523 61 L537 49 L594 49 L594 0 L349 0 L349 49 L410 49 L417 58 L281 266 L202 266 L202 64 L216 49 L277 49 L277 0 Z " />
<glyph glyph-name="Lacute" unicode="&#x139;" horiz-adv-x="580" d="M162 756 L137 783 L251 922 L269 922 L311 871 L176 756 L162 756 Z M222 62 L477 62 L491 76 L491 169 L553 169 L553 0 L44 0 L44 52 L110 52 L125 66 L125 634 L110 648 L44 648 L44 700 L303 700 L303 648 L235 648 L222 634 L222 62 Z " />
<glyph glyph-name="lacute" unicode="&#x13a;" horiz-adv-x="294" d="M142 775 L117 802 L231 940 L250 940 L292 890 L157 775 L142 775 Z M150 730 Q175 730 183.5 719 Q192 708 192 691 L192 64 L206 49 L273 49 L273 0 L21 0 L21 49 L87 49 L102 64 L102 664 L87 678 L21 678 L21 730 L150 730 Z " />
<glyph glyph-name="uni013B" unicode="&#x13b;" horiz-adv-x="580" d="M292 -276 Q291 -276 285.5 -273.5 Q280 -271 273 -267 L255 -257 L289 -196 L282 -180 Q257 -167 257 -138 Q257 -114 269.5 -100.5 Q282 -87 308 -87 Q333 -87 346.5 -100 Q360 -113 360 -136 Q360 -146 356 -155.5 Q352 -165 347 -174 L292 -276 Z M222 62 L477 62 L491 76 L491 169 L553 169 L553 0 L44 0 L44 52 L110 52 L125 66 L125 634 L110 648 L44 648 L44 700 L303 700 L303 648 L235 648 L222 634 L222 62 Z " />
<glyph glyph-name="uni013C" unicode="&#x13c;" horiz-adv-x="294" d="M128 -276 Q127 -276 121.5 -273.5 Q116 -271 109 -267 L91 -257 L125 -196 L118 -180 Q93 -167 93 -138 Q93 -114 105.5 -100.5 Q118 -87 144 -87 Q169 -87 182.5 -100 Q196 -113 196 -136 Q196 -146 192 -155.5 Q188 -165 183 -174 L128 -276 Z M150 730 Q175 730 183.5 719 Q192 708 192 691 L192 64 L206 49 L273 49 L273 0 L21 0 L21 49 L87 49 L102 64 L102 664 L87 678 L21 678 L21 730 L150 730 Z " />
<glyph glyph-name="Lcaron" unicode="&#x13d;" horiz-adv-x="583" d="M450 582 L450 780 L511 780 L511 699 L500 582 L450 582 Z M222 62 L477 62 L491 76 L491 169 L553 169 L553 0 L44 0 L44 52 L110 52 L125 66 L125 634 L110 648 L44 648 L44 700 L303 700 L303 648 L235 648 L222 634 L222 62 Z " />
<glyph glyph-name="lcaron" unicode="&#x13e;" horiz-adv-x="323" d="M289 582 L289 780 L350 780 L350 699 L339 582 L289 582 Z M150 730 Q175 730 183.5 719 Q192 708 192 691 L192 64 L206 49 L273 49 L273 0 L21 0 L21 49 L87 49 L102 64 L102 664 L87 678 L21 678 L21 730 L150 730 Z " />
<glyph glyph-name="Ldot" unicode="&#x13f;" horiz-adv-x="597" d="M222 62 L477 62 L491 76 L491 169 L553 169 L553 0 L44 0 L44 52 L110 52 L125 66 L125 634 L110 648 L44 648 L44 700 L303 700 L303 648 L235 648 L222 634 L222 62 Z M417 370 Q417 391 434.5 408 Q452 425 475 425 Q499 425 516.5 408 Q534 391 534 370 Q534 347 516.5 330.5 Q499 314 475 314 Q452 314 434.5 330.5 Q417 347 417 370 Z " />
<glyph glyph-name="ldot" unicode="&#x140;" horiz-adv-x="363" d="M272 365 Q272 386 289.5 403 Q307 420 330 420 Q354 420 371.5 403 Q389 386 389 365 Q389 342 371.5 325.5 Q354 309 330 309 Q307 309 289.5 325.5 Q272 342 272 365 Z M150 730 Q175 730 183.5 719 Q192 708 192 691 L192 64 L206 49 L273 49 L273 0 L21 0 L21 49 L87 49 L102 64 L102 664 L87 678 L21 678 L21 730 L150 730 Z " />
<glyph glyph-name="Lslash" unicode="&#x141;" horiz-adv-x="582" d="M224 402 L354 476 L354 422 L224 347 L224 62 L479 62 L493 76 L493 169 L555 169 L555 0 L46 0 L46 52 L112 52 L126 66 L126 292 L35 240 L35 295 L126 347 L126 634 L112 648 L46 648 L46 700 L305 700 L305 648 L237 648 L224 634 L224 402 Z " />
<glyph glyph-name="lslash" unicode="&#x142;" horiz-adv-x="308" d="M156 730 Q180 730 189 719 Q198 708 198 691 L198 414 L291 474 L291 419 L198 359 L198 64 L211 49 L279 49 L279 0 L26 0 L26 49 L93 49 L107 64 L107 302 L16 245 L16 300 L107 357 L107 664 L93 678 L26 678 L26 730 L156 730 Z " />
<glyph glyph-name="Nacute" unicode="&#x143;" horiz-adv-x="733" d="M356 756 L331 783 L445 922 L463 922 L505 871 L370 756 L356 756 Z M44 0 L44 52 L110 52 L124 66 L124 634 L110 648 L44 648 L44 700 L209 700 L543 166 L543 634 L529 648 L462 648 L462 700 L697 700 L697 648 L631 648 L616 634 L616 -2 L546 -2 L198 553 L198 66 L212 52 L279 52 L279 0 L44 0 Z " />
<glyph glyph-name="nacute" unicode="&#x144;" horiz-adv-x="612" d="M311 582 L286 609 L400 747 L419 747 L461 697 L326 582 L311 582 Z M31 0 L31 49 L97 49 L111 64 L111 459 L97 474 L31 474 L31 526 L155 526 Q180 526 189 514.5 Q198 503 198 486 L198 458 L200 458 Q211 470 227.5 484 Q244 498 264.5 509.5 Q285 521 309.5 528.5 Q334 536 363 536 Q406 536 435.5 523.5 Q465 511 483 489 Q501 467 509 438 Q517 409 517 376 L517 64 L532 49 L598 49 L598 0 L352 0 L352 49 L412 49 L426 64 L426 362 Q426 381 422.5 400 Q419 419 410 433 Q401 447 384 456 Q367 465 340 465 Q301 465 267.5 450 Q234 435 202 401 L202 64 L217 49 L277 49 L277 0 L31 0 Z " />
<glyph glyph-name="uni0145" unicode="&#x145;" horiz-adv-x="733" d="M363 -276 Q362 -276 356.5 -273.5 Q351 -271 344 -267 L326 -257 L360 -196 L353 -180 Q328 -167 328 -138 Q328 -114 340.5 -100.5 Q353 -87 379 -87 Q404 -87 417.5 -100 Q431 -113 431 -136 Q431 -146 427 -155.5 Q423 -165 418 -174 L363 -276 Z M44 0 L44 52 L110 52 L124 66 L124 634 L110 648 L44 648 L44 700 L209 700 L543 166 L543 634 L529 648 L462 648 L462 700 L697 700 L697 648 L631 648 L616 634 L616 -2 L546 -2 L198 553 L198 66 L212 52 L279 52 L279 0 L44 0 Z " />
<glyph glyph-name="uni0146" unicode="&#x146;" horiz-adv-x="612" d="M293 -276 Q292 -276 286.5 -273.5 Q281 -271 274 -267 L256 -257 L290 -196 L283 -180 Q258 -167 258 -138 Q258 -114 270.5 -100.5 Q283 -87 309 -87 Q334 -87 347.5 -100 Q361 -113 361 -136 Q361 -146 357 -155.5 Q353 -165 348 -174 L293 -276 Z M31 0 L31 49 L97 49 L111 64 L111 459 L97 474 L31 474 L31 526 L155 526 Q180 526 189 514.5 Q198 503 198 486 L198 458 L200 458 Q211 470 227.5 484 Q244 498 264.5 509.5 Q285 521 309.5 528.5 Q334 536 363 536 Q406 536 435.5 523.5 Q465 511 483 489 Q501 467 509 438 Q517 409 517 376 L517 64 L532 49 L598 49 L598 0 L352 0 L352 49 L412 49 L426 64 L426 362 Q426 381 422.5 400 Q419 419 410 433 Q401 447 384 456 Q367 465 340 465 Q301 465 267.5 450 Q234 435 202 401 L202 64 L217 49 L277 49 L277 0 L31 0 Z " />
<glyph glyph-name="Ncaron" unicode="&#x147;" horiz-adv-x="733" d="M44 0 L44 52 L110 52 L124 66 L124 634 L110 648 L44 648 L44 700 L209 700 L543 166 L543 634 L529 648 L462 648 L462 700 L697 700 L697 648 L631 648 L616 634 L616 -2 L546 -2 L198 553 L198 66 L212 52 L279 52 L279 0 L44 0 Z M487 924 L504 902 L385 756 L351 756 L231 902 L249 924 L265 924 L368 825 L471 924 L487 924 Z " />
<glyph glyph-name="ncaron" unicode="&#x148;" horiz-adv-x="612" d="M443 749 L460 728 L341 582 L307 582 L188 728 L205 749 L222 749 L324 650 L427 749 L443 749 Z M31 0 L31 49 L97 49 L111 64 L111 459 L97 474 L31 474 L31 526 L155 526 Q180 526 189 514.5 Q198 503 198 486 L198 458 L200 458 Q211 470 227.5 484 Q244 498 264.5 509.5 Q285 521 309.5 528.5 Q334 536 363 536 Q406 536 435.5 523.5 Q465 511 483 489 Q501 467 509 438 Q517 409 517 376 L517 64 L532 49 L598 49 L598 0 L352 0 L352 49 L412 49 L426 64 L426 362 Q426 381 422.5 400 Q419 419 410 433 Q401 447 384 456 Q367 465 340 465 Q301 465 267.5 450 Q234 435 202 401 L202 64 L217 49 L277 49 L277 0 L31 0 Z " />
<glyph glyph-name="napostrophe" unicode="&#x149;" horiz-adv-x="612" d="M63 581 Q62 581 56.5 583.5 Q51 586 44 590 L26 600 L60 661 L53 677 Q28 690 28 719 Q28 743 40.5 756.5 Q53 770 79 770 Q104 770 117.5 757 Q131 744 131 721 Q131 711 127 701.5 Q123 692 118 683 L63 581 Z M31 0 L31 49 L97 49 L111 64 L111 459 L97 474 L31 474 L31 526 L155 526 Q180 526 189 514.5 Q198 503 198 486 L198 458 L200 458 Q211 470 227.5 484 Q244 498 264.5 509.5 Q285 521 309.5 528.5 Q334 536 363 536 Q406 536 435.5 523.5 Q465 511 483 489 Q501 467 509 438 Q517 409 517 376 L517 64 L532 49 L598 49 L598 0 L352 0 L352 49 L412 49 L426 64 L426 362 Q426 381 422.5 400 Q419 419 410 433 Q401 447 384 456 Q367 465 340 465 Q301 465 267.5 450 Q234 435 202 401 L202 64 L217 49 L277 49 L277 0 L31 0 Z " />
<glyph glyph-name="Omacron" unicode="&#x14c;" horiz-adv-x="667" d="M49 351 Q49 439 69.5 506 Q90 573 127.5 618.5 Q165 664 217 687 Q269 710 333 710 Q397 710 449.5 687 Q502 664 539.5 618.5 Q577 573 597.5 506 Q618 439 618 351 Q618 262 597.5 194.5 Q577 127 539.5 81.5 Q502 36 449.5 13 Q397 -10 333 -10 Q269 -10 217 13 Q165 36 127.5 81.5 Q90 127 69.5 194.5 Q49 262 49 351 Z M151 351 Q151 200 196.5 127.5 Q242 55 333 55 Q425 55 470.5 127.5 Q516 200 516 351 Q516 501 470.5 573 Q425 645 333 645 Q242 645 196.5 573 Q151 501 151 351 Z M206 855 L462 855 L462 801 L206 801 L206 855 Z " />
<glyph glyph-name="omacron" unicode="&#x14d;" horiz-adv-x="540" d="M149 681 L404 681 L404 626 L149 626 L149 681 Z M498 263 Q498 193 479.5 141.5 Q461 90 429.5 56.5 Q398 23 357 6.5 Q316 -10 270 -10 Q224 -10 183 6.5 Q142 23 111 56.5 Q80 90 61.5 141.5 Q43 193 43 263 Q43 332 61.5 383.5 Q80 435 111 469 Q142 503 183 519.5 Q224 536 270 536 Q316 536 357 519.5 Q398 503 429.5 469 Q461 435 479.5 383.5 Q498 332 498 263 Z M403 263 Q403 372 368 424.5 Q333 477 270 477 Q207 477 172.5 424.5 Q138 372 138 263 Q138 154 172.5 101 Q207 48 270 48 Q333 48 368 101 Q403 154 403 263 Z " />
<glyph glyph-name="Obreve" unicode="&#x14e;" horiz-adv-x="667" d="M49 351 Q49 439 69.5 506 Q90 573 127.5 618.5 Q165 664 217 687 Q269 710 333 710 Q397 710 449.5 687 Q502 664 539.5 618.5 Q577 573 597.5 506 Q618 439 618 351 Q618 262 597.5 194.5 Q577 127 539.5 81.5 Q502 36 449.5 13 Q397 -10 333 -10 Q269 -10 217 13 Q165 36 127.5 81.5 Q90 127 69.5 194.5 Q49 262 49 351 Z M151 351 Q151 200 196.5 127.5 Q242 55 333 55 Q425 55 470.5 127.5 Q516 200 516 351 Q516 501 470.5 573 Q425 645 333 645 Q242 645 196.5 573 Q151 501 151 351 Z M457 881 Q453 859 443.5 839 Q434 819 419 803.5 Q404 788 382.5 778.5 Q361 769 334 769 Q307 769 285.5 778.5 Q264 788 249 803.5 Q234 819 224.5 839 Q215 859 211 881 L256 892 Q263 864 281.5 842.5 Q300 821 334 821 Q369 821 389.5 842 Q410 863 416 890 L457 881 Z " />
<glyph glyph-name="obreve" unicode="&#x14f;" horiz-adv-x="540" d="M498 263 Q498 193 479.5 141.5 Q461 90 429.5 56.5 Q398 23 357 6.5 Q316 -10 270 -10 Q224 -10 183 6.5 Q142 23 111 56.5 Q80 90 61.5 141.5 Q43 193 43 263 Q43 332 61.5 383.5 Q80 435 111 469 Q142 503 183 519.5 Q224 536 270 536 Q316 536 357 519.5 Q398 503 429.5 469 Q461 435 479.5 383.5 Q498 332 498 263 Z M403 263 Q403 372 368 424.5 Q333 477 270 477 Q207 477 172.5 424.5 Q138 372 138 263 Q138 154 172.5 101 Q207 48 270 48 Q333 48 368 101 Q403 154 403 263 Z M400 706 Q396 685 386.5 665 Q377 645 362 629.5 Q347 614 325.5 604.5 Q304 595 277 595 Q250 595 228.5 604.5 Q207 614 192 629.5 Q177 645 167.5 665 Q158 685 154 706 L200 718 Q206 690 224.5 668.5 Q243 647 278 647 Q313 647 333 668 Q353 689 360 716 L400 706 Z " />
<glyph glyph-name="Ohungarumlaut" unicode="&#x150;" horiz-adv-x="667" d="M264 756 L242 780 L350 922 L368 922 L401 887 L278 756 L264 756 Z M379 756 L363 779 L484 908 L502 908 L539 868 L394 756 L379 756 Z M49 351 Q49 439 69.5 506 Q90 573 127.5 618.5 Q165 664 217 687 Q269 710 333 710 Q397 710 449.5 687 Q502 664 539.5 618.5 Q577 573 597.5 506 Q618 439 618 351 Q618 262 597.5 194.5 Q577 127 539.5 81.5 Q502 36 449.5 13 Q397 -10 333 -10 Q269 -10 217 13 Q165 36 127.5 81.5 Q90 127 69.5 194.5 Q49 262 49 351 Z M151 351 Q151 200 196.5 127.5 Q242 55 333 55 Q425 55 470.5 127.5 Q516 200 516 351 Q516 501 470.5 573 Q425 645 333 645 Q242 645 196.5 573 Q151 501 151 351 Z " />
<glyph glyph-name="ohungarumlaut" unicode="&#x151;" horiz-adv-x="540" d="M206 582 L185 605 L292 747 L310 747 L343 712 L220 582 L206 582 Z M322 582 L305 604 L426 734 L444 734 L481 694 L336 582 L322 582 Z M498 263 Q498 193 479.5 141.5 Q461 90 429.5 56.5 Q398 23 357 6.5 Q316 -10 270 -10 Q224 -10 183 6.5 Q142 23 111 56.5 Q80 90 61.5 141.5 Q43 193 43 263 Q43 332 61.5 383.5 Q80 435 111 469 Q142 503 183 519.5 Q224 536 270 536 Q316 536 357 519.5 Q398 503 429.5 469 Q461 435 479.5 383.5 Q498 332 498 263 Z M403 263 Q403 372 368 424.5 Q333 477 270 477 Q207 477 172.5 424.5 Q138 372 138 263 Q138 154 172.5 101 Q207 48 270 48 Q333 48 368 101 Q403 154 403 263 Z " />
<glyph glyph-name="OE" unicode="&#x152;" horiz-adv-x="950" d="M335 710 Q407 710 463 700 L895 700 L895 540 L835 540 L835 628 L820 641 L546 641 L546 386 L730 386 L743 400 L743 466 L799 466 L799 251 L743 251 L743 317 L730 330 L546 330 L546 59 L830 59 L845 73 L845 161 L905 161 L905 0 L462 0 Q409 -10 335 -10 Q270 -10 217.5 13 Q165 36 127.5 81.5 Q90 127 69.5 194.5 Q49 262 49 351 Q49 439 69.5 506 Q90 573 127.5 618.5 Q165 664 217.5 687 Q270 710 335 710 Z M335 55 Q402 55 449 70 L449 628 Q401 645 335 645 Q242 645 196.5 573 Q151 501 151 351 Q151 200 196.5 127.5 Q242 55 335 55 Z " />
<glyph glyph-name="oe" unicode="&#x153;" horiz-adv-x="866" d="M43 263 Q43 332 61 383.5 Q79 435 110.5 468.5 Q142 502 184.5 519 Q227 536 277 536 Q331 536 377 507.5 Q423 479 450 420 Q478 479 524.5 507.5 Q571 536 628 536 Q669 536 705.5 522 Q742 508 769 481 Q796 454 811.5 413.5 Q827 373 827 321 L827 252 L813 239 L496 239 Q501 139 546 94.5 Q591 50 669 50 Q711 50 745 58.5 Q779 67 800 76 L800 24 Q774 10 735.5 0 Q697 -10 641 -10 Q577 -10 527 17 Q477 44 448 103 Q420 46 372.5 18.5 Q325 -9 265 -9 Q220 -9 179.5 7.5 Q139 24 109 57.5 Q79 91 61 142.5 Q43 194 43 263 Z M138 263 Q138 154 172.5 101 Q207 48 270 48 Q333 48 368 101 Q403 154 404 263 Q404 373 368.5 425 Q333 477 270 477 Q207 477 172.5 424.5 Q138 372 138 263 Z M626 479 Q572 479 537.5 434.5 Q503 390 497 298 L736 298 L736 327 Q736 406 705 442.5 Q674 479 626 479 Z " />
<glyph glyph-name="Racute" unicode="&#x154;" horiz-adv-x="683" d="M125 634 L110 648 L44 648 L44 700 L353 700 Q470 700 536.5 654.5 Q603 609 603 509 Q603 469 589.5 437.5 Q576 406 553.5 383.5 Q531 361 501 347.5 Q471 334 438 330 L438 329 Q473 323 498.5 301.5 Q524 280 541 228 L596 65 L613 52 L664 52 L664 0 L549 0 Q525 0 513.5 12 Q502 24 496 41 L438 227 Q430 252 419.5 267 Q409 282 397.5 289.5 Q386 297 372.5 299 Q359 301 345 301 L222 301 L222 66 L235 52 L307 52 L307 0 L44 0 L44 52 L110 52 L125 66 L125 634 Z M222 640 L222 361 L349 361 Q427 361 465 395.5 Q503 430 503 504 Q503 640 351 640 L222 640 Z M336 756 L311 783 L425 922 L443 922 L485 871 L350 756 L336 756 Z " />
<glyph glyph-name="racute" unicode="&#x155;" horiz-adv-x="421" d="M229 582 L204 609 L318 747 L337 747 L379 697 L244 582 L229 582 Z M217 49 L294 49 L294 0 L31 0 L31 49 L97 49 L111 64 L111 459 L97 474 L31 474 L31 526 L155 526 Q180 526 189 514.5 Q198 503 198 486 L198 455 L200 455 Q207 464 221.5 477.5 Q236 491 256.5 504 Q277 517 303 526.5 Q329 536 361 536 Q373 536 381.5 535 Q390 534 397 533 L397 368 L340 368 L340 443 L325 457 Q283 454 251.5 436 Q220 418 202 398 L202 64 L217 49 Z " />
<glyph glyph-name="uni0156" unicode="&#x156;" horiz-adv-x="683" d="M390 -276 Q389 -276 383.5 -273.5 Q378 -271 371 -267 L353 -257 L387 -196 L380 -180 Q355 -167 355 -138 Q355 -114 367.5 -100.5 Q380 -87 406 -87 Q431 -87 444.5 -100 Q458 -113 458 -136 Q458 -146 454 -155.5 Q450 -165 445 -174 L390 -276 Z M125 634 L110 648 L44 648 L44 700 L353 700 Q470 700 536.5 654.5 Q603 609 603 509 Q603 469 589.5 437.5 Q576 406 553.5 383.5 Q531 361 501 347.5 Q471 334 438 330 L438 329 Q473 323 498.5 301.5 Q524 280 541 228 L596 65 L613 52 L664 52 L664 0 L549 0 Q525 0 513.5 12 Q502 24 496 41 L438 227 Q430 252 419.5 267 Q409 282 397.5 289.5 Q386 297 372.5 299 Q359 301 345 301 L222 301 L222 66 L235 52 L307 52 L307 0 L44 0 L44 52 L110 52 L125 66 L125 634 Z M222 640 L222 361 L349 361 Q427 361 465 395.5 Q503 430 503 504 Q503 640 351 640 L222 640 Z " />
<glyph glyph-name="uni0157" unicode="&#x157;" horiz-adv-x="421" d="M142 -275 Q141 -275 135.5 -272.5 Q130 -270 123 -266 L105 -256 L139 -195 L132 -179 Q107 -166 107 -137 Q107 -113 119.5 -99.5 Q132 -86 158 -86 Q183 -86 196.5 -99 Q210 -112 210 -135 Q210 -145 206 -154.5 Q202 -164 197 -173 L142 -275 Z M217 49 L294 49 L294 0 L31 0 L31 49 L97 49 L111 64 L111 459 L97 474 L31 474 L31 526 L155 526 Q180 526 189 514.5 Q198 503 198 486 L198 455 L200 455 Q207 464 221.5 477.5 Q236 491 256.5 504 Q277 517 303 526.5 Q329 536 361 536 Q373 536 381.5 535 Q390 534 397 533 L397 368 L340 368 L340 443 L325 457 Q283 454 251.5 436 Q220 418 202 398 L202 64 L217 49 Z " />
<glyph glyph-name="Rcaron" unicode="&#x158;" horiz-adv-x="683" d="M125 634 L110 648 L44 648 L44 700 L353 700 Q470 700 536.5 654.5 Q603 609 603 509 Q603 469 589.5 437.5 Q576 406 553.5 383.5 Q531 361 501 347.5 Q471 334 438 330 L438 329 Q473 323 498.5 301.5 Q524 280 541 228 L596 65 L613 52 L664 52 L664 0 L549 0 Q525 0 513.5 12 Q502 24 496 41 L438 227 Q430 252 419.5 267 Q409 282 397.5 289.5 Q386 297 372.5 299 Q359 301 345 301 L222 301 L222 66 L235 52 L307 52 L307 0 L44 0 L44 52 L110 52 L125 66 L125 634 Z M222 640 L222 361 L349 361 Q427 361 465 395.5 Q503 430 503 504 Q503 640 351 640 L222 640 Z M467 924 L484 902 L365 756 L331 756 L211 902 L229 924 L245 924 L348 825 L451 924 L467 924 Z " />
<glyph glyph-name="rcaron" unicode="&#x159;" horiz-adv-x="421" d="M362 749 L379 728 L260 582 L226 582 L107 728 L124 749 L141 749 L243 650 L346 749 L362 749 Z M217 49 L294 49 L294 0 L31 0 L31 49 L97 49 L111 64 L111 459 L97 474 L31 474 L31 526 L155 526 Q180 526 189 514.5 Q198 503 198 486 L198 455 L200 455 Q207 464 221.5 477.5 Q236 491 256.5 504 Q277 517 303 526.5 Q329 536 361 536 Q373 536 381.5 535 Q390 534 397 533 L397 368 L340 368 L340 443 L325 457 Q283 454 251.5 436 Q220 418 202 398 L202 64 L217 49 Z " />
<glyph glyph-name="Sacute" unicode="&#x15a;" horiz-adv-x="557" d="M512 201 Q512 147 493 107.5 Q474 68 440 42 Q406 16 359 3 Q312 -10 257 -10 Q211 -10 174 -6 Q137 -2 110 3 Q78 9 53 17 L53 180 L117 180 L117 80 L133 63 Q153 58 184 54.5 Q215 51 257 51 Q335 51 377 84.5 Q419 118 419 180 Q419 232 384 262.5 Q349 293 265 317 Q162 347 110.5 395 Q59 443 59 521 Q59 567 77 602 Q95 637 127.5 661 Q160 685 204.5 697.5 Q249 710 303 710 Q343 710 376.5 706.5 Q410 703 435 698 Q464 693 488 687 L488 531 L424 531 L424 625 L409 640 Q389 643 362.5 646.5 Q336 650 303 650 Q230 650 189 620.5 Q148 591 148 538 Q148 517 154 498.5 Q160 480 176.5 463.5 Q193 447 223.5 432 Q254 417 303 402 Q352 387 391 369.5 Q430 352 457 328.5 Q484 305 498 274 Q512 243 512 201 Z M292 756 L267 783 L381 922 L399 922 L441 871 L306 756 L292 756 Z " />
<glyph glyph-name="sacute" unicode="&#x15b;" horiz-adv-x="457" d="M235 582 L210 609 L324 747 L343 747 L385 697 L250 582 L235 582 Z M417 155 Q417 116 401.5 85 Q386 54 358.5 33 Q331 12 293.5 1 Q256 -10 211 -10 Q173 -10 142.5 -7 Q112 -4 91 1 Q66 5 47 12 L47 137 L106 137 L106 69 L119 55 Q136 52 159.5 49.5 Q183 47 215 47 Q268 47 299.5 70.5 Q331 94 331 137 Q331 155 325 169.5 Q319 184 304.5 195.5 Q290 207 266.5 216 Q243 225 208 234 Q161 246 131 261.5 Q101 277 83 296.5 Q65 316 58 339.5 Q51 363 51 389 Q51 455 103 495.5 Q155 536 249 536 Q281 536 307.5 533 Q334 530 354 527 Q377 523 396 519 L396 395 L337 395 L337 462 L325 473 Q311 476 291 478.5 Q271 481 245 481 Q191 481 162.5 459 Q134 437 134 402 Q134 386 138.5 373 Q143 360 155 348.5 Q167 337 188.5 328 Q210 319 245 310 Q338 287 377.5 251 Q417 215 417 155 Z " />
<glyph glyph-name="Scircumflex" unicode="&#x15c;" horiz-adv-x="557" d="M512 201 Q512 147 493 107.5 Q474 68 440 42 Q406 16 359 3 Q312 -10 257 -10 Q211 -10 174 -6 Q137 -2 110 3 Q78 9 53 17 L53 180 L117 180 L117 80 L133 63 Q153 58 184 54.5 Q215 51 257 51 Q335 51 377 84.5 Q419 118 419 180 Q419 232 384 262.5 Q349 293 265 317 Q162 347 110.5 395 Q59 443 59 521 Q59 567 77 602 Q95 637 127.5 661 Q160 685 204.5 697.5 Q249 710 303 710 Q343 710 376.5 706.5 Q410 703 435 698 Q464 693 488 687 L488 531 L424 531 L424 625 L409 640 Q389 643 362.5 646.5 Q336 650 303 650 Q230 650 189 620.5 Q148 591 148 538 Q148 517 154 498.5 Q160 480 176.5 463.5 Q193 447 223.5 432 Q254 417 303 402 Q352 387 391 369.5 Q430 352 457 328.5 Q484 305 498 274 Q512 243 512 201 Z M185 756 L166 778 L287 924 L320 924 L440 778 L422 756 L406 756 L304 855 L200 756 L185 756 Z " />
<glyph glyph-name="scircumflex" unicode="&#x15d;" horiz-adv-x="457" d="M132 582 L115 602 L233 747 L265 747 L382 602 L366 582 L350 582 L248 682 L147 582 L132 582 Z M417 155 Q417 116 401.5 85 Q386 54 358.5 33 Q331 12 293.5 1 Q256 -10 211 -10 Q173 -10 142.5 -7 Q112 -4 91 1 Q66 5 47 12 L47 137 L106 137 L106 69 L119 55 Q136 52 159.5 49.5 Q183 47 215 47 Q268 47 299.5 70.5 Q331 94 331 137 Q331 155 325 169.5 Q319 184 304.5 195.5 Q290 207 266.5 216 Q243 225 208 234 Q161 246 131 261.5 Q101 277 83 296.5 Q65 316 58 339.5 Q51 363 51 389 Q51 455 103 495.5 Q155 536 249 536 Q281 536 307.5 533 Q334 530 354 527 Q377 523 396 519 L396 395 L337 395 L337 462 L325 473 Q311 476 291 478.5 Q271 481 245 481 Q191 481 162.5 459 Q134 437 134 402 Q134 386 138.5 373 Q143 360 155 348.5 Q167 337 188.5 328 Q210 319 245 310 Q338 287 377.5 251 Q417 215 417 155 Z " />
<glyph glyph-name="Scedilla" unicode="&#x15e;" horiz-adv-x="557" d="M512 201 Q512 147 493 107.5 Q474 68 440 42 Q406 16 359 3 Q312 -10 257 -10 Q211 -10 174 -6 Q137 -2 110 3 Q78 9 53 17 L53 180 L117 180 L117 80 L133 63 Q153 58 184 54.5 Q215 51 257 51 Q335 51 377 84.5 Q419 118 419 180 Q419 232 384 262.5 Q349 293 265 317 Q162 347 110.5 395 Q59 443 59 521 Q59 567 77 602 Q95 637 127.5 661 Q160 685 204.5 697.5 Q249 710 303 710 Q343 710 376.5 706.5 Q410 703 435 698 Q464 693 488 687 L488 531 L424 531 L424 625 L409 640 Q389 643 362.5 646.5 Q336 650 303 650 Q230 650 189 620.5 Q148 591 148 538 Q148 517 154 498.5 Q160 480 176.5 463.5 Q193 447 223.5 432 Q254 417 303 402 Q352 387 391 369.5 Q430 352 457 328.5 Q484 305 498 274 Q512 243 512 201 Z M229 -180 Q200 -180 173 -173 Q146 -166 130 -156 L144 -127 Q155 -133 177.5 -139.5 Q200 -146 222 -146 Q242 -146 258 -138.5 Q274 -131 274 -110 Q274 -90 248 -78.5 Q222 -67 179 -63 L179 -50 L227 11 L278 9 L240 -41 Q282 -44 310 -59 Q338 -74 338 -107 Q338 -128 328.5 -142 Q319 -156 304 -164.5 Q289 -173 269.5 -176.5 Q250 -180 229 -180 Z " />
<glyph glyph-name="scedilla" unicode="&#x15f;" horiz-adv-x="458" d="M417 155 Q417 116 401.5 85 Q386 54 358.5 33 Q331 12 293.5 1 Q256 -10 211 -10 Q173 -10 142.5 -7 Q112 -4 91 1 Q66 5 47 12 L47 137 L106 137 L106 69 L119 55 Q136 52 159.5 49.5 Q183 47 215 47 Q268 47 299.5 70.5 Q331 94 331 137 Q331 155 325 169.5 Q319 184 304.5 195.5 Q290 207 266.5 216 Q243 225 208 234 Q161 246 131 261.5 Q101 277 83 296.5 Q65 316 58 339.5 Q51 363 51 389 Q51 455 103 495.5 Q155 536 249 536 Q281 536 307.5 533 Q334 530 354 527 Q377 523 396 519 L396 395 L337 395 L337 462 L325 473 Q311 476 291 478.5 Q271 481 245 481 Q191 481 162.5 459 Q134 437 134 402 Q134 386 138.5 373 Q143 360 155 348.5 Q167 337 188.5 328 Q210 319 245 310 Q338 287 377.5 251 Q417 215 417 155 Z M184 -180 Q155 -180 128 -173 Q101 -166 85 -156 L99 -127 Q110 -133 132.5 -139.5 Q155 -146 177 -146 Q197 -146 213 -138.5 Q229 -131 229 -110 Q229 -90 203 -78.5 Q177 -67 134 -63 L134 -50 L182 11 L233 9 L195 -41 Q237 -44 265 -59 Q293 -74 293 -107 Q293 -128 283.5 -142 Q274 -156 259 -164.5 Q244 -173 224.5 -176.5 Q205 -180 184 -180 Z " />
<glyph glyph-name="Scaron" unicode="&#x160;" horiz-adv-x="557" d="M512 201 Q512 147 493 107.5 Q474 68 440 42 Q406 16 359 3 Q312 -10 257 -10 Q211 -10 174 -6 Q137 -2 110 3 Q78 9 53 17 L53 180 L117 180 L117 80 L133 63 Q153 58 184 54.5 Q215 51 257 51 Q335 51 377 84.5 Q419 118 419 180 Q419 232 384 262.5 Q349 293 265 317 Q162 347 110.5 395 Q59 443 59 521 Q59 567 77 602 Q95 637 127.5 661 Q160 685 204.5 697.5 Q249 710 303 710 Q343 710 376.5 706.5 Q410 703 435 698 Q464 693 488 687 L488 531 L424 531 L424 625 L409 640 Q389 643 362.5 646.5 Q336 650 303 650 Q230 650 189 620.5 Q148 591 148 538 Q148 517 154 498.5 Q160 480 176.5 463.5 Q193 447 223.5 432 Q254 417 303 402 Q352 387 391 369.5 Q430 352 457 328.5 Q484 305 498 274 Q512 243 512 201 Z M423 924 L440 902 L321 756 L287 756 L167 902 L185 924 L201 924 L304 825 L407 924 L423 924 Z " />
<glyph glyph-name="scaron" unicode="&#x161;" horiz-adv-x="457" d="M369 749 L386 728 L267 582 L233 582 L114 728 L131 749 L148 749 L250 650 L353 749 L369 749 Z M417 155 Q417 116 401.5 85 Q386 54 358.5 33 Q331 12 293.5 1 Q256 -10 211 -10 Q173 -10 142.5 -7 Q112 -4 91 1 Q66 5 47 12 L47 137 L106 137 L106 69 L119 55 Q136 52 159.5 49.5 Q183 47 215 47 Q268 47 299.5 70.5 Q331 94 331 137 Q331 155 325 169.5 Q319 184 304.5 195.5 Q290 207 266.5 216 Q243 225 208 234 Q161 246 131 261.5 Q101 277 83 296.5 Q65 316 58 339.5 Q51 363 51 389 Q51 455 103 495.5 Q155 536 249 536 Q281 536 307.5 533 Q334 530 354 527 Q377 523 396 519 L396 395 L337 395 L337 462 L325 473 Q311 476 291 478.5 Q271 481 245 481 Q191 481 162.5 459 Q134 437 134 402 Q134 386 138.5 373 Q143 360 155 348.5 Q167 337 188.5 328 Q210 319 245 310 Q338 287 377.5 251 Q417 215 417 155 Z " />
<glyph glyph-name="uni0162" unicode="&#x162;" horiz-adv-x="579" d="M273 -180 Q244 -180 217 -173 Q190 -166 174 -156 L188 -127 Q199 -133 221.5 -139.5 Q244 -146 266 -146 Q286 -146 302 -138.5 Q318 -131 318 -110 Q318 -90 292 -78.5 Q266 -67 223 -63 L223 -50 L271 11 L322 9 L284 -41 Q326 -44 354 -59 Q382 -74 382 -107 Q382 -128 372.5 -142 Q363 -156 348 -164.5 Q333 -173 313.5 -176.5 Q294 -180 273 -180 Z M28 700 L550 700 L550 538 L491 538 L491 625 L477 639 L338 639 L338 66 L352 52 L424 52 L424 0 L154 0 L154 52 L226 52 L241 66 L241 639 L102 639 L88 625 L88 538 L28 538 L28 700 Z " />
<glyph glyph-name="uni0163" unicode="&#x163;" horiz-adv-x="336" d="M184 -179 Q155 -179 128 -172 Q101 -165 85 -155 L99 -126 Q110 -132 132.5 -138.5 Q155 -145 177 -145 Q197 -145 213 -137.5 Q229 -130 229 -109 Q229 -89 203 -77.5 Q177 -66 134 -62 L134 -49 L182 12 L233 10 L195 -40 Q237 -43 265 -58 Q293 -73 293 -106 Q293 -127 283.5 -141 Q274 -155 259 -163.5 Q244 -172 224.5 -175.5 Q205 -179 184 -179 Z M188 474 L188 64 L202 49 L326 49 L326 0 Q297 -3 271 -5 Q248 -7 224.5 -8.5 Q201 -10 187 -10 Q142 -10 119.5 9.5 Q97 29 97 78 L97 474 L24 474 L24 524 L83 524 L97 538 L131 670 L188 670 L188 524 L305 524 L305 474 L188 474 Z " />
<glyph glyph-name="Tcaron" unicode="&#x164;" horiz-adv-x="579" d="M28 700 L550 700 L550 538 L491 538 L491 625 L477 639 L338 639 L338 66 L352 52 L424 52 L424 0 L154 0 L154 52 L226 52 L241 66 L241 639 L102 639 L88 625 L88 538 L28 538 L28 700 Z M409 924 L426 902 L307 756 L273 756 L153 902 L171 924 L187 924 L290 825 L393 924 L409 924 Z " />
<glyph glyph-name="tcaron" unicode="&#x165;" horiz-adv-x="336" d="M274 582 L274 780 L335 780 L335 699 L324 582 L274 582 Z M188 474 L188 64 L202 49 L326 49 L326 0 Q297 -3 271 -5 Q248 -7 224.5 -8.5 Q201 -10 187 -10 Q142 -10 119.5 9.5 Q97 29 97 78 L97 474 L24 474 L24 524 L83 524 L97 538 L131 670 L188 670 L188 524 L305 524 L305 474 L188 474 Z " />
<glyph glyph-name="Tbar" unicode="&#x166;" horiz-adv-x="582" d="M30 700 L552 700 L552 538 L493 538 L493 625 L478 639 L340 639 L340 384 L454 384 L454 337 L340 337 L340 66 L354 52 L426 52 L426 0 L156 0 L156 52 L228 52 L243 66 L243 337 L128 337 L128 384 L243 384 L243 639 L104 639 L90 625 L90 538 L30 538 L30 700 Z " />
<glyph glyph-name="tbar" unicode="&#x167;" horiz-adv-x="336" d="M188 474 L188 322 L295 322 L295 275 L188 275 L188 64 L202 49 L326 49 L326 0 Q297 -3 271 -5 Q248 -7 224.5 -8.5 Q201 -10 187 -10 Q142 -10 119.5 9.5 Q97 29 97 78 L97 275 L35 275 L35 322 L97 322 L97 474 L24 474 L24 524 L83 524 L97 538 L131 670 L188 670 L188 524 L305 524 L305 474 L188 474 Z " />
<glyph glyph-name="Utilde" unicode="&#x168;" horiz-adv-x="699" d="M509 634 L494 648 L428 648 L428 700 L669 700 L669 648 L602 648 L588 634 L588 235 Q588 110 524.5 50 Q461 -10 351 -10 Q240 -10 175.5 50 Q111 110 111 235 L111 634 L97 648 L30 648 L30 700 L291 700 L291 648 L224 648 L211 634 L211 234 Q211 143 247 98 Q283 53 359 53 Q438 53 473.5 98 Q509 143 509 234 L509 634 Z M523 894 L523 855 Q523 815 503 794 Q483 773 446 773 Q423 773 402 781 Q381 789 361.5 799 Q342 809 323.5 817 Q305 825 287 825 Q265 825 256 816 Q247 807 247 798 L247 764 L204 764 L204 800 Q204 845 225.5 866 Q247 887 284 887 Q306 887 326.5 878.5 Q347 870 366.5 859.5 Q386 849 405.5 840.5 Q425 832 445 832 Q467 832 475 842 Q483 852 483 861 L483 894 L523 894 Z " />
<glyph glyph-name="utilde" unicode="&#x169;" horiz-adv-x="594" d="M453 526 Q477 526 485.5 514.5 Q494 503 494 486 L494 64 L509 49 L575 49 L575 0 L450 0 Q425 0 417 11.5 Q409 23 409 40 L409 67 L407 67 Q395 55 379 41 Q363 27 343 16 Q323 5 298.5 -2.5 Q274 -10 246 -10 Q202 -10 172.5 2.5 Q143 15 125.5 37 Q108 59 101 88 Q94 117 94 150 L94 459 L80 474 L13 474 L13 526 L143 526 Q167 526 176 513.5 Q185 501 185 482 L185 163 Q185 144 188.5 125.5 Q192 107 202.5 92.5 Q213 78 231 69 Q249 60 279 60 Q311 60 341.5 74.5 Q372 89 403 122 L403 459 L389 474 L322 474 L322 526 L453 526 Z M432 719 L432 680 Q432 641 412 620 Q392 599 355 599 Q332 599 311 607 Q290 615 270.5 625 Q251 635 232.5 643 Q214 651 196 651 Q174 651 165 642 Q156 633 156 624 L156 590 L113 590 L113 625 Q113 670 134.5 691 Q156 712 193 712 Q215 712 235.5 703.5 Q256 695 275.5 685 Q295 675 314.5 666.5 Q334 658 354 658 Q376 658 384 667.5 Q392 677 392 687 L392 719 L432 719 Z " />
<glyph glyph-name="Umacron" unicode="&#x16a;" horiz-adv-x="699" d="M509 634 L494 648 L428 648 L428 700 L669 700 L669 648 L602 648 L588 634 L588 235 Q588 110 524.5 50 Q461 -10 351 -10 Q240 -10 175.5 50 Q111 110 111 235 L111 634 L97 648 L30 648 L30 700 L291 700 L291 648 L224 648 L211 634 L211 234 Q211 143 247 98 Q283 53 359 53 Q438 53 473.5 98 Q509 143 509 234 L509 634 Z M235 855 L491 855 L491 801 L235 801 L235 855 Z " />
<glyph glyph-name="umacron" unicode="&#x16b;" horiz-adv-x="594" d="M453 526 Q477 526 485.5 514.5 Q494 503 494 486 L494 64 L509 49 L575 49 L575 0 L450 0 Q425 0 417 11.5 Q409 23 409 40 L409 67 L407 67 Q395 55 379 41 Q363 27 343 16 Q323 5 298.5 -2.5 Q274 -10 246 -10 Q202 -10 172.5 2.5 Q143 15 125.5 37 Q108 59 101 88 Q94 117 94 150 L94 459 L80 474 L13 474 L13 526 L143 526 Q167 526 176 513.5 Q185 501 185 482 L185 163 Q185 144 188.5 125.5 Q192 107 202.5 92.5 Q213 78 231 69 Q249 60 279 60 Q311 60 341.5 74.5 Q372 89 403 122 L403 459 L389 474 L322 474 L322 526 L453 526 Z M145 681 L400 681 L400 626 L145 626 L145 681 Z " />
<glyph glyph-name="Ubreve" unicode="&#x16c;" horiz-adv-x="699" d="M509 634 L494 648 L428 648 L428 700 L669 700 L669 648 L602 648 L588 634 L588 235 Q588 110 524.5 50 Q461 -10 351 -10 Q240 -10 175.5 50 Q111 110 111 235 L111 634 L97 648 L30 648 L30 700 L291 700 L291 648 L224 648 L211 634 L211 234 Q211 143 247 98 Q283 53 359 53 Q438 53 473.5 98 Q509 143 509 234 L509 634 Z M487 881 Q483 859 473.5 839 Q464 819 449 803.5 Q434 788 412.5 778.5 Q391 769 364 769 Q337 769 315.5 778.5 Q294 788 279 803.5 Q264 819 254.5 839 Q245 859 241 881 L286 892 Q293 864 311.5 842.5 Q330 821 364 821 Q399 821 419.5 842 Q440 863 446 890 L487 881 Z " />
<glyph glyph-name="ubreve" unicode="&#x16d;" horiz-adv-x="594" d="M453 526 Q477 526 485.5 514.5 Q494 503 494 486 L494 64 L509 49 L575 49 L575 0 L450 0 Q425 0 417 11.5 Q409 23 409 40 L409 67 L407 67 Q395 55 379 41 Q363 27 343 16 Q323 5 298.5 -2.5 Q274 -10 246 -10 Q202 -10 172.5 2.5 Q143 15 125.5 37 Q108 59 101 88 Q94 117 94 150 L94 459 L80 474 L13 474 L13 526 L143 526 Q167 526 176 513.5 Q185 501 185 482 L185 163 Q185 144 188.5 125.5 Q192 107 202.5 92.5 Q213 78 231 69 Q249 60 279 60 Q311 60 341.5 74.5 Q372 89 403 122 L403 459 L389 474 L322 474 L322 526 L453 526 Z M396 706 Q392 685 382.5 665 Q373 645 358 629.5 Q343 614 321.5 604.5 Q300 595 273 595 Q246 595 224.5 604.5 Q203 614 188 629.5 Q173 645 163.5 665 Q154 685 150 706 L196 718 Q202 690 220.5 668.5 Q239 647 274 647 Q309 647 329 668 Q349 689 356 716 L396 706 Z " />
<glyph glyph-name="Uring" unicode="&#x16e;" horiz-adv-x="699" d="M476 831 Q476 788 443.5 767.5 Q411 747 363 747 Q316 747 284 767.5 Q252 788 252 831 Q252 874 284 894 Q316 914 363 914 Q411 914 443.5 894 Q476 874 476 831 Z M423 831 Q423 858 407 871 Q391 884 363 884 Q336 884 319.5 871 Q303 858 303 831 Q303 804 319.5 791 Q336 778 363 778 Q391 778 407 791 Q423 804 423 831 Z M509 634 L494 648 L428 648 L428 700 L669 700 L669 648 L602 648 L588 634 L588 235 Q588 110 524.5 50 Q461 -10 351 -10 Q240 -10 175.5 50 Q111 110 111 235 L111 634 L97 648 L30 648 L30 700 L291 700 L291 648 L224 648 L211 634 L211 234 Q211 143 247 98 Q283 53 359 53 Q438 53 473.5 98 Q509 143 509 234 L509 634 Z " />
<glyph glyph-name="uring" unicode="&#x16f;" horiz-adv-x="594" d="M385 656 Q385 614 352.5 593.5 Q320 573 272 573 Q225 573 193 593.5 Q161 614 161 656 Q161 699 193 719.5 Q225 740 272 740 Q320 740 352.5 719.5 Q385 699 385 656 Z M333 656 Q333 683 316.5 696 Q300 709 272 709 Q245 709 229 696 Q213 683 213 656 Q213 630 229 616.5 Q245 603 272 603 Q300 603 316.5 616.5 Q333 630 333 656 Z M453 526 Q477 526 485.5 514.5 Q494 503 494 486 L494 64 L509 49 L575 49 L575 0 L450 0 Q425 0 417 11.5 Q409 23 409 40 L409 67 L407 67 Q395 55 379 41 Q363 27 343 16 Q323 5 298.5 -2.5 Q274 -10 246 -10 Q202 -10 172.5 2.5 Q143 15 125.5 37 Q108 59 101 88 Q94 117 94 150 L94 459 L80 474 L13 474 L13 526 L143 526 Q167 526 176 513.5 Q185 501 185 482 L185 163 Q185 144 188.5 125.5 Q192 107 202.5 92.5 Q213 78 231 69 Q249 60 279 60 Q311 60 341.5 74.5 Q372 89 403 122 L403 459 L389 474 L322 474 L322 526 L453 526 Z " />
<glyph glyph-name="Uhungarumlaut" unicode="&#x170;" horiz-adv-x="699" d="M294 756 L272 780 L380 922 L398 922 L431 887 L308 756 L294 756 Z M409 756 L393 779 L514 908 L532 908 L569 868 L424 756 L409 756 Z M509 634 L494 648 L428 648 L428 700 L669 700 L669 648 L602 648 L588 634 L588 235 Q588 110 524.5 50 Q461 -10 351 -10 Q240 -10 175.5 50 Q111 110 111 235 L111 634 L97 648 L30 648 L30 700 L291 700 L291 648 L224 648 L211 634 L211 234 Q211 143 247 98 Q283 53 359 53 Q438 53 473.5 98 Q509 143 509 234 L509 634 Z " />
<glyph glyph-name="uhungarumlaut" unicode="&#x171;" horiz-adv-x="594" d="M453 526 Q477 526 485.5 514.5 Q494 503 494 486 L494 64 L509 49 L575 49 L575 0 L450 0 Q425 0 417 11.5 Q409 23 409 40 L409 67 L407 67 Q395 55 379 41 Q363 27 343 16 Q323 5 298.5 -2.5 Q274 -10 246 -10 Q202 -10 172.5 2.5 Q143 15 125.5 37 Q108 59 101 88 Q94 117 94 150 L94 459 L80 474 L13 474 L13 526 L143 526 Q167 526 176 513.5 Q185 501 185 482 L185 163 Q185 144 188.5 125.5 Q192 107 202.5 92.5 Q213 78 231 69 Q249 60 279 60 Q311 60 341.5 74.5 Q372 89 403 122 L403 459 L389 474 L322 474 L322 526 L453 526 Z M202 582 L181 605 L288 747 L306 747 L339 712 L216 582 L202 582 Z M318 582 L301 604 L422 734 L440 734 L477 694 L332 582 L318 582 Z " />
<glyph glyph-name="Uogonek" unicode="&#x172;" horiz-adv-x="699" d="M363 -180 Q311 -180 280.5 -160.5 Q250 -141 250 -97 Q250 -67 268.5 -45 Q287 -23 316 -9 Q220 1 165.5 60 Q111 119 111 235 L111 634 L97 648 L30 648 L30 700 L291 700 L291 648 L224 648 L211 634 L211 234 Q211 143 247 98 Q283 53 359 53 Q438 53 473.5 98 Q509 143 509 234 L509 634 L494 648 L428 648 L428 700 L669 700 L669 648 L602 648 L588 634 L588 235 Q588 133 546 75 Q504 17 429 -2 Q380 -13 346.5 -33.5 Q313 -54 313 -86 Q313 -119 332 -131.5 Q351 -144 380 -144 Q402 -144 423.5 -137 Q445 -130 455 -123 L471 -151 Q454 -163 424.5 -171.5 Q395 -180 363 -180 Z " />
<glyph glyph-name="uogonek" unicode="&#x173;" horiz-adv-x="593" d="M452 526 Q476 526 484.5 514.5 Q493 503 493 486 L493 64 L508 49 L574 49 L574 0 L533 0 Q484 -9 451.5 -30.5 Q419 -52 419 -86 Q419 -119 437.5 -131.5 Q456 -144 486 -144 Q508 -144 529 -137 Q550 -130 561 -123 L576 -151 Q559 -163 529.5 -171.5 Q500 -180 468 -180 Q417 -180 386 -160.5 Q355 -141 355 -97 Q355 -62 378.5 -38 Q402 -14 437 1 Q420 4 414 14.5 Q408 25 408 40 L408 67 L406 67 Q394 55 378 41 Q362 27 342 16 Q322 5 297.5 -2.5 Q273 -10 245 -10 Q201 -10 171.5 2.5 Q142 15 124.5 37 Q107 59 100 88 Q93 117 93 150 L93 459 L79 474 L12 474 L12 526 L142 526 Q166 526 175 513.5 Q184 501 184 482 L184 163 Q184 144 187.5 125.5 Q191 107 201.5 92.5 Q212 78 230 69 Q248 60 278 60 Q310 60 340.5 74.5 Q371 89 402 122 L402 459 L388 474 L321 474 L321 526 L452 526 Z " />
<glyph glyph-name="Wcircumflex" unicode="&#x174;" horiz-adv-x="962" d="M383 756 L364 778 L485 924 L518 924 L638 778 L620 756 L604 756 L502 855 L398 756 L383 756 Z M961 648 L899 648 L885 634 L707 -2 L626 -2 L482 521 L340 -2 L258 -2 L74 636 L62 648 L1 648 L1 700 L249 700 L249 648 L187 648 L174 634 L310 122 L462 700 L527 700 L679 123 L813 634 L801 648 L734 648 L734 700 L961 700 L961 648 Z " />
<glyph glyph-name="wcircumflex" unicode="&#x175;" horiz-adv-x="832" d="M317 582 L300 602 L418 747 L450 747 L567 602 L551 582 L535 582 L433 682 L332 582 L317 582 Z M458 526 L580 118 L686 459 L673 474 L611 474 L611 526 L824 526 L824 474 L765 474 L751 461 L602 -1 L534 -1 L416 368 L303 -1 L233 -1 L77 461 L65 474 L3 474 L3 526 L244 526 L244 474 L183 474 L170 459 L279 117 L401 526 L458 526 Z " />
<glyph glyph-name="Ycircumflex" unicode="&#x176;" horiz-adv-x="629" d="M270 281 L68 635 L53 648 L0 648 L0 700 L249 700 L249 648 L184 648 L173 636 L330 356 L482 635 L472 648 L404 648 L404 700 L624 700 L624 648 L571 648 L556 634 L367 298 L367 66 L381 52 L448 52 L448 0 L190 0 L190 52 L256 52 L270 66 L270 281 Z M207 756 L188 778 L309 924 L342 924 L462 778 L444 756 L428 756 L326 855 L222 756 L207 756 Z " />
<glyph glyph-name="ycircumflex" unicode="&#x177;" horiz-adv-x="575" d="M511 474 L497 459 L290 -106 L303 -121 L366 -121 L366 -170 L132 -170 L132 -121 L210 -121 L225 -106 L258 -15 L77 460 L64 474 L4 474 L4 526 L243 526 L243 474 L184 474 L170 459 L301 104 L430 459 L418 474 L354 474 L354 526 L569 526 L569 474 L511 474 Z M186 582 L169 602 L287 747 L319 747 L436 602 L420 582 L404 582 L302 682 L201 582 L186 582 Z " />
<glyph glyph-name="Ydieresis" unicode="&#x178;" horiz-adv-x="629" d="M270 281 L68 635 L53 648 L0 648 L0 700 L249 700 L249 648 L184 648 L173 636 L330 356 L482 635 L472 648 L404 648 L404 700 L624 700 L624 648 L571 648 L556 634 L367 298 L367 66 L381 52 L448 52 L448 0 L190 0 L190 52 L256 52 L270 66 L270 281 Z M212 833 Q212 851 224.5 864.5 Q237 878 257 878 Q277 878 289 864.5 Q301 851 301 833 Q301 814 289 801.5 Q277 789 257 789 Q237 789 224.5 801.5 Q212 814 212 833 Z M348 833 Q348 851 360.5 864.5 Q373 878 393 878 Q413 878 425.5 864.5 Q438 851 438 833 Q438 814 425.5 801.5 Q413 789 393 789 Q373 789 360.5 801.5 Q348 814 348 833 Z " />
<glyph glyph-name="Zacute" unicode="&#x179;" horiz-adv-x="593" d="M550 0 L40 0 L40 52 L423 640 L130 640 L117 627 L117 540 L53 540 L53 700 L534 700 L534 648 L154 61 L473 61 L487 74 L487 161 L550 161 L550 0 Z M287 756 L262 783 L376 922 L394 922 L436 871 L301 756 L287 756 Z " />
<glyph glyph-name="zacute" unicode="&#x17a;" horiz-adv-x="512" d="M252 582 L227 609 L341 747 L360 747 L402 697 L267 582 L252 582 Z M352 474 L122 474 L109 460 L109 381 L47 381 L47 526 L461 526 L461 482 L148 53 L397 53 L411 66 L411 146 L473 146 L473 0 L37 0 L37 42 L352 474 Z " />
<glyph glyph-name="Zdotaccent" unicode="&#x17b;" horiz-adv-x="593" d="M240 836 Q240 859 257.5 875 Q275 891 298 891 Q322 891 339.5 875 Q357 859 357 836 Q357 814 339.5 797.5 Q322 781 298 781 Q275 781 257.5 797.5 Q240 814 240 836 Z M550 0 L40 0 L40 52 L423 640 L130 640 L117 627 L117 540 L53 540 L53 700 L534 700 L534 648 L154 61 L473 61 L487 74 L487 161 L550 161 L550 0 Z " />
<glyph glyph-name="zdotaccent" unicode="&#x17c;" horiz-adv-x="512" d="M352 474 L122 474 L109 460 L109 381 L47 381 L47 526 L461 526 L461 482 L148 53 L397 53 L411 66 L411 146 L473 146 L473 0 L37 0 L37 42 L352 474 Z M204 663 Q204 684 221 701 Q238 718 262 718 Q285 718 302.5 701 Q320 684 320 663 Q320 640 302.5 623.5 Q285 607 262 607 Q238 607 221 623.5 Q204 640 204 663 Z " />
<glyph glyph-name="Zcaron" unicode="&#x17d;" horiz-adv-x="593" d="M550 0 L40 0 L40 52 L423 640 L130 640 L117 627 L117 540 L53 540 L53 700 L534 700 L534 648 L154 61 L473 61 L487 74 L487 161 L550 161 L550 0 Z M419 924 L436 902 L317 756 L283 756 L163 902 L181 924 L197 924 L300 825 L403 924 L419 924 Z " />
<glyph glyph-name="zcaron" unicode="&#x17e;" horiz-adv-x="512" d="M383 749 L400 728 L281 582 L247 582 L128 728 L145 749 L162 749 L264 650 L367 749 L383 749 Z M352 474 L122 474 L109 460 L109 381 L47 381 L47 526 L461 526 L461 482 L148 53 L397 53 L411 66 L411 146 L473 146 L473 0 L37 0 L37 42 L352 474 Z " />
<glyph glyph-name="longs" unicode="&#x17f;" horiz-adv-x="336" d="M374 627 L317 627 L317 678 L304 691 Q290 694 278 694 Q236 694 219 662.5 Q202 631 202 568 L202 64 L216 49 L296 49 L296 0 L31 0 L31 49 L97 49 L111 64 L111 474 L31 474 L31 524 L97 524 L111 538 L111 562 Q111 646 148.5 693 Q186 740 277 740 Q315 740 340.5 736 Q366 732 374 730 L374 627 Z " />
<glyph glyph-name="florin" unicode="&#x192;" horiz-adv-x="497" d="M75 434 L192 434 L207 563 Q211 605 222.5 638 Q234 671 255.5 693.5 Q277 716 310 728 Q343 740 391 740 Q429 740 453.5 736 Q478 732 487 730 L476 632 L419 632 L425 680 L412 693 Q407 694 401 694.5 Q395 695 390 695 Q350 695 328 667.5 Q306 640 298 568 L283 434 L406 434 L406 386 L278 386 L235 -3 Q230 -45 219 -78 Q208 -111 186.5 -133.5 Q165 -156 132 -168 Q99 -180 51 -180 Q13 -180 -11.5 -176 Q-36 -172 -45 -170 L-33 -72 L23 -72 L17 -119 L30 -132 Q42 -135 52 -135 Q91 -135 113.5 -107.5 Q136 -80 144 -8 L187 386 L75 386 L75 434 Z " />
<glyph glyph-name="uni0218" unicode="&#x218;" horiz-adv-x="557" d="M244 -276 Q243 -276 237.5 -273.5 Q232 -271 225 -267 L207 -257 L241 -196 L234 -180 Q209 -167 209 -138 Q209 -114 221.5 -100.5 Q234 -87 260 -87 Q285 -87 298.5 -100 Q312 -113 312 -136 Q312 -146 308 -155.5 Q304 -165 299 -174 L244 -276 Z M512 201 Q512 147 493 107.5 Q474 68 440 42 Q406 16 359 3 Q312 -10 257 -10 Q211 -10 174 -6 Q137 -2 110 3 Q78 9 53 17 L53 180 L117 180 L117 80 L133 63 Q153 58 184 54.5 Q215 51 257 51 Q335 51 377 84.5 Q419 118 419 180 Q419 232 384 262.5 Q349 293 265 317 Q162 347 110.5 395 Q59 443 59 521 Q59 567 77 602 Q95 637 127.5 661 Q160 685 204.5 697.5 Q249 710 303 710 Q343 710 376.5 706.5 Q410 703 435 698 Q464 693 488 687 L488 531 L424 531 L424 625 L409 640 Q389 643 362.5 646.5 Q336 650 303 650 Q230 650 189 620.5 Q148 591 148 538 Q148 517 154 498.5 Q160 480 176.5 463.5 Q193 447 223.5 432 Q254 417 303 402 Q352 387 391 369.5 Q430 352 457 328.5 Q484 305 498 274 Q512 243 512 201 Z " />
<glyph glyph-name="uni0219" unicode="&#x219;" horiz-adv-x="457" d="M199 -276 Q198 -276 192.5 -273.5 Q187 -271 180 -267 L162 -257 L196 -196 L189 -180 Q164 -167 164 -138 Q164 -114 176.5 -100.5 Q189 -87 215 -87 Q240 -87 253.5 -100 Q267 -113 267 -136 Q267 -146 263 -155.5 Q259 -165 254 -174 L199 -276 Z M417 155 Q417 116 401.5 85 Q386 54 358.5 33 Q331 12 293.5 1 Q256 -10 211 -10 Q173 -10 142.5 -7 Q112 -4 91 1 Q66 5 47 12 L47 137 L106 137 L106 69 L119 55 Q136 52 159.5 49.5 Q183 47 215 47 Q268 47 299.5 70.5 Q331 94 331 137 Q331 155 325 169.5 Q319 184 304.5 195.5 Q290 207 266.5 216 Q243 225 208 234 Q161 246 131 261.5 Q101 277 83 296.5 Q65 316 58 339.5 Q51 363 51 389 Q51 455 103 495.5 Q155 536 249 536 Q281 536 307.5 533 Q334 530 354 527 Q377 523 396 519 L396 395 L337 395 L337 462 L325 473 Q311 476 291 478.5 Q271 481 245 481 Q191 481 162.5 459 Q134 437 134 402 Q134 386 138.5 373 Q143 360 155 348.5 Q167 337 188.5 328 Q210 319 245 310 Q338 287 377.5 251 Q417 215 417 155 Z " />
<glyph glyph-name="uni021A" unicode="&#x21a;" horiz-adv-x="579" d="M277 -276 Q276 -276 270.5 -273.5 Q265 -271 258 -267 L240 -257 L274 -196 L267 -180 Q242 -167 242 -138 Q242 -114 254.5 -100.5 Q267 -87 293 -87 Q318 -87 331.5 -100 Q345 -113 345 -136 Q345 -146 341 -155.5 Q337 -165 332 -174 L277 -276 Z M28 700 L550 700 L550 538 L491 538 L491 625 L477 639 L338 639 L338 66 L352 52 L424 52 L424 0 L154 0 L154 52 L226 52 L241 66 L241 639 L102 639 L88 625 L88 538 L28 538 L28 700 Z " />
<glyph glyph-name="uni021B" unicode="&#x21b;" horiz-adv-x="336" d="M185 -275 Q184 -275 178.5 -272.5 Q173 -270 166 -266 L148 -256 L182 -195 L175 -179 Q150 -166 150 -137 Q150 -113 162.5 -99.5 Q175 -86 201 -86 Q226 -86 239.5 -99 Q253 -112 253 -135 Q253 -145 249 -154.5 Q245 -164 240 -173 L185 -275 Z M188 474 L188 64 L202 49 L326 49 L326 0 Q297 -3 271 -5 Q248 -7 224.5 -8.5 Q201 -10 187 -10 Q142 -10 119.5 9.5 Q97 29 97 78 L97 474 L24 474 L24 524 L83 524 L97 538 L131 670 L188 670 L188 524 L305 524 L305 474 L188 474 Z " />
<glyph glyph-name="uni0237" unicode="&#x237;" horiz-adv-x="274" d="M-47 -69 L10 -69 L10 -121 L22 -133 Q26 -134 32 -134 Q72 -134 87.5 -98.5 Q103 -63 103 -4 L103 459 L88 474 L22 474 L22 526 L152 526 Q177 526 185.5 514.5 Q194 503 194 486 L194 0 Q194 -41 185.5 -74 Q177 -107 158.5 -130.5 Q140 -154 109.5 -167 Q79 -180 34 -180 Q0 -180 -21 -177 Q-42 -174 -47 -173 L-47 -69 Z " />
<glyph glyph-name="circumflex" unicode="&#x2c6;" horiz-adv-x="400" d="M80 582 L63 602 L181 747 L213 747 L330 602 L314 582 L298 582 L196 682 L95 582 L80 582 Z " />
<glyph glyph-name="caron" unicode="&#x2c7;" horiz-adv-x="401" d="M316 749 L333 728 L214 582 L180 582 L61 728 L78 749 L95 749 L197 650 L300 749 L316 749 Z " />
<glyph glyph-name="uni02C9" unicode="&#x2c9;" horiz-adv-x="391" d="M68 690 L323 690 L323 635 L68 635 L68 690 Z " />
<glyph glyph-name="breve" unicode="&#x2d8;" horiz-adv-x="400" d="M323 706 Q319 685 309.5 665 Q300 645 285 629.5 Q270 614 248.5 604.5 Q227 595 200 595 Q173 595 151.5 604.5 Q130 614 115 629.5 Q100 645 90.5 665 Q81 685 77 706 L123 718 Q129 690 147.5 668.5 Q166 647 201 647 Q236 647 256 668 Q276 689 283 716 L323 706 Z " />
<glyph glyph-name="dotaccent" unicode="&#x2d9;" horiz-adv-x="293" d="M86 663 Q86 684 103 701 Q120 718 144 718 Q167 718 184.5 701 Q202 684 202 663 Q202 640 184.5 623.5 Q167 607 144 607 Q120 607 103 623.5 Q86 640 86 663 Z " />
<glyph glyph-name="ring" unicode="&#x2da;" horiz-adv-x="400" d="M312 656 Q312 614 279.5 593.5 Q247 573 199 573 Q152 573 120 593.5 Q88 614 88 656 Q88 699 120 719.5 Q152 740 199 740 Q247 740 279.5 719.5 Q312 699 312 656 Z M260 656 Q260 683 243.5 696 Q227 709 199 709 Q172 709 156 696 Q140 683 140 656 Q140 630 156 616.5 Q172 603 199 603 Q227 603 243.5 616.5 Q260 630 260 656 Z " />
<glyph glyph-name="ogonek" unicode="&#x2db;" horiz-adv-x="400" d="M283 4 Q254 1 228 -6 Q202 -13 181.5 -24 Q161 -35 149 -50.5 Q137 -66 137 -86 Q137 -119 156 -131.5 Q175 -144 206 -144 Q227 -144 248 -137 Q269 -130 279 -123 L295 -151 Q278 -163 248.5 -171.5 Q219 -180 187 -180 Q135 -180 104.5 -160.5 Q74 -141 74 -97 Q74 -66 93.5 -43 Q113 -20 143 -4.5 Q173 11 210 19.5 Q247 28 282 30 L283 4 Z " />
<glyph glyph-name="tilde" unicode="&#x2dc;" horiz-adv-x="400" d="M359 719 L359 680 Q359 641 339 620 Q319 599 282 599 Q259 599 238 607 Q217 615 197.5 625 Q178 635 159.5 643 Q141 651 123 651 Q101 651 92 642 Q83 633 83 624 L83 590 L40 590 L40 625 Q40 670 61.5 691 Q83 712 120 712 Q142 712 162.5 703.5 Q183 695 202.5 685 Q222 675 241.5 666.5 Q261 658 281 658 Q303 658 311 667.5 Q319 677 319 687 L319 719 L359 719 Z " />
<glyph glyph-name="hungarumlaut" unicode="&#x2dd;" horiz-adv-x="400" d="M75 582 L54 605 L161 747 L179 747 L212 712 L89 582 L75 582 Z M191 582 L174 604 L295 734 L313 734 L350 694 L205 582 L191 582 Z " />
<glyph glyph-name="uni0394" unicode="&#x394;" horiz-adv-x="627" d="M16 47 L269 702 L355 702 L614 46 L614 0 L16 0 L16 47 Z M101 63 L505 63 L297 599 L101 63 Z " />
<glyph glyph-name="uni03A9" unicode="&#x3a9;" horiz-adv-x="722" d="M402 113 Q455 145 487.5 174 Q520 203 537.5 236 Q555 269 560.5 308.5 Q566 348 566 401 Q566 529 512.5 587.5 Q459 646 361 646 Q263 646 209.5 587.5 Q156 529 156 401 Q156 348 161.5 308.5 Q167 269 184.5 236 Q202 203 234 174 Q266 145 319 113 L319 0 L46 0 L46 151 L100 151 L100 74 L114 60 L259 60 L259 82 Q201 111 162 144.5 Q123 178 99.5 217 Q76 256 66 301.5 Q56 347 56 401 Q56 483 79.5 541.5 Q103 600 144 637.5 Q185 675 240.5 692.5 Q296 710 361 710 Q425 710 481 692.5 Q537 675 577.5 637.5 Q618 600 641.5 541.5 Q665 483 665 401 Q665 347 655 301.5 Q645 256 621.5 217 Q598 178 559 144.5 Q520 111 463 82 L463 60 L607 60 L621 74 L621 151 L675 151 L675 0 L402 0 L402 113 Z " />
<glyph glyph-name="uni03BC" unicode="&#x3bc;" horiz-adv-x="583" d="M99 -185 L80 -179 L80 522 L163 529 L175 515 L171 273 L171 170 Q171 109 202 85 Q233 61 281 61 Q307 61 337.5 73 Q368 85 387 117 L387 522 L464 529 L482 513 L478 273 L478 113 Q478 83 485 70 Q492 57 508 57 Q519 57 535 58 Q551 59 567 64 L567 22 Q544 8 518.5 0 Q493 -8 475 -8 Q436 -8 417 10.5 Q398 29 391 63 L388 63 Q370 29 340.5 9 Q311 -11 272 -11 Q234 -11 205 3.5 Q176 18 159 54 L171 -89 L171 -170 L99 -185 Z " />
<glyph glyph-name="Wgrave" unicode="&#x1e80;" horiz-adv-x="962" d="M510 756 L496 756 L360 871 L402 922 L421 922 L535 783 L510 756 Z M961 648 L899 648 L885 634 L707 -2 L626 -2 L482 521 L340 -2 L258 -2 L74 636 L62 648 L1 648 L1 700 L249 700 L249 648 L187 648 L174 634 L310 122 L462 700 L527 700 L679 123 L813 634 L801 648 L734 648 L734 700 L961 700 L961 648 Z " />
<glyph glyph-name="wgrave" unicode="&#x1e81;" horiz-adv-x="832" d="M458 526 L580 118 L686 459 L673 474 L611 474 L611 526 L824 526 L824 474 L765 474 L751 461 L602 -1 L534 -1 L416 368 L303 -1 L233 -1 L77 461 L65 474 L3 474 L3 526 L244 526 L244 474 L183 474 L170 459 L279 117 L401 526 L458 526 Z M444 582 L431 582 L295 697 L337 747 L355 747 L469 609 L444 582 Z " />
<glyph glyph-name="Wacute" unicode="&#x1e82;" horiz-adv-x="962" d="M490 756 L465 783 L579 922 L597 922 L639 871 L504 756 L490 756 Z M961 648 L899 648 L885 634 L707 -2 L626 -2 L482 521 L340 -2 L258 -2 L74 636 L62 648 L1 648 L1 700 L249 700 L249 648 L187 648 L174 634 L310 122 L462 700 L527 700 L679 123 L813 634 L801 648 L734 648 L734 700 L961 700 L961 648 Z " />
<glyph glyph-name="wacute" unicode="&#x1e83;" horiz-adv-x="832" d="M421 582 L396 609 L510 747 L529 747 L571 697 L436 582 L421 582 Z M458 526 L580 118 L686 459 L673 474 L611 474 L611 526 L824 526 L824 474 L765 474 L751 461 L602 -1 L534 -1 L416 368 L303 -1 L233 -1 L77 461 L65 474 L3 474 L3 526 L244 526 L244 474 L183 474 L170 459 L279 117 L401 526 L458 526 Z " />
<glyph glyph-name="Wdieresis" unicode="&#x1e84;" horiz-adv-x="962" d="M961 648 L899 648 L885 634 L707 -2 L626 -2 L482 521 L340 -2 L258 -2 L74 636 L62 648 L1 648 L1 700 L249 700 L249 648 L187 648 L174 634 L310 122 L462 700 L527 700 L679 123 L813 634 L801 648 L734 648 L734 700 L961 700 L961 648 Z M388 833 Q388 851 400.5 864.5 Q413 878 433 878 Q453 878 465 864.5 Q477 851 477 833 Q477 814 465 801.5 Q453 789 433 789 Q413 789 400.5 801.5 Q388 814 388 833 Z M524 833 Q524 851 536.5 864.5 Q549 878 569 878 Q589 878 601.5 864.5 Q614 851 614 833 Q614 814 601.5 801.5 Q589 789 569 789 Q549 789 536.5 801.5 Q524 814 524 833 Z " />
<glyph glyph-name="wdieresis" unicode="&#x1e85;" horiz-adv-x="832" d="M321 658 Q321 677 333.5 690.5 Q346 704 366 704 Q386 704 398 690.5 Q410 677 410 658 Q410 639 398 626.5 Q386 614 366 614 Q346 614 333.5 626.5 Q321 639 321 658 Z M457 658 Q457 677 469.5 690.5 Q482 704 502 704 Q522 704 534.5 690.5 Q547 677 547 658 Q547 639 534.5 626.5 Q522 614 502 614 Q482 614 469.5 626.5 Q457 639 457 658 Z M458 526 L580 118 L686 459 L673 474 L611 474 L611 526 L824 526 L824 474 L765 474 L751 461 L602 -1 L534 -1 L416 368 L303 -1 L233 -1 L77 461 L65 474 L3 474 L3 526 L244 526 L244 474 L183 474 L170 459 L279 117 L401 526 L458 526 Z " />
<glyph glyph-name="endash" unicode="&#x2013;" horiz-adv-x="547" d="M58 355 L488 355 L488 291 L58 291 L58 355 Z " />
<glyph glyph-name="emdash" unicode="&#x2014;" horiz-adv-x="836" d="M58 355 L777 355 L777 291 L58 291 L58 355 Z " />
<glyph glyph-name="quoteleft" unicode="&#x2018;" horiz-adv-x="221" d="M164.003 556.003 Q164.003 531.004 149.504 516.005 Q135.005 501.006 106.007 501.006 Q78.0087 501.006 63.0096 516.005 Q48.0105 531.004 48.0105 556.003 Q48.0105 568.002 53.0102 578.501 Q58.0099 589.001 63.0096 598 L127.006 719.993 Q128.006 719.993 134.005 716.993 L148.004 709.993 Q157.004 705.994 169.003 698.994 L129.006 623.999 L135.005 607 Q164.003 591.001 164.003 556.003 Z " />
<glyph glyph-name="quoteright" unicode="&#x2019;" horiz-adv-x="217" d="M59 655 Q59 680 73.5 695 Q88 710 117 710 Q145 710 160 695 Q175 680 175 655 Q175 643 170 632.5 Q165 622 160 613 L96 491 Q95 491 89 494 L75 501 Q66 505 54 512 L94 587 L88 604 Q59 620 59 655 Z " />
<glyph glyph-name="quotesinglbase" unicode="&#x201a;" horiz-adv-x="228" d="M56 46 Q56 71 70.5 86 Q85 101 114 101 Q142 101 157 86 Q172 71 172 46 Q172 34 167 23.5 Q162 13 157 4 L93 -118 Q92 -118 86 -115 L72 -108 Q63 -104 51 -97 L91 -22 L85 -5 Q56 11 56 46 Z " />
<glyph glyph-name="quotedblleft" unicode="&#x201c;" horiz-adv-x="374" d="M317.003 556.003 Q317.003 531.004 302.504 516.005 Q288.005 501.006 259.007 501.006 Q231.009 501.006 216.01 516.005 Q201.01 531.004 201.01 556.003 Q201.01 568.002 206.01 578.501 Q211.01 589.001 216.01 598 L280.006 719.993 Q281.006 719.993 287.005 716.993 L301.004 709.993 Q310.004 705.994 322.003 698.994 L282.006 623.999 L288.005 607 Q317.003 591.001 317.003 556.003 Z M164.003 556.003 Q164.003 531.004 149.504 516.005 Q135.005 501.006 106.007 501.006 Q78.0087 501.006 63.0096 516.005 Q48.0105 531.004 48.0105 556.003 Q48.0105 568.002 53.0102 578.501 Q58.0099 589.001 63.0096 598 L127.006 719.993 Q128.006 719.993 134.005 716.993 L148.004 709.993 Q157.004 705.994 169.003 698.994 L129.006 623.999 L135.005 607 Q164.003 591.001 164.003 556.003 Z " />
<glyph glyph-name="quotedblright" unicode="&#x201d;" horiz-adv-x="370" d="M59 655 Q59 680 73.5 695 Q88 710 117 710 Q145 710 160 695 Q175 680 175 655 Q175 643 170 632.5 Q165 622 160 613 L96 491 Q95 491 89 494 L75 501 Q66 505 54 512 L94 587 L88 604 Q59 620 59 655 Z M211 655 Q211 680 225.5 695 Q240 710 269 710 Q297 710 312 695 Q327 680 327 655 Q327 643 322 632.5 Q317 622 312 613 L248 491 Q247 491 241 494 L227 501 Q218 505 206 512 L246 587 L240 604 Q211 620 211 655 Z " />
<glyph glyph-name="quotedblbase" unicode="&#x201e;" horiz-adv-x="381" d="M56 46 Q56 71 70.5 86 Q85 101 114 101 Q142 101 157 86 Q172 71 172 46 Q172 34 167 23.5 Q162 13 157 4 L93 -118 Q92 -118 86 -115 L72 -108 Q63 -104 51 -97 L91 -22 L85 -5 Q56 11 56 46 Z M209 46 Q209 71 223.5 86 Q238 101 267 101 Q295 101 310 86 Q325 71 325 46 Q325 34 320 23.5 Q315 13 310 4 L246 -118 Q245 -118 239 -115 L225 -108 Q216 -104 204 -97 L244 -22 L238 -5 Q209 11 209 46 Z " />
<glyph glyph-name="dagger" unicode="&#x2020;" horiz-adv-x="476" d="M29 515 L149 501 L215 501 L195 700 L284 700 L263 501 L327 501 L447 515 L447 440 L322 455 L266 455 L284 340 L259 0 L219 0 L195 340 L212 455 L155 455 L29 440 L29 515 Z " />
<glyph glyph-name="daggerdbl" unicode="&#x2021;" horiz-adv-x="524" d="M53 261 L179 246 L237 246 L219 350 L237 455 L179 455 L53 440 L53 515 L173 501 L240 501 L219 700 L308 700 L288 501 L351 501 L471 515 L471 440 L346 455 L291 455 L308 350 L291 246 L346 246 L471 261 L471 186 L351 200 L288 200 L308 0 L219 0 L240 200 L173 200 L53 186 L53 261 Z " />
<glyph glyph-name="bullet" unicode="&#x2022;" horiz-adv-x="334" d="M78.5 373 Q78.5 404.5 104.75 430 Q131 455.5 165.5 455.5 Q201.5 455.5 227.75 430 Q254 404.5 254 373 Q254 338.5 227.75 313.75 Q201.5 289 165.5 289 Q131 289 104.75 313.75 Q78.5 338.5 78.5 373 Z " />
<glyph glyph-name="ellipsis" unicode="&#x2026;" horiz-adv-x="667" d="M495 46 Q495 67 512.5 84 Q530 101 553 101 Q577 101 594.5 84 Q612 67 612 46 Q612 23 594.5 6.5 Q577 -10 553 -10 Q530 -10 512.5 6.5 Q495 23 495 46 Z M55 46 Q55 67 72.5 84 Q90 101 113 101 Q137 101 154.5 84 Q172 67 172 46 Q172 23 154.5 6.5 Q137 -10 113 -10 Q90 -10 72.5 6.5 Q55 23 55 46 Z M275 46 Q275 67 292.5 84 Q310 101 333 101 Q357 101 374.5 84 Q392 67 392 46 Q392 23 374.5 6.5 Q357 -10 333 -10 Q310 -10 292.5 6.5 Q275 23 275 46 Z " />
<glyph glyph-name="perthousand" unicode="&#x2030;" horiz-adv-x="964" d="M295 538 Q295 451 261 411 Q227 371 167 371 Q107 371 72.5 411 Q38 451 38 539 Q38 626 72.5 665.5 Q107 705 167 705 Q227 705 261 665.5 Q295 626 295 538 Z M235 538 Q235 602 219.5 632 Q204 662 166 662 Q131 662 114.5 632 Q98 602 98 539 Q98 414 166 414 Q204 414 219.5 444.5 Q235 475 235 538 Z M625 162 Q625 75 591 35 Q557 -5 497 -5 Q437 -5 402.5 35 Q368 75 368 163 Q368 250 402.5 289.5 Q437 329 497 329 Q557 329 591 289.5 Q625 250 625 162 Z M565 162 Q565 226 549.5 256 Q534 286 496 286 Q461 286 444.5 256 Q428 226 428 163 Q428 38 496 38 Q534 38 549.5 68.5 Q565 99 565 162 Z M933 162 Q933 75 899 35 Q865 -5 805 -5 Q745 -5 710.5 35 Q676 75 676 163 Q676 250 710.5 289.5 Q745 329 805 329 Q865 329 899 289.5 Q933 250 933 162 Z M873 162 Q873 226 857.5 256 Q842 286 804 286 Q769 286 752.5 256 Q736 226 736 163 Q736 38 804 38 Q842 38 857.5 68.5 Q873 99 873 162 Z M78 0 L532 700 L586 700 L132 0 L78 0 Z " />
<glyph glyph-name="guilsinglleft" unicode="&#x2039;" horiz-adv-x="303" d="M38.0162 239 L204.006 46 L255.003 46 L116.011 255 L255.003 463 L204.006 463 L38.0162 271 L38.0162 239 Z " />
<glyph glyph-name="guilsinglright" unicode="&#x203a;" horiz-adv-x="303" d="M265 239 L99 46 L48 46 L187 255 L48 463 L99 463 L265 271 L265 239 Z " />
<glyph glyph-name="fraction" unicode="&#x2044;" horiz-adv-x="90" d="M-208 0 L246 700 L300 700 L-154 0 L-208 0 Z " />
<glyph glyph-name="franc" unicode="&#x20a3;" horiz-adv-x="628" d="M64 421 L141 421 L141 634 L126 648 L60 648 L60 700 L599 700 L599 540 L539 540 L539 626 L524 639 L238 639 L238 421 L427 421 L427 374 L238 374 L238 309 L427 309 L427 262 L238 262 L238 66 L251 52 L334 52 L334 0 L60 0 L60 52 L126 52 L141 66 L141 262 L64 262 L64 309 L141 309 L141 374 L64 374 L64 421 Z " />
<glyph glyph-name="lira" unicode="&#x20a4;" horiz-adv-x="611" d="M50 421 L126 421 L126 497 Q126 541 139.5 580 Q153 619 181 648 Q209 677 252 693.5 Q295 710 355 710 Q397 710 432 704.5 Q467 699 493 693 Q523 685 547 676 L547 536 L487 536 L487 623 L474 635 Q455 640 427.5 644.5 Q400 649 365 649 Q293 649 257.5 613.5 Q222 578 222 497 L222 421 L399 421 L399 374 L222 374 L222 309 L399 309 L399 262 L222 262 L222 182 Q222 148 217.5 114 Q213 80 206 66 L481 66 L496 80 L496 170 L555 170 L555 0 L50 0 L50 52 L112 52 L126 66 L126 262 L50 262 L50 309 L126 309 L126 374 L50 374 L50 421 Z " />
<glyph glyph-name="peseta" unicode="&#x20a7;" horiz-adv-x="1465" d="M124 634 L109 648 L43 648 L43 700 L360 700 Q478 700 544.5 649 Q611 598 611 488 Q611 375 543.5 320 Q476 265 356 265 L221 265 L221 66 L234 52 L311 52 L311 0 L43 0 L43 52 L109 52 L124 66 L124 634 Z M221 640 L221 326 L356 326 Q438 326 475.5 364 Q513 402 513 483 Q513 564 476 602 Q439 640 360 640 L221 640 Z M1419 155 Q1419 116 1403.5 85 Q1388 54 1360.5 33 Q1333 12 1295.5 1 Q1258 -10 1213 -10 Q1175 -10 1144.5 -7 Q1114 -4 1093 1 Q1068 5 1049 12 L1049 137 L1108 137 L1108 69 L1121 55 Q1138 52 1161.5 49.5 Q1185 47 1217 47 Q1270 47 1301.5 70.5 Q1333 94 1333 137 Q1333 155 1327 169.5 Q1321 184 1306.5 195.5 Q1292 207 1268.5 216 Q1245 225 1210 234 Q1163 246 1133 261.5 Q1103 277 1085 296.5 Q1067 316 1060 339.5 Q1053 363 1053 389 Q1053 455 1105 495.5 Q1157 536 1251 536 Q1283 536 1309.5 533 Q1336 530 1356 527 Q1379 523 1398 519 L1398 395 L1339 395 L1339 462 L1327 473 Q1313 476 1293 478.5 Q1273 481 1247 481 Q1193 481 1164.5 459 Q1136 437 1136 402 Q1136 386 1140.5 373 Q1145 360 1157 348.5 Q1169 337 1190.5 328 Q1212 319 1247 310 Q1340 287 1379.5 251 Q1419 215 1419 155 Z M846 474 L846 64 L860 49 L984 49 L984 0 Q955 -3 929 -5 Q906 -7 882.5 -8.5 Q859 -10 845 -10 Q800 -10 777.5 9.5 Q755 29 755 78 L755 474 L682 474 L682 524 L741 524 L755 538 L789 670 L846 670 L846 524 L963 524 L963 474 L846 474 Z " />
<glyph glyph-name="Euro" unicode="&#x20ac;" horiz-adv-x="654" d="M36 431 L124 431 Q142 574 223.5 642 Q305 710 435 710 Q492 710 535 701 Q578 692 591 684 L591 544 L533 544 L533 623 L521 636 Q482 650 435 650 Q335 650 284 595 Q233 540 221 431 L428 431 L428 384 L218 384 L218 337 Q218 328 219 318 L428 318 L428 271 L222 271 Q236 160 287.5 106 Q339 52 439 52 Q490 52 528 65 L542 79 L542 162 L599 162 L599 27 Q570 13 527 1.5 Q484 -10 424 -10 Q297 -10 218.5 58.5 Q140 127 123 271 L36 271 L36 318 L120 318 Q119 326 119 334 L119 367 Q119 376 120 384 L36 384 L36 431 Z " />
<glyph glyph-name="uni2113" unicode="&#x2113;" horiz-adv-x="408" d="M380 27 Q368 20 352 13.5 Q336 7 319 1.5 Q302 -4 285 -7 Q268 -10 255 -10 Q188 -10 150.5 18 Q113 46 113 120 L113 134 L55 74 L19 116 L113 218 L113 544 Q113 591 123.5 624.5 Q134 658 152.5 680 Q171 702 196.5 712 Q222 722 252 722 Q277 722 298.5 714.5 Q320 707 336.5 690.5 Q353 674 362.5 647.5 Q372 621 372 582 Q372 542 362 501.5 Q352 461 330.5 417.5 Q309 374 274 325 Q239 276 189 218 L189 129 Q189 83 206 67 Q223 51 258 51 Q283 51 312 59 Q341 67 362 78 L380 27 Z M189 311 Q250 393 273.5 457 Q297 521 297 578 Q297 627 283 647.5 Q269 668 246 668 Q220 668 204.5 633 Q189 598 189 527 L189 311 Z " />
<glyph glyph-name="trademark" unicode="&#x2122;" horiz-adv-x="803" d="M450 617 L450 429 L455 423 L491 423 L491 387 L358 387 L358 423 L394 423 L400 429 L400 659 L394 664 L358 664 L358 700 L464 700 L549 540 L632 700 L737 700 L737 664 L700 664 L695 659 L695 429 L701 423 L737 423 L737 387 L596 387 L596 423 L633 423 L638 429 L638 621 L569 486 L520 486 L450 617 Z M69 700 L319 700 L319 612 L285 612 L285 650 L280 656 L223 656 L223 429 L228 423 L268 423 L268 387 L121 387 L121 423 L160 423 L165 429 L165 656 L109 656 L103 650 L103 612 L69 612 L69 700 Z " />
<glyph glyph-name="estimated" unicode="&#x212e;" horiz-adv-x="793" d="M598 363 L608 376 L608 582 Q574 623 521 647 Q468 671 405 671 Q339 671 287.5 647.5 Q236 624 201 582 L201 376 L210 363 L598 363 Z M201 313 L201 131 Q236 81 288 53.5 Q340 26 414 26 Q489 26 549.5 54 Q610 82 650 131 L705 131 Q652 62 580.5 26 Q509 -10 414 -10 Q337 -10 270.5 18 Q204 46 154 95 Q104 144 75.5 209 Q47 274 47 349 Q47 424 75.5 489.5 Q104 555 153 603.5 Q202 652 267 679.5 Q332 707 405 707 Q477 707 540 680 Q603 653 651 606.5 Q699 560 729 497.5 Q759 435 764 365 L764 363 L732 326 L210 326 L201 313 Z " />
<glyph glyph-name="partialdiff" unicode="&#x2202;" horiz-adv-x="542" d="M498 263 Q498 193 479.5 141.5 Q461 90 429.5 56.5 Q398 23 357 6.5 Q316 -10 270 -10 Q224 -10 183 6.5 Q142 23 111 56.5 Q80 90 61.5 141.5 Q43 193 43 263 Q43 332 61.5 383.5 Q80 435 111 469 Q142 503 183 519.5 Q224 536 270 536 Q315 536 355 516 Q323 576 276.5 625.5 Q230 675 175 707 L204 741 Q274 709 329 659.5 Q384 610 421.5 547.5 Q459 485 478.5 412.5 Q498 340 498 263 Z M403 263 Q403 372 368 424.5 Q333 477 270 477 Q207 477 172.5 424.5 Q138 372 138 263 Q138 154 172.5 101 Q207 48 270 48 Q333 48 368 101 Q403 154 403 263 Z " />
<glyph glyph-name="product" unicode="&#x220f;" horiz-adv-x="728" d="M42 700 L686 700 L686 648 L619 648 L605 634 L605 66 L619 52 L686 52 L686 0 L428 0 L428 52 L494 52 L509 66 L509 634 L494 648 L234 648 L220 634 L220 66 L234 52 L301 52 L301 0 L42 0 L42 52 L109 52 L123 66 L123 634 L109 648 L42 648 L42 700 Z " />
<glyph glyph-name="summation" unicode="&#x2211;" horiz-adv-x="594" d="M40 700 L508 700 L540 555 L493 546 L465 634 L451 648 L153 648 L343 375 L124 64 L461 64 L475 78 L501 163 L547 153 L512 0 L40 0 L40 47 L257 352 L40 655 L40 700 Z " />
<glyph glyph-name="minus" unicode="&#x2212;" horiz-adv-x="535" d="M66 366 L469 366 L469 307 L66 307 L66 366 Z " />
<glyph glyph-name="uni2215" unicode="&#x2215;" horiz-adv-x="503" d="M-2 0 L452 700 L506 700 L52 0 L-2 0 Z " />
<glyph glyph-name="uni2219" unicode="&#x2219;" horiz-adv-x="242" d="M63 373 Q63 394 80.5 411 Q98 428 121 428 Q145 428 162.5 411 Q180 394 180 373 Q180 350 162.5 333.5 Q145 317 121 317 Q98 317 80.5 333.5 Q63 350 63 373 Z " />
<glyph glyph-name="radical" unicode="&#x221a;" horiz-adv-x="555" d="M101 449 L20 411 L4 449 L155 524 L346 129 L504 941 L544 936 L353 -47 L101 449 Z " />
<glyph glyph-name="infinity" unicode="&#x221e;" horiz-adv-x="843" d="M48 333 Q48 367 60 397 Q72 427 95 449.5 Q118 472 151 485 Q184 498 226 498 Q259 498 286.5 487.5 Q314 477 338 460.5 Q362 444 383 423 Q404 402 423 380 Q442 402 462.5 423 Q483 444 507 460.5 Q531 477 559 487.5 Q587 498 620 498 Q661 498 693.5 485 Q726 472 748.5 449.5 Q771 427 783 397 Q795 367 795 333 Q795 300 784 270 Q773 240 751.5 217.5 Q730 195 697 181.5 Q664 168 620 168 Q588 168 560.5 178.5 Q533 189 509 205.5 Q485 222 463.5 242.5 Q442 263 424 284 Q405 263 384 242 Q363 221 339 204.5 Q315 188 287 178 Q259 168 226 168 Q181 168 147.5 181 Q114 194 92 216.5 Q70 239 59 269 Q48 299 48 333 Z M227 440 Q173 440 143.5 410.5 Q114 381 114 333 Q114 287 143 257 Q172 227 227 227 Q252 227 274 236 Q296 245 316 260 Q336 275 353.5 293.5 Q371 312 388 332 Q371 352 353 371.5 Q335 391 315.5 406 Q296 421 274 430.5 Q252 440 227 440 Z M619 440 Q594 440 572 430.5 Q550 421 530.5 406 Q511 391 493 371.5 Q475 352 459 332 Q475 312 493 293.5 Q511 275 530.5 260 Q550 245 572 236 Q594 227 619 227 Q673 227 701 257 Q729 287 729 333 Q729 381 699.5 410.5 Q670 440 619 440 Z " />
<glyph glyph-name="integral" unicode="&#x222b;" horiz-adv-x="559" d="M93 -135 Q68 -135 42.5 -131.5 Q17 -128 -5 -123 L7 -80 Q27 -84 49 -87 Q71 -90 87 -90 Q111 -90 130.5 -84.5 Q150 -79 164 -64.5 Q178 -50 187.5 -25.5 Q197 -1 201 38 L269 643 Q280 740 327.5 780 Q375 820 467 820 Q493 820 518.5 816.5 Q544 813 564 808 L552 765 Q533 769 511 772 Q489 775 472 775 Q449 775 430 769.5 Q411 764 397 749.5 Q383 735 373.5 710 Q364 685 360 647 L291 43 Q285 -6 271 -40 Q257 -74 233 -95 Q209 -116 174.5 -125.5 Q140 -135 93 -135 Z " />
<glyph glyph-name="approxequal" unicode="&#x2248;" horiz-adv-x="558" d="M65 216 Q90 261 120.5 288 Q151 315 189 315 Q219 315 244.5 303.5 Q270 292 292.5 278 Q315 264 336 252.5 Q357 241 378 241 Q384 241 391.5 244 Q399 247 405 253 L464 309 L497 281 Q471 236 440.5 210 Q410 184 372 184 Q343 184 317 195.5 Q291 207 267.5 220.5 Q244 234 222.5 245.5 Q201 257 180 257 Q167 257 154 246 L97 189 L65 216 Z M65 378 Q90 423 120.5 449.5 Q151 476 189 476 Q219 476 244.5 464.5 Q270 453 292.5 439.5 Q315 426 336 414.5 Q357 403 378 403 Q391 403 411 420 L464 470 L497 443 Q471 398 440.5 371.5 Q410 345 372 345 Q343 345 317 356.5 Q291 368 268 382 Q245 396 223.5 407.5 Q202 419 182 419 Q166 419 147 401 L97 351 L65 378 Z " />
<glyph glyph-name="notequal" unicode="&#x2260;" horiz-adv-x="526" d="M60 433 L294 433 L339 522 L378 522 L334 433 L463 433 L463 374 L305 374 L256 275 L463 275 L463 216 L226 216 L183 129 L144 129 L187 216 L60 216 L60 275 L216 275 L266 374 L60 374 L60 433 Z " />
<glyph glyph-name="lessequal" unicode="&#x2264;" horiz-adv-x="550" d="M67 143 L481 143 L481 84 L67 84 L67 143 Z M67 359 L67 404 L481 556 L481 495 L159 383 L481 267 L481 206 L67 359 Z " />
<glyph glyph-name="greaterequal" unicode="&#x2265;" horiz-adv-x="550" d="M69 84 L69 143 L483 143 L483 84 L69 84 Z M69 267 L391 383 L69 495 L69 556 L483 404 L483 359 L69 206 L69 267 Z " />
<glyph glyph-name="lozenge" unicode="&#x25ca;" horiz-adv-x="536" d="M226 -80 L28 345 L225 782 L311 782 L508 358 L311 -80 L226 -80 Z M102 354 L268 -10 L434 350 L267 711 L102 354 Z " />
<glyph glyph-name="f_f" unicode="&#xfb00;" horiz-adv-x="712" d="M202 474 L202 64 L216 49 L296 49 L296 0 L31 0 L31 49 L97 49 L111 64 L111 474 L31 474 L31 524 L97 524 L111 538 L111 562 Q111 646 148.5 693 Q186 740 277 740 Q315 740 340.5 736 Q366 732 374 730 L374 627 L317 627 L317 678 L304 691 Q290 694 278 694 Q236 694 219 662.5 Q202 631 202 567 L202 524 L334 524 L334 474 L202 474 Z M558 474 L558 64 L572 49 L652 49 L652 0 L387 0 L387 49 L453 49 L467 64 L467 474 L387 474 L387 524 L453 524 L467 538 L467 562 Q467 646 504.5 693 Q542 740 633 740 Q671 740 696.5 736 Q722 732 730 730 L730 627 L673 627 L673 678 L660 691 Q646 694 634 694 Q592 694 575 662.5 Q558 631 558 567 L558 524 L690 524 L690 474 L558 474 Z " />
<glyph glyph-name="fi" unicode="&#xfb01;" horiz-adv-x="668" d="M526 526 Q550 526 558.5 514.5 Q567 503 567 486 L567 64 L581 49 L648 49 L648 0 L395 0 L395 49 L462 49 L476 64 L476 459 L462 474 L395 474 L395 526 L526 526 Z M456 677 Q456 701 470 715.5 Q484 730 512 730 Q539 730 553.5 715.5 Q568 701 568 677 Q568 653 553.5 638 Q539 623 512 623 Q484 623 470 638 Q456 653 456 677 Z M202 474 L202 64 L216 49 L296 49 L296 0 L31 0 L31 49 L97 49 L111 64 L111 474 L31 474 L31 524 L97 524 L111 538 L111 562 Q111 646 148.5 693 Q186 740 277 740 Q315 740 340.5 736 Q366 732 374 730 L374 627 L317 627 L317 678 L304 691 Q290 694 278 694 Q236 694 219 662.5 Q202 631 202 567 L202 524 L334 524 L334 474 L202 474 Z " />
<glyph glyph-name="fl" unicode="&#xfb02;" horiz-adv-x="671" d="M527 730 Q552 730 560.5 719 Q569 708 569 691 L569 64 L583 49 L650 49 L650 0 L398 0 L398 49 L464 49 L479 64 L479 664 L464 678 L398 678 L398 730 L527 730 Z M202 474 L202 64 L216 49 L296 49 L296 0 L31 0 L31 49 L97 49 L111 64 L111 474 L31 474 L31 524 L97 524 L111 538 L111 562 Q111 646 148.5 693 Q186 740 277 740 Q315 740 340.5 736 Q366 732 374 730 L374 627 L317 627 L317 678 L304 691 Q290 694 278 694 Q236 694 219 662.5 Q202 631 202 567 L202 524 L334 524 L334 474 L202 474 Z " />
</font>
</svg>
