<?xml version="1.0" standalone="no"?>
<!DOCTYPE svg PUBLIC "-//W3C//DTD SVG 1.1//EN" "http://www.w3.org/Graphics/SVG/1.1/DTD/svg11.dtd" >
<svg xmlns="http://www.w3.org/2000/svg">
<metadata>Generated by IcoMoon</metadata>
<defs>
<font id="gco" horiz-adv-x="1024">
<font-face units-per-em="1024" ascent="960" descent="-64" />
<missing-glyph horiz-adv-x="1024" />
<glyph unicode="&#x20;" horiz-adv-x="512" d="" />
<glyph unicode="&#xe900;" glyph-name="estrella" d="M1017.872 603.803c-6.131 13.785-19.803 22.672-34.893 22.672h-329.751c-21.089 0-38.183-17.097-38.183-38.183s17.094-38.183 38.183-38.183h243.851l-184.91-204.862c-8.477-9.396-11.751-22.379-8.74-34.672l62.838-256.551-235.504 132.865c-11.646 6.575-25.878 6.575-37.525 0l-235.503-132.862 62.803 256.407c0.004 0.021 0.009 0.044 0.009 0.044l0.025 0.1c0.563 2.297 0.874 4.592 1.008 6.871 0.007 0.128 0.028 0.251 0.035 0.382 0.114 2.321-0.004 4.615-0.306 6.868-0.021 0.168-0.031 0.335-0.056 0.503-0.327 2.232-0.867 4.409-1.575 6.522-0.080 0.242-0.144 0.484-0.229 0.723-0.761 2.132-1.72 4.18-2.838 6.138-0.117 0.202-0.214 0.414-0.335 0.616-1.269 2.128-2.74 4.139-4.401 5.987-0.017 0.019-0.028 0.044-0.045 0.063l-0.061 0.068c-0.011 0.012-0.021 0.025-0.033 0.037l-184.816 204.757h243.851c15.325 0 29.166 9.161 35.151 23.268l106.080 250.003 43.168-101.741c8.235-19.415 30.651-28.47 50.066-20.235 19.412 8.235 28.473 30.651 20.235 50.066l-78.318 184.578c-5.985 14.107-19.826 23.268-35.151 23.268s-29.166-9.161-35.151-23.268l-131.355-309.575h-304.475c-15.090 0-28.762-8.887-34.893-22.672-6.127-13.79-3.562-29.893 6.547-41.098l228.91-253.614-79.011-322.591c-3.623-14.792 1.886-30.315 14.020-39.513s28.573-10.31 41.828-2.827l293.578 165.634 293.578-165.635c5.848-3.3 12.314-4.929 18.759-4.929 8.163 0 16.289 2.616 23.069 7.756 12.134 9.198 17.643 24.722 14.020 39.513l-79.011 322.595 228.91 253.611c10.11 11.206 12.674 27.308 6.546 41.1z" />
<glyph unicode="&#xe901;" glyph-name="candado" d="M803.249-64.001h-582.497c-21.276 0.001-38.523 17.249-38.524 38.524v461.364c0.001 21.276 17.249 38.523 38.524 38.524h582.497c21.276-0.001 38.523-17.249 38.524-38.524v-461.364c-0.001-21.276-17.249-38.523-38.524-38.524zM259.275 13.049h505.45v384.314h-505.45zM220.75 397.363c-21.276 0.001-38.523 17.249-38.524 38.524v194.34c0 21.276 17.249 38.524 38.524 38.524s38.524-17.249 38.524-38.524v-194.34c-0.001-21.276-17.249-38.523-38.524-38.524zM803.249 591.702c-21.276 0.001-38.523 17.249-38.524 38.524 0 139.576-113.149 252.725-252.725 252.725s-252.725-113.149-252.725-252.725c0-21.276-17.249-38.524-38.524-38.524s-38.524 17.249-38.524 38.524c0 182.129 147.645 329.774 329.774 329.774s329.774-147.645 329.774-329.774c-0.001-21.276-17.249-38.523-38.524-38.524z" />
<glyph unicode="&#xe902;" glyph-name="pro-redonda-2" d="M512 763.723c-174.111 0-315.744-141.633-315.744-315.702 0-174.111 141.633-315.744 315.744-315.744s315.744 141.633 315.744 315.744c0 174.068-141.634 315.702-315.744 315.702z" />
<glyph unicode="&#xe903;" glyph-name="pro-autos-cruz" horiz-adv-x="1360" d="M1040.958 745.593c0.042 0 0.078 0 0.119 0 16.399 0 29.725 13.261 29.788 29.674l0.599 154.825c0.031 7.922-3.093 15.53-8.684 21.141s-13.186 8.767-21.106 8.767h-154.825c-16.452 0-29.79-13.339-29.79-29.79l-0.002-62.519c0-16.452 13.337-29.79 29.79-29.79s29.79 13.339 29.79 29.79l0.002 32.729h95.128l-0.482-124.918c-0.062-16.452 13.225-29.843 29.674-29.907zM1196.5 805.174h-57.554c-16.452 0-29.79-13.339-29.79-29.79s13.339-29.79 29.79-29.79h27.764v-95.244h-125.036c-16.452 0-29.79-13.339-29.79-29.79s13.339-29.79 29.79-29.79h154.828c16.452 0 29.79 13.339 29.79 29.79v154.825c0 16.452-13.337 29.79-29.79 29.79zM1041.083 558.040c-0.094 0-0.194 0-0.291 0-16.452-0.16-29.66-13.625-29.502-30.077l0.31-32.438h-94.96v125.034c0 16.452-13.339 29.79-29.79 29.79s-29.79-13.339-29.79-29.79v-154.825c0-16.452 13.339-29.79 29.79-29.79h154.828c7.949 0 15.572 3.176 21.165 8.825 5.596 5.649 8.702 13.3 8.624 21.252l-0.599 62.515c-0.157 16.355-13.463 29.505-29.783 29.505zM886.846 745.593c16.452 0 29.79 13.339 29.79 29.79s-13.339 29.79-29.79 29.79h-154.823c-16.452 0-29.79-13.339-29.79-29.79v-154.825c0-16.452 13.339-29.79 29.79-29.79h62.519c16.452 0 29.79 13.339 29.79 29.79s-13.339 29.79-29.79 29.79h-32.729v95.244h125.032zM163.502 86.746c16.452 0 29.79 13.339 29.79 29.79v157.516c0 28.365 23.075 51.44 51.438 51.44 16.452 0 29.79 13.339 29.79 29.79h0.002v69.162c0 35.022 28.491 63.518 63.513 63.518h299.796c35.022 0 63.516-28.496 63.516-63.518v-69.162c0-16.452 13.339-29.79 29.79-29.79 28.365 0 51.44-23.080 51.44-51.445v-157.511c0-16.452 13.339-29.79 29.79-29.79s29.79 13.339 29.79 29.79v157.516c0 50.896-34.44 93.873-81.231 106.929v43.464c0 67.878-55.223 123.1-123.097 123.1h-299.795c-67.875 0-123.095-55.223-123.095-123.1l-0.001-43.464c-46.79-13.055-81.23-56.034-81.23-106.934v-157.511c0-16.45 13.339-29.79 29.79-29.79zM255.557 86.746v-120.956c0-16.452 13.339-29.79 29.79-29.79s29.79 13.339 29.79 29.79v120.956c0 16.452-13.339 29.79-29.79 29.79s-29.79-13.337-29.79-29.79zM661.704 86.746v-120.956c0-16.452 13.339-29.79 29.79-29.79s29.79 13.339 29.79 29.79v120.956c0 16.452-13.339 29.79-29.79 29.79s-29.79-13.337-29.79-29.79zM427.667 48.823h121.514c16.452 0 29.79 13.339 29.79 29.79s-13.339 29.79-29.79 29.79h-121.514c-16.452 0-29.79-13.339-29.79-29.79s13.34-29.79 29.79-29.79zM620.545 267.218c22.661-2.938 38.649-23.689 35.711-46.349s-23.689-38.649-46.349-35.711c-22.661 2.938-38.649 23.689-35.711 46.349s23.689 38.649 46.349 35.711zM366.932 267.224c22.66-2.939 38.648-23.69 35.709-46.35s-23.689-38.649-46.349-35.71c-22.66 2.939-38.648 23.69-35.709 46.35s23.689 38.649 46.349 35.71z" />
<glyph unicode="&#xe904;" glyph-name="pro-accidente" d="M194.579 585.395c7.883 0 15.763 3.043 21.723 9.107 11.789 11.998 11.621 31.279-0.374 43.066-8.332 8.189-12.922 19.133-12.922 30.819 0 23.829 19.386 43.215 43.215 43.215 23.827 0 43.21-19.386 43.21-43.215 0-11.542-4.495-22.394-12.66-30.561-11.889-11.894-11.887-31.178 0.010-43.069 11.894-11.889 31.175-11.889 43.069 0.010 19.661 19.668 30.489 45.815 30.489 73.619 0 57.413-46.707 104.123-104.119 104.123s-104.123-46.71-104.123-104.123c0-28.154 11.058-54.529 31.138-74.259 5.931-5.829 13.639-8.733 21.344-8.733zM853.585 187.638h-679.764l-68.987 416.532c-2.746 16.595-18.42 27.805-35.021 25.068-16.593-2.748-27.817-18.429-25.068-35.021l73.208-442.010c2.433-14.699 15.145-25.478 30.045-25.478h705.589c16.818 0 30.454 13.636 30.454 30.454s-13.634 30.454-30.455 30.454zM215.335 536.113c-16.501-3.254-27.24-19.269-23.985-35.772l43.585-221c2.863-14.511 15.594-24.566 29.847-24.566 1.953 0 3.935 0.189 5.925 0.58 16.501 3.254 27.24 19.269 23.985 35.772l-43.585 221c-3.254 16.501-19.251 27.242-35.772 23.985zM329.582 530.923l30.85-146.272c3.023-14.34 15.673-24.174 29.767-24.174 2.082 0 4.196 0.213 6.315 0.662 16.456 3.47 26.984 19.626 23.512 36.082l-30.85 146.272c-3.47 16.456-19.609 26.987-36.082 23.512-16.456-3.47-26.984-19.626-23.512-36.082zM708.644 335.894l-53.841-42.649-106.414 89.012c-0.029 0.023-0.059 0.042-0.087 0.066-0.631 0.524-1.289 1.008-1.956 1.475-0.174 0.122-0.34 0.261-0.516 0.379-0.57 0.382-1.162 0.721-1.752 1.063-0.293 0.17-0.577 0.36-0.874 0.519-0.347 0.186-0.71 0.335-1.063 0.507-2.728 1.327-5.593 2.217-8.513 2.677-4.308 0.688-8.78 0.482-13.122-0.762-0.034-0.010-0.069-0.015-0.103-0.024-0.501-0.145-0.994-0.335-1.491-0.507-0.473-0.163-0.95-0.311-1.417-0.497-0.301-0.122-0.595-0.274-0.894-0.405-0.644-0.283-1.287-0.569-1.914-0.897-0.046-0.023-0.092-0.040-0.137-0.065l-159.387-84.765c-14.85-7.896-20.486-26.337-12.588-41.187 5.474-10.296 16.015-16.159 26.915-16.159 4.823 0 9.717 1.148 14.273 3.571l141.281 75.135 109.7-91.76c0.065-0.054 0.139-0.088 0.204-0.141 1.268-1.045 2.603-1.967 3.996-2.779 0.264-0.155 0.534-0.29 0.802-0.436 1.267-0.688 2.566-1.293 3.904-1.791 0.189-0.071 0.371-0.161 0.561-0.228 1.427-0.499 2.888-0.861 4.367-1.142 0.387-0.073 0.772-0.135 1.162-0.193 1.482-0.224 2.971-0.376 4.472-0.38 0.020 0 0.039-0.005 0.059-0.005 0.005 0 0.011 0.001 0.016 0.001s0.011-0.001 0.016-0.001c0.020 0 0.040 0.005 0.060 0.005 1.439 0.004 2.871 0.144 4.296 0.351 0.381 0.055 0.756 0.113 1.135 0.182 1.429 0.262 2.845 0.597 4.228 1.063 0.153 0.051 0.299 0.123 0.451 0.177 1.313 0.466 2.59 1.038 3.839 1.687 0.272 0.142 0.544 0.276 0.813 0.426 1.356 0.756 2.666 1.611 3.91 2.586 0.051 0.039 0.107 0.065 0.158 0.104l73.275 58.042c13.185 10.444 15.405 29.597 4.962 42.782s-29.595 15.398-42.782 4.962zM264.812 89.647c-16.82 0-30.454-13.636-30.454-30.454l0.002-92.74c0-16.82 13.636-30.454 30.454-30.454 16.82 0 30.454 13.636 30.454 30.454l-0.002 92.74c0 16.821-13.636 30.454-30.454 30.454zM706.816 89.647c-16.818 0-30.454-13.636-30.454-30.454v-92.74c0-16.818 13.636-30.454 30.454-30.454s30.454 13.636 30.454 30.454v92.74c0 16.821-13.634 30.454-30.454 30.454zM656.876 849.75c0.002 0 0.002 0 0.002 0 16.818 0 30.454 13.634 30.454 30.452v18.89h86.311l-0.454-116.761c-0.065-16.82 13.517-30.509 30.335-30.573 0.042 0 0.082 0 0.122 0 16.764 0 30.387 13.556 30.452 30.335l0.573 147.333c0.032 8.097-3.162 15.874-8.877 21.611s-13.48 8.962-21.576 8.962h-147.335c-16.818 0-30.454-13.634-30.454-30.452l-0.002-49.341c-0.003-16.82 13.63-30.456 30.452-30.456zM951.55 812.665h-44.618c-16.818 0-30.454-13.636-30.454-30.454s13.636-30.454 30.454-30.454h14.164v-86.428h-116.881c-16.818 0-30.454-13.636-30.454-30.454s13.636-30.454 30.454-30.454h147.335c16.818 0 30.454 13.636 30.454 30.454v147.335c0 16.818-13.634 30.454-30.454 30.454zM825.871 466.13c5.723 5.787 8.888 13.623 8.794 21.762l-0.573 49.339c-0.196 16.816-13.888 30.498-30.806 30.097-16.818-0.196-30.293-13.988-30.097-30.806l0.215-18.531h-86.076v116.884c0 16.818-13.636 30.454-30.454 30.454s-30.454-13.636-30.454-30.454v-147.335c0-16.818 13.636-30.454 30.454-30.454h147.338c8.142 0 15.939 3.259 21.658 9.044zM509.544 604.421h49.341c16.818 0 30.454 13.636 30.454 30.454s-13.636 30.454-30.454 30.454h-18.887v86.428h116.877c16.818 0 30.454 13.636 30.454 30.454s-13.636 30.454-30.454 30.454h-147.331c-16.818 0-30.454-13.636-30.454-30.454v-147.335c0-16.818 13.638-30.454 30.454-30.454z" />
<glyph unicode="&#xe905;" glyph-name="pro-maletin" d="M115.645 667.629h42.901c17.216 0 31.175 13.959 31.175 31.175s-13.959 31.175-31.175 31.175h-42.901c-63.766 0-115.645-51.878-115.645-115.64v-506.804c0-63.766 51.878-115.645 115.645-115.645h42.901c17.216 0 31.175 13.959 31.175 31.175s-13.959 31.175-31.175 31.175h-42.901c-29.385 0-53.293 23.91-53.293 53.293v506.805c0 29.385 23.909 53.288 53.293 53.288zM908.355 729.979h-32.51c-17.216 0-31.175-13.959-31.175-31.175s13.959-31.175 31.175-31.175h32.51c29.385 0 53.293-23.904 53.293-53.289v-506.804c0-29.385-23.91-53.293-53.293-53.293h-32.51c-17.216 0-31.175-13.959-31.175-31.175s13.959-31.175 31.175-31.175h32.51c63.766 0 115.645 51.878 115.645 115.645v506.805c0.001 63.762-51.875 115.639-115.645 115.639zM738.096 54.244h-436.6c-17.216 0-31.175-13.959-31.175-31.175s13.959-31.175 31.175-31.175h436.599c17.216 0 31.175 13.959 31.175 31.175s-13.96 31.175-31.173 31.175zM738.096 729.979h-436.6c-17.216 0-31.175-13.959-31.175-31.175s13.959-31.175 31.175-31.175h436.599c17.216 0 31.175 13.959 31.175 31.175s-13.96 31.175-31.173 31.175zM232.619 678.021c-17.216 0-31.175-13.959-31.175-31.175v-571.82c0-17.216 13.959-31.175 31.175-31.175s31.175 13.959 31.175 31.175v571.82c0 17.216-13.96 31.175-31.175 31.175zM806.973 678.021c-17.216 0-31.175-13.959-31.175-31.175v-571.82c0-17.216 13.959-31.175 31.175-31.175s31.175 13.959 31.175 31.175v571.82c0 17.216-13.961 31.175-31.175 31.175zM369.043 757.289c17.216 0 31.175 13.959 31.175 31.175 0 29.385 23.91 53.293 53.293 53.293h168.933c29.385 0 53.293-23.91 53.293-53.293 0-17.216 13.959-31.175 31.175-31.175s31.175 13.959 31.175 31.175c0 63.766-51.878 115.645-115.645 115.645h-168.933c-63.766 0-115.645-51.878-115.645-115.645 0-17.216 13.96-31.175 31.175-31.175z" />
<glyph unicode="&#xe906;" glyph-name="usuario" d="M393.872 889.344c-113.312-70.659-148.023-220.327-77.38-333.622 17.562-28.173 40.21-51.994 67.305-70.803 22.241-15.456 52.808-9.939 68.255 12.326 15.447 22.248 9.931 52.808-12.326 68.255-16.070 11.161-29.521 25.321-39.988 42.119-42.031 67.409-21.379 156.445 46.030 198.484s156.461 21.379 198.492-46.039c20.366-32.65 26.791-71.289 18.097-108.778-8.701-37.489-31.477-69.349-64.136-89.706-22.983-14.338-30.001-44.585-15.671-67.577 9.3-14.912 25.298-23.103 41.672-23.103 8.861 0 17.827 2.403 25.906 7.431 54.892 34.224 93.172 87.782 107.787 150.792s3.817 127.944-30.411 182.845c-70.645 113.303-220.308 148.031-333.635 77.373zM116.044 283.314v-298.266c0-27.087 21.961-49.048 49.048-49.048h517.116c27.087 0 49.048 21.961 49.048 49.048s-21.961 49.048-49.048 49.048h-468.066v249.216c0 27.764 22.591 50.358 50.365 50.358h77.293c27.087 0 49.048 21.961 49.048 49.048s-21.961 49.048-49.048 49.048h-77.293c-81.859-0.002-148.462-66.592-148.462-148.454zM858.908-63.998c27.087 0 49.048 21.961 49.048 49.048v298.266c0 81.859-66.603 148.454-148.462 148.454h-77.284c-27.087 0-49.048-21.961-49.048-49.048s21.961-49.048 49.048-49.048h77.284c27.773 0 50.365-22.591 50.365-50.358v-298.266c0-27.092 21.956-49.048 49.048-49.048z" />
<glyph unicode="&#xe907;" glyph-name="enlace-externo" d="M987.777 959.999h-692.736c-19.984 0-36.187-16.203-36.187-36.187 0-19.987 16.203-36.187 36.187-36.187h656.545v-656.599c0-19.984 16.203-36.187 36.187-36.187s36.187 16.203 36.187 36.187v692.787c0.003 19.984-16.203 36.187-36.185 36.187zM467.816 751.028l-244.071-244.071c-14.136-14.133-14.136-37.044 0-51.178 7.062-7.065 16.326-10.599 25.586-10.599s18.523 3.534 25.586 10.599l244.071 244.071c14.136 14.133 14.136 37.044 0 51.178-14.122 14.13-37.047 14.13-51.173 0zM815.029 454.984c-14.13 14.133-37.048 14.133-51.178 0l-242.829-242.82c-14.136-14.136-14.136-37.048-0.006-51.178 7.069-7.069 16.326-10.602 25.592-10.602 9.259 0 18.523 3.534 25.586 10.597l242.829 242.822c14.137 14.137 14.137 37.049 0.006 51.181zM197.382 380.052c0-27.247-22.088-49.335-49.335-49.335s-49.335 22.088-49.335 49.335c0 27.247 22.088 49.335 49.335 49.335s49.335-22.088 49.335-49.335zM98.707 281.381c0-27.247-22.088-49.335-49.335-49.335s-49.335 22.088-49.335 49.335c0 27.247 22.088 49.335 49.335 49.335s49.335-22.088 49.335-49.335zM493.401 84.014c0-27.248-22.089-49.336-49.336-49.336s-49.336 22.089-49.336 49.336c0 27.248 22.089 49.336 49.336 49.336s49.336-22.089 49.336-49.336zM394.725-14.664c0-27.248-22.089-49.337-49.337-49.337s-49.337 22.089-49.337 49.337c0 27.248 22.089 49.337 49.337 49.337s49.337-22.089 49.337-49.337z" />
<glyph unicode="&#xe908;" glyph-name="avion" horiz-adv-x="1296" d="M1220.125 957.226l-1158.801-269.554c-11.164-2.596-20.056-11.030-23.239-22.044-3.178-11.015-0.16-22.884 7.903-31.039l240.333-243.069c9.088-9.186 22.853-11.942 34.759-6.929l365.176 153.29c16.119 6.765 23.698 25.316 16.934 41.435-6.759 16.115-25.301 23.698-41.435 16.934l-345.455-145.011-185.493 187.605 1038.922 241.668-418.594-859.242-317.45 315.116c-9.479 9.417-23.837 11.869-35.907 6.115-12.060-5.744-19.216-18.443-17.882-31.735l31.508-314.445c1.077-10.741 7.552-20.195 17.181-25.073 9.633-4.884 21.091-4.518 30.385 0.964l157.931 93.112 121.025-120.133c5.976-5.935 14.012-9.19 22.296-9.19 1.756 0 3.529 0.144 5.291 0.443 10.067 1.71 18.69 8.166 23.162 17.346l467.071 958.746c5.347 10.973 3.905 24.048-3.704 33.594-7.603 9.537-20.004 13.87-31.917 11.099zM469.461 51.883l-17.784 177.451 118.778-117.908-100.994-59.543z" />
<glyph unicode="&#xe909;" glyph-name="exclamacion" d="M512 175.515c26.632 0 48.226 21.593 48.226 48.226v688.033c0 26.632-21.593 48.226-48.226 48.226s-48.226-21.593-48.226-48.226v-688.031c0-26.631 21.597-48.227 48.226-48.227zM570.808-5.597c0-32.255-26.328-58.403-58.808-58.403s-58.808 26.147-58.808 58.403c0 32.255 26.328 58.403 58.808 58.403s58.808-26.147 58.808-58.403z" />
<glyph unicode="&#xe90a;" glyph-name="pro-inspeccion" d="M748.186 408.725c-0.010 0-0.019 0-0.030 0-35.69 0-69.791 6.794-101.084 19.16-16.675 6.63-29.559 24.369-29.559 45.118 0 27.085 21.956 49.041 49.041 49.041 6.378 0 12.471-1.218 18.060-3.432 18.665-7.454 40.679-11.844 63.718-11.844 98.027 0 177.494 79.467 177.494 177.494s-79.467 177.494-177.494 177.494c-98.027 0-177.494-79.467-177.494-177.494 0-28.086 6.523-54.649 18.137-78.255 2.609-5.184 4.405-12.511 4.405-20.26 0-27.085-21.957-49.042-49.042-49.042-19.31 0-36.014 11.161-44.012 27.384-17.468 35.348-27.613 76.627-27.613 120.273 0 152.231 123.407 275.638 275.638 275.638s275.638-123.407 275.638-275.638c0-152.231-123.407-275.638-275.638-275.638-0.057 0-0.115 0-0.172 0zM460.048 346.928c-0.018 0-0.038 0-0.059 0-13.523 0-25.765 5.489-34.619 14.36l-64.077 64.073c-8.876 8.876-14.368 21.138-14.368 34.682 0 27.087 21.959 49.045 49.045 49.045 13.542 0 25.803-5.489 34.679-14.363l29.398-29.398 29.393 29.39c8.875 8.875 21.135 14.365 34.676 14.365 27.083 0 49.039-21.956 49.039-49.039 0-13.541-5.489-25.8-14.361-34.674l-64.068-64.073c-8.851-8.876-21.090-14.368-34.614-14.368-0.022 0-0.045 0-0.067 0zM139.669-64c-0.014 0-0.032 0-0.049 0-77.104 0-139.609 62.505-139.609 139.609 0 38.562 15.634 73.471 40.908 98.736l228.034 228.026c8.875 8.875 21.135 14.365 34.678 14.365 27.085 0 49.042-21.957 49.042-49.042 0-13.542-5.489-25.803-14.365-34.678l-228.039-228.026c-7.543-7.527-12.209-17.934-12.209-29.43 0-22.963 18.614-41.577 41.577-41.577 11.497 0 21.906 4.668 29.432 12.211l285.698 285.697-29.398 29.406c-8.873 8.875-14.361 21.134-14.361 34.674 0 27.083 21.956 49.039 49.039 49.039 13.542 0 25.803-5.49 34.678-14.365l64.077-64.081c8.873-8.873 14.361-21.13 14.361-34.67 0-13.544-5.492-25.805-14.369-34.678l-320.371-320.379c-25.2-25.23-60.030-40.837-98.504-40.837-0.088 0-0.176 0-0.263 0z" />
<glyph unicode="&#xe90b;" glyph-name="mensaje-leido" d="M1010.788 553.354l-482.509 319.381c-9.869 6.537-22.686 6.537-32.556 0l-482.507-319.381c-8.252-5.463-13.216-14.698-13.216-24.592v-482.543c0-16.287 13.205-29.493 29.493-29.493h643.345c16.287 0 29.493 13.205 29.493 29.493s-13.205 29.493-29.493 29.493h-613.852v437.205l453.013 299.859 453.017-299.859v-437.205h-129.546c-16.287 0-29.493-13.205-29.493-29.493s13.205-29.493 29.493-29.493h159.038c16.287 0 29.493 13.205 29.493 29.493v482.543c0 9.894-4.965 19.129-13.214 24.592zM197.115 174.268c5.77-5.833 13.369-8.755 20.973-8.755 7.493 0 14.991 2.837 20.737 8.52l143.78 142.175 115.863-59.84c4.244-2.194 8.886-3.288 13.532-3.288 4.594 0 9.188 1.070 13.392 3.216l115.559 58.909 154.851-141.94c5.664-5.189 12.803-7.753 19.922-7.753 7.978 0 15.937 3.22 21.75 9.562 11.007 12.011 10.196 30.664-1.81 41.671l-138.614 127.063 150.021 76.479c14.511 7.397 20.276 25.159 12.879 39.67-7.402 14.521-25.173 20.281-39.67 12.884l-308.193-157.113-308.226 159.187c-14.468 7.478-32.263 1.8-39.736-12.672s-1.8-32.263 12.672-39.736l150.699-77.831-130.144-128.691c-11.583-11.454-11.689-30.127-0.235-41.714z" />
<glyph unicode="&#xe90c;" glyph-name="pro-edificios" d="M810.726-63.832c-23.573 0.001-42.683 19.111-42.684 42.684v133.93h-171.188v-133.749c0-23.573-19.111-42.684-42.684-42.684s-42.684 19.111-42.684 42.684v176.433c0.001 23.573 19.111 42.683 42.684 42.684h256.556c23.573-0.001 42.683-19.111 42.684-42.684v-176.614c-0.001-23.573-19.111-42.683-42.684-42.684zM981.316-63.832c-23.573 0-42.684 19.111-42.684 42.684v895.612h-512.181v-895.43c0-23.573-19.111-42.684-42.684-42.684s-42.684 19.111-42.684 42.684v938.114c0.001 23.573 19.111 42.683 42.684 42.684h597.549c23.573-0.001 42.683-19.111 42.684-42.684v-938.296c0-23.573-19.111-42.684-42.684-42.684zM42.684-58.924c-23.573 0.001-42.683 19.111-42.684 42.684v423.772c0.001 23.573 19.111 42.683 42.684 42.684h341.403c23.573 0 42.684-19.111 42.684-42.684s-19.111-42.684-42.684-42.684h-298.719v-381.088c-0.001-23.573-19.111-42.683-42.684-42.684zM561.219 787.432c0-24.047-19.494-43.541-43.541-43.541s-43.541 19.494-43.541 43.541c0 24.047 19.494 43.541 43.541 43.541s43.541-19.494 43.541-43.541zM732.48 787.432c0-24.047-19.494-43.541-43.541-43.541s-43.541 19.494-43.541 43.541c0 24.047 19.494 43.541 43.541 43.541s43.541-19.494 43.541-43.541zM903.742 787.432c0-24.047-19.494-43.541-43.541-43.541s-43.541 19.494-43.541 43.541c0 24.047 19.494 43.541 43.541 43.541s43.541-19.494 43.541-43.541zM561.219 616.854c0-24.047-19.494-43.541-43.541-43.541s-43.541 19.494-43.541 43.541c0 24.047 19.494 43.541 43.541 43.541s43.541-19.494 43.541-43.541zM732.48 616.854c0-24.047-19.494-43.541-43.541-43.541s-43.541 19.494-43.541 43.541c0 24.047 19.494 43.541 43.541 43.541s43.541-19.494 43.541-43.541zM903.742 616.854c0-24.047-19.494-43.541-43.541-43.541s-43.541 19.494-43.541 43.541c0 24.047 19.494 43.541 43.541 43.541s43.541-19.494 43.541-43.541zM561.219 446.276c0-24.047-19.494-43.541-43.541-43.541s-43.541 19.494-43.541 43.541c0 24.047 19.494 43.541 43.541 43.541s43.541-19.494 43.541-43.541zM732.48 446.276c0-24.047-19.494-43.541-43.541-43.541s-43.541 19.494-43.541 43.541c0 24.047 19.494 43.541 43.541 43.541s43.541-19.494 43.541-43.541zM903.742 446.276c0-24.047-19.494-43.541-43.541-43.541s-43.541 19.494-43.541 43.541c0 24.047 19.494 43.541 43.541 43.541s43.541-19.494 43.541-43.541zM561.219 275.699c0-24.047-19.494-43.541-43.541-43.541s-43.541 19.494-43.541 43.541c0 24.047 19.494 43.541 43.541 43.541s43.541-19.494 43.541-43.541zM732.48 275.699c0-24.047-19.494-43.541-43.541-43.541s-43.541 19.494-43.541 43.541c0 24.047 19.494 43.541 43.541 43.541s43.541-19.494 43.541-43.541zM903.742 275.699c0-24.047-19.494-43.541-43.541-43.541s-43.541 19.494-43.541 43.541c0 24.047 19.494 43.541 43.541 43.541s43.541-19.494 43.541-43.541zM212.212 77.243c-23.573 0.001-42.683 19.111-42.684 42.684v170.608c0 23.573 19.111 42.684 42.684 42.684s42.684-19.111 42.684-42.684v-170.607c-0.001-23.573-19.111-42.683-42.684-42.684zM255.756-8.014c0-24.047-19.494-43.541-43.541-43.541s-43.541 19.494-43.541 43.541c0 24.047 19.494 43.541 43.541 43.541s43.541-19.494 43.541-43.541z" />
<glyph unicode="&#xe90d;" glyph-name="accion-insatis" d="M13.949-50.1c9.265-9.274 21.419-13.905 33.567-13.905s24.302 4.637 33.575 13.905l430.909 430.948 430.909-430.945c9.274-9.269 21.419-13.905 33.575-13.905 12.148 0 24.302 4.637 33.567 13.905 18.545 18.537 18.545 48.6 0.008 67.142l-430.919 430.95 430.915 430.952c18.537 18.542 18.537 48.605-0.008 67.142-18.531 18.545-48.597 18.537-67.142 0l-430.905-430.945-430.909 430.945c-18.537 18.531-48.605 18.545-67.142 0-18.545-18.537-18.545-48.6-0.008-67.142l430.915-430.952-430.915-430.952c-18.537-18.544-18.537-48.605 0.008-67.144z" />
<glyph unicode="&#xe90e;" glyph-name="accion-satis" d="M1004.279 952.57c-20.32 13.547-47.735 8.046-61.26-12.253l-593.811-890.794-273.745 273.765c-17.249 17.243-45.227 17.256-62.476 0-17.256-17.249-17.256-45.222-0.008-62.476l311.852-311.873c8.326-8.326 19.578-12.939 31.242-12.939 1.445 0 2.897 0.072 4.35 0.215 13.173 1.305 25.065 8.444 32.406 19.457l623.703 935.632c13.53 20.305 8.046 47.73-12.254 61.263z" />
<glyph unicode="&#xe90f;" glyph-name="ajustes" d="M511.675 225.998c-122.502 0.145-221.754 99.486-221.754 222.007 0 122.612 99.397 222.009 222.009 222.009 100.973 0 186.201-67.409 213.14-159.68l0.393-1.569c5.327-18.129 8.391-38.955 8.391-60.497 0-122.724-99.461-222.217-222.173-222.27zM512.222 592.968c-14.218-0.010-27.955-2.045-40.946-5.833-60.173-17.599-104.134-73.204-104.134-139.076 0-80.018 64.867-144.884 144.884-144.884s144.884 64.867 144.884 144.884c0 14.118-2.019 27.764-5.785 40.665l0.256-1.025c-17.874 61.149-73.362 105.089-139.14 105.268zM437.255 774.843c-17.509 0.025-32.28 11.728-36.936 27.738l-20.314 71.307-51.164-14.569 4.959-17.511c0.921-3.138 1.451-6.742 1.451-10.471 0-21.267-17.241-38.508-38.508-38.508-17.493 0-32.262 11.664-36.953 27.639l-15.595 54.822c-0.94 3.166-1.48 6.803-1.48 10.567 0 17.511 11.702 32.289 27.713 36.939l125.546 35.739c3.151 0.922 6.77 1.451 10.515 1.451 6.885 0 13.352-1.793 18.959-4.939 8.65-4.874 15.219-13.014 18.034-22.749l20.314-71.339 34.029 9.679c3.175 0.944 6.822 1.487 10.597 1.487 21.267 0 38.508-17.241 38.508-38.508 0-17.539-11.725-32.34-27.765-36.99l-71.342-20.279c-3.161-0.956-6.795-1.506-10.557-1.506-0.004 0-0.008 0-0.012 0zM782.063 684.727c-6.873 0.004-13.322 1.818-18.896 4.989l-64.38 35.845c-11.878 6.721-19.766 19.271-19.766 33.664 0 6.876 1.8 13.331 4.955 18.921l35.845 64.377-46.512 25.855-8.858-15.903c-6.773-11.646-19.193-19.35-33.414-19.35-21.275 0-38.523 17.248-38.523 38.523 0 6.709 1.715 13.018 4.731 18.511l27.496 49.356c6.683 11.903 19.225 19.813 33.613 19.813 6.899 0 13.372-1.818 18.967-5.001l113.628-63.24c11.883-6.714 19.775-19.263 19.775-33.654 0-6.88-1.803-13.338-4.963-18.929l-35.845-64.379 30.917-17.203c11.881-6.718 19.772-19.267 19.772-33.66 0-21.283-17.253-38.537-38.537-38.537-0.004 0-0.007 0-0.011 0zM897.557 413.145c-17.5 0.023-32.263 11.71-36.936 27.704l-20.315 71.336c-0.94 3.168-1.482 6.809-1.482 10.575 0 17.517 11.702 32.303 27.714 36.964l71.34 20.314-14.569 51.164-17.511-4.959c-3.175-0.944-6.822-1.487-10.597-1.487-21.267 0-38.508 17.241-38.508 38.508 0 17.539 11.725 32.34 27.765 36.99l54.822 15.594c3.182 0.952 6.84 1.499 10.624 1.499 17.502 0 32.269-11.717 36.882-27.735l35.738-125.546c0.937-3.161 1.476-6.795 1.476-10.554 0-17.513-11.699-32.293-27.709-36.951l-71.34-20.314 9.679-33.995c0.943-3.172 1.486-6.817 1.486-10.588 0-17.505-11.687-32.281-27.684-36.951-3.439-1.021-7.078-1.569-10.846-1.569-0.011 0-0.021 0-0.031 0zM787.193 139.403c-21.259 0.049-38.473 17.293-38.473 38.559 0 6.876 1.799 13.33 4.952 18.92l35.845 64.377c6.721 11.878 19.271 19.766 33.664 19.766 6.876 0 13.331-1.8 18.921-4.955l64.377-35.845 25.89 46.478-15.903 8.858c-11.646 6.773-19.35 19.193-19.35 33.414 0 21.275 17.248 38.523 38.523 38.523 6.709 0 13.018-1.715 18.511-4.731l49.356-27.496c11.878-6.721 19.766-19.271 19.766-33.664 0-6.876-1.8-13.331-4.955-18.921l-63.273-113.591c-6.718-11.881-19.267-19.77-33.66-19.77-6.878 0-13.335 1.802-18.925 4.959l-64.377 35.845-17.203-30.917c-6.711-11.902-19.271-19.807-33.678-19.807-0.003 0-0.005 0-0.008 0zM617.489-63.986c-17.5 0.023-32.263 11.71-36.936 27.704l-20.349 71.375-34.029-9.679c-3.138-0.921-6.742-1.451-10.471-1.451-21.267 0-38.508 17.241-38.508 38.508 0 17.493 11.664 32.262 27.639 36.953l71.34 20.281c3.174 0.945 6.821 1.49 10.595 1.49 17.497 0 32.262-11.692 36.91-27.689l20.348-71.34 51.164 14.569-4.959 17.511c-0.921 3.138-1.451 6.742-1.451 10.471 0 21.267 17.241 38.508 38.508 38.508 17.493 0 32.262-11.664 36.953-27.639l15.595-54.822c0.94-3.166 1.48-6.803 1.48-10.567 0-17.511-11.702-32.289-27.713-36.939l-125.546-35.739c-3.152-0.955-6.774-1.503-10.524-1.503-0.015 0-0.031 0-0.047 0zM365.572-63.267c-6.873 0.004-13.322 1.817-18.896 4.988l-113.595 63.24c-11.878 6.721-19.766 19.271-19.766 33.664 0 6.876 1.8 13.331 4.955 18.921l35.845 64.377-30.917 17.203c-11.646 6.773-19.35 19.193-19.35 33.414 0 21.275 17.248 38.523 38.523 38.523 6.709 0 13.018-1.715 18.511-4.731l64.37-35.843c11.878-6.721 19.766-19.271 19.766-33.664 0-6.876-1.8-13.331-4.955-18.921l-35.845-64.377 46.478-25.855 8.858 15.903c6.773 11.646 19.193 19.35 33.414 19.35 21.275 0 38.523-17.248 38.523-38.523 0-6.709-1.715-13.018-4.731-18.511l-27.496-49.356c-6.713-11.898-19.271-19.801-33.674-19.801-0.005 0-0.011 0-0.018 0zM74.151 178.699c-17.509 0.025-32.28 11.728-36.936 27.738l-35.739 125.548c-0.937 3.161-1.476 6.795-1.476 10.554 0 17.513 11.699 32.293 27.709 36.951l71.34 20.314-9.677 33.995c-0.938 3.166-1.477 6.804-1.477 10.568 0 21.273 17.245 38.518 38.518 38.518 17.509 0 32.289-11.681 36.97-27.676l20.314-71.339c0.94-3.168 1.482-6.809 1.482-10.575 0-17.517-11.702-32.303-27.714-36.964l-71.34-20.314 14.569-51.164 17.511 4.959c3.138 0.921 6.742 1.451 10.471 1.451 21.267 0 38.508-17.241 38.508-38.508 0-17.493-11.664-32.262-27.639-36.953l-54.822-15.595c-3.153-0.955-6.777-1.505-10.53-1.505-0.014 0-0.027 0-0.040 0zM88.755 528.294c-6.873 0.004-13.322 1.818-18.896 4.989l-49.367 27.466c-11.883 6.714-19.775 19.263-19.775 33.654 0 6.88 1.803 13.338 4.963 18.929l63.273 113.627c6.669 11.91 19.208 19.828 33.597 19.828 6.906 0 13.385-1.824 18.984-5.016l64.381-35.845 17.205 30.921c6.773 11.646 19.193 19.35 33.414 19.35 21.275 0 38.523-17.248 38.523-38.523 0-6.709-1.715-13.018-4.731-18.511l-35.843-64.37c-6.721-11.878-19.271-19.766-33.664-19.766-6.876 0-13.331 1.8-18.921 4.955l-64.381 35.845-25.89-46.478 15.903-8.858c11.883-6.717 19.773-19.267 19.773-33.66 0-21.283-17.253-38.537-38.537-38.537-0.004 0-0.008 0-0.011 0z" />
<glyph unicode="&#xe910;" glyph-name="pro-juicio" d="M605.984 75.939h-572.771c-18.343 0-33.213 14.87-33.213 33.213s14.87 33.213 33.213 33.213h572.771c18.343 0 33.213-14.87 33.213-33.213s-14.87-33.213-33.213-33.213zM534.364 160.241c-0.001 0-0.002 0-0.005 0-18.341 0-33.209 14.868-33.209 33.209 0 0.001 0 0.004 0 0.005v38.375h-363.165v-38.375c0-18.343-14.87-33.213-33.213-33.213s-33.213 14.87-33.213 33.213v71.59c0 0.001 0 0.002 0 0.005 0 18.341 14.868 33.209 33.209 33.209 0.001 0 0.004 0 0.005 0h429.591c0.001 0 0.002 0 0.005 0 18.341 0 33.209-14.868 33.209-33.209 0-0.001 0-0.004 0-0.005v-71.589c0-0.001 0-0.004 0-0.005 0-18.341-14.868-33.209-33.209-33.209-0.001 0-0.004 0-0.005 0zM445.048 420.845c-0.018 0-0.039 0-0.060 0-4.893 0-9.537 1.064-13.714 2.976l-130.523 58.32c-11.681 5.304-19.657 16.866-19.657 30.292 0 4.915 1.069 9.581 2.987 13.776l82.329 184.386c5.308 11.695 16.883 19.681 30.324 19.681 4.914 0 9.578-1.068 13.774-2.983l130.522-58.319c11.681-5.304 19.657-16.866 19.657-30.292 0-4.915-1.069-9.581-2.987-13.776l-82.329-184.386c-5.299-11.69-16.865-19.674-30.297-19.674-0.011 0-0.020 0-0.031 0zM358.21 529.245l70.025-31.293 55.335 123.916-70.024 31.294zM567.637 695.195c-4.917 0.006-9.582 1.081-13.775 3.005l-130.523 58.319c-11.68 5.32-19.652 16.89-19.652 30.323 0 18.347 14.873 33.22 33.22 33.22 4.914 0 9.579-1.067 13.776-2.983l130.522-58.319c11.671-5.328 19.635-16.898 19.635-30.327 0-18.345-14.862-33.219-33.202-33.238zM402.573 327.222c-4.917 0.006-9.582 1.081-13.775 3.005l-130.523 58.319c-11.68 5.32-19.652 16.89-19.652 30.323 0 18.347 14.873 33.22 33.22 33.22 4.914 0 9.579-1.067 13.776-2.983l130.522-58.319c11.671-5.328 19.635-16.898 19.635-30.327 0-18.345-14.862-33.219-33.202-33.238zM580.342 538.859c17.415-7.777 25.228-28.198 17.451-45.611s-28.198-25.228-45.611-17.451c-17.415 7.777-25.228 28.198-17.451 45.611s28.198 25.228 45.611 17.451zM990.798 284.599c-4.917 0.006-9.582 1.081-13.775 3.005l-326.677 145.864c-11.672 5.331-19.639 16.902-19.639 30.335 0 18.362 14.885 33.246 33.246 33.246 4.899 0 9.55-1.060 13.737-2.961l326.675-145.925c11.671-5.328 19.635-16.898 19.635-30.327 0-18.345-14.862-33.219-33.202-33.238z" />
<glyph unicode="&#xe911;" glyph-name="aviso-correcto" d="M448.742 265.802h-1.19c-11.444 0.394-21.455 6.197-27.603 14.916l-110.968 158.373c-3.991 5.635-6.381 12.651-6.381 20.225 0 19.466 15.781 35.247 35.247 35.247 11.892 0 22.409-5.89 28.792-14.911l84.105-119.989 208.012 257.479c6.516 7.856 16.279 12.823 27.202 12.823 19.476 0 35.266-15.789 35.266-35.266 0-8.303-2.869-15.936-7.671-21.961l-237.387-293.852c-6.492-8.007-16.329-13.083-27.352-13.083-0.026 0-0.053 0-0.079 0zM511.984-64c-282.762 0.009-511.984 229.235-511.984 512 0 282.77 229.23 512 512 512 282.752 0 511.972-229.203 512-511.95-0.307-282.663-229.357-511.724-511.984-512.049zM511.984 889.493c-243.824-0.009-441.478-197.669-441.478-441.494 0-243.83 197.663-441.494 441.494-441.494s441.494 197.663 441.494 441.494c0 0.016 0 0.033 0 0.050-0.299 243.702-197.798 441.179-441.484 441.441z" />
<glyph unicode="&#xe912;" glyph-name="aviso-info" d="M511.984-64c-282.762 0.009-511.984 229.235-511.984 512 0 282.77 229.23 512 512 512 282.752 0 511.972-229.203 512-511.95v-0.004c-0.307-282.661-229.357-511.722-511.984-512.046h-0.031zM511.984 889.493c-243.824-0.009-441.478-197.669-441.478-441.494 0-243.83 197.663-441.494 441.494-441.494s441.494 197.663 441.494 441.494c0 0.016 0 0.033 0 0.050v-0.003c-0.299 243.705-197.798 441.182-441.484 441.445h-0.025zM504.031 638.274c-0.001 0-0.004 0-0.006 0-19.467 0-35.249 15.782-35.249 35.249 0 0.001 0 0.003 0 0.004v0c0 0.040 0 0.089 0 0.137 0 19.628 15.692 35.59 35.214 36.026l0.040 0.001c0.222 0.005 0.482 0.008 0.743 0.008 19.015 0 34.438-15.379 34.51-34.378v-1.791c0-0.003 0-0.005 0-0.008 0-19.467-15.781-35.248-35.248-35.248-0.001 0-0.004 0-0.005 0v0zM582.114 229.107h-140.258c-19.42 0.065-35.139 15.823-35.139 35.253 0 19.407 15.682 35.152 35.065 35.253h0.010l34.752 0.064v184.53h-11.523c-19.47 0-35.253 15.783-35.253 35.253s15.783 35.253 35.253 35.253v0h46.775c0.001 0 0.003 0 0.005 0 19.467 0 35.248-15.781 35.248-35.248 0-0.001 0-0.004 0-0.005v0-219.846h35.065c19.47 0 35.253-15.783 35.253-35.253s-15.783-35.253-35.253-35.253v0z" />
<glyph unicode="&#xe913;" glyph-name="ayuda" d="M564.917 348.322l128.563 113.803c63.191 53.444 99.428 131.497 99.428 214.199 0 77.35-30.817 149.376-86.765 202.816-55.928 53.408-129.4 80.86-206.86 77.304-143.558-6.606-260.813-124.256-266.951-267.838-1.241-28.909 1.894-57.574 9.313-85.202 4.426-16.461 21.353-26.229 37.815-21.798 16.461 4.422 26.221 21.351 21.8 37.812-5.792 21.544-8.233 43.93-7.264 66.548 4.787 111.946 96.203 203.673 208.12 208.821 60.509 2.77 117.779-18.628 161.394-60.28 43.636-41.679 67.673-97.854 67.673-158.177 0-64.598-28.356-125.562-77.788-167.259-0.191-0.158-0.376-0.319-0.558-0.483l-128.83-114.047c-45.058-39.879-70.897-97.263-70.897-157.436v-108.52c0-17.043 13.819-30.862 30.862-30.862s30.862 13.819 30.862 30.862v108.52c-0.002 42.506 18.253 83.049 50.082 111.221zM494.302 13.313c20.612-2.672 35.155-21.548 32.483-42.16s-21.548-35.154-42.16-32.482c-20.612 2.672-35.155 21.548-32.483 42.16s21.548 35.154 42.16 32.482z" />
<glyph unicode="&#xe914;" glyph-name="bloc-notas" d="M921.733-63.999c-0.002 0-0.003 0-0.006 0-24.248 0-43.904 19.656-43.904 43.904 0 0.002 0 0.005 0 0.006v879.521h-41.804c-24.251 0-43.91 19.659-43.91 43.91s19.659 43.91 43.91 43.91h85.714c0.002 0 0.003 0 0.006 0 24.248 0 43.904-19.656 43.904-43.904 0-0.002 0-0.005 0-0.006v-923.43c0-0.002 0-0.003 0-0.006 0-24.248-19.656-43.904-43.904-43.904-0.002 0-0.005 0-0.006 0zM755.765-63.999h-653.499c-0.002 0-0.003 0-0.006 0-24.248 0-43.904 19.656-43.904 43.904 0 0.002 0 0.005 0 0.006v923.43c0 0.002 0 0.003 0 0.006 0 24.248 19.656 43.904 43.904 43.904 0.002 0 0.005 0 0.006 0h91.485c24.251 0 43.91-19.659 43.91-43.91s-19.659-43.91-43.91-43.91h-47.575v-835.612h609.59c24.251 0 43.91-19.659 43.91-43.91s-19.659-43.91-43.91-43.91zM334.059 744.081c-0.002 0-0.003 0-0.006 0-24.248 0-43.904 19.656-43.904 43.904 0 0.002 0 0.005 0 0.006v122.526c0 24.251 19.659 43.91 43.91 43.91s43.91-19.659 43.91-43.91v-122.526c0-0.002 0-0.003 0-0.006 0-24.248-19.656-43.904-43.904-43.904-0.002 0-0.005 0-0.006 0zM581.061 744.081c-0.002 0-0.003 0-0.006 0-24.248 0-43.904 19.656-43.904 43.904 0 0.002 0 0.005 0 0.006v122.526c0 24.251 19.659 43.91 43.91 43.91s43.91-19.659 43.91-43.91v-122.526c0-0.002 0-0.003 0-0.006 0-24.248-19.656-43.904-43.904-43.904-0.002 0-0.005 0-0.006 0zM463.535 956.694c25.514-3.308 43.515-26.673 40.208-52.188s-26.673-43.515-52.188-40.208c-25.514 3.308-43.515 26.673-40.208 52.188s26.673 43.515 52.188 40.208zM710.559 956.692c25.514-3.308 43.515-26.673 40.208-52.188s-26.673-43.515-52.188-40.208c-25.514 3.308-43.515 26.673-40.208 52.188s26.673 43.515 52.188 40.208z" />
<glyph unicode="&#xe915;" glyph-name="calendario" d="M986.067 14.967h-948.134c-0.001 0-0.003 0-0.005 0-20.948 0-37.928 16.98-37.928 37.928 0 0.001 0 0.004 0 0.005v474.134c0 20.95 16.983 37.933 37.933 37.933s37.933-16.983 37.933-37.933v-436.201h872.267v45.075c0 20.95 16.983 37.933 37.933 37.933s37.933-16.983 37.933-37.933v-83.009c0-0.001 0-0.003 0-0.005 0-20.948-16.98-37.928-37.928-37.928-0.001 0-0.004 0-0.005 0zM37.934 642.721c-0.001 0-0.003 0-0.005 0-20.948 0-37.928 16.98-37.928 37.928 0 0.001 0 0.004 0 0.005v83.009c0 0.001 0 0.003 0 0.005 0 20.948 16.98 37.928 37.928 37.928 0.001 0 0.004 0 0.005 0h156.72c20.95 0 37.933-16.983 37.933-37.933s-16.983-37.933-37.933-37.933h-118.787v-45.075c0-0.001 0-0.003 0-0.005 0-20.948-16.98-37.928-37.928-37.928-0.001 0-0.003 0-0.004 0zM590.899 725.73h-159.684c-20.95 0-37.933 16.983-37.933 37.933s16.983 37.933 37.933 37.933h159.684c20.95 0 37.933-16.983 37.933-37.933s-16.983-37.933-37.933-37.933zM986.067 251.63c-0.001 0-0.003 0-0.005 0-20.948 0-37.928 16.98-37.928 37.928 0 0.001 0 0.004 0 0.005v436.167h-120.336c-20.95 0-37.933 16.983-37.933 37.933s16.983 37.933 37.933 37.933h158.269c0.001 0 0.003 0 0.005 0 20.948 0 37.928-16.98 37.928-37.928 0-0.001 0-0.004 0-0.005v-474.1c0-0.001 0-0.004 0-0.005 0-20.948-16.98-37.928-37.928-37.928-0.001 0-0.004 0-0.005 0zM279.182 524.73c22.040-2.858 37.591-23.042 34.734-45.082s-23.042-37.591-45.082-34.734c-22.040 2.858-37.591 23.042-34.734 45.082s23.042 37.591 45.082 34.734zM516.222 524.733c22.040-2.858 37.591-23.042 34.733-45.083s-23.042-37.591-45.083-34.733c-22.040 2.858-37.591 23.042-34.733 45.083s23.042 37.591 45.083 34.733zM753.261 524.729c22.040-2.858 37.591-23.042 34.734-45.082s-23.042-37.591-45.082-34.734c-22.040 2.858-37.591 23.042-34.734 45.082s23.042 37.591 45.082 34.734zM285.139 288.43c22.042-2.858 37.592-23.043 34.736-45.085s-23.043-37.592-45.085-34.736c-22.042 2.858-37.592 23.043-34.736 45.085s23.043 37.592 45.085 34.736zM522.179 288.433c22.042-2.858 37.592-23.043 34.734-45.085s-23.043-37.592-45.085-34.734c-22.042 2.858-37.592 23.043-34.734 45.085s23.043 37.592 45.085 34.734zM759.217 288.43c22.042-2.858 37.592-23.043 34.736-45.085s-23.043-37.592-45.085-34.736c-22.042 2.858-37.592 23.043-34.736 45.085s23.043 37.592 45.085 34.736zM314.448 642.721c-0.001 0-0.003 0-0.005 0-20.948 0-37.928 16.98-37.928 37.928 0 0.001 0 0.004 0 0.005v162.447c0 20.95 16.983 37.933 37.933 37.933s37.933-16.983 37.933-37.933v-162.447c0-0.001 0-0.003 0-0.005 0-20.948-16.98-37.928-37.928-37.928-0.001 0-0.004 0-0.005 0zM709.483 642.721c-0.001 0-0.003 0-0.005 0-20.948 0-37.928 16.98-37.928 37.928 0 0.001 0 0.004 0 0.005v162.447c0 20.95 16.983 37.933 37.933 37.933s37.933-16.983 37.933-37.933v-162.447c0-0.001 0-0.003 0-0.005 0-20.948-16.98-37.928-37.928-37.928-0.001 0-0.004 0-0.005 0z" />
<glyph unicode="&#xe916;" glyph-name="camara" d="M178.694 854.214c0-19.322 15.666-34.988 34.988-34.988h117.527c19.322 0 34.988 15.666 34.988 34.988s-15.666 34.988-34.988 34.988h-117.527c-19.322 0-34.988-15.666-34.988-34.988zM131.451 6.801h94.344c19.322 0 34.988 15.666 34.988 34.988s-15.666 34.988-34.988 34.988h-94.344c-33.895 0-61.474 27.574-61.474 61.468v475.865c0 33.605 27.341 60.944 60.95 60.944h571.873c19.322 0 34.988 15.663 34.988 34.988 0 19.322-15.666 34.988-34.988 34.988h-571.873c-72.191 0-130.927-58.732-130.927-130.921v-475.869c0-72.475 58.969-131.442 131.451-131.442zM1023.999 138.223v476.425c0 71.895-58.496 130.386-130.391 130.386-19.322 0-34.988-15.666-34.988-34.988 0-19.324 15.666-34.988 34.988-34.988 33.313 0 60.415-27.098 60.415-60.409v-476.427c0-33.884-27.563-61.446-61.446-61.446h-475.981c-19.322 0-34.988-15.666-34.988-34.988s15.666-34.988 34.988-34.988h475.98c72.463 0.002 131.424 58.958 131.424 131.424zM706.533 376.125c0 124.5-101.292 225.786-225.794 225.786-44.055 0-86.758-12.705-123.501-36.739-16.167-10.578-20.7-32.263-10.125-48.433 10.576-16.167 32.254-20.706 48.439-10.125 25.319 16.565 54.778 25.321 85.187 25.321 85.916 0 155.818-69.897 155.818-155.81 0-85.916-69.903-155.818-155.818-155.818s-155.812 69.903-155.812 155.818c0 10.604 1.065 21.179 3.166 31.423 3.878 18.934-8.32 37.425-27.249 41.304-18.947 3.856-37.42-8.326-41.304-27.249-3.047-14.863-4.589-30.164-4.589-45.478 0-124.504 101.286-225.794 225.789-225.794s225.794 101.289 225.794 225.794zM807.712 615.112c26.613-3.45 45.392-27.821 41.942-54.435s-27.822-45.392-54.435-41.942c-26.613 3.45-45.392 27.821-41.942 54.435s27.822 45.392 54.435 41.942z" />
<glyph unicode="&#xe917;" glyph-name="cargando" d="M577.993 905.386c0-30.162-24.451-54.613-54.613-54.613s-54.613 24.451-54.613 54.613c0 30.162 24.451 54.613 54.613 54.613s54.613-24.451 54.613-54.613zM882.086 801.99c21.326-21.326 21.328-55.905 0-77.231s-55.905-21.328-77.231 0c-21.326 21.326-21.328 55.905 0 77.231s55.905 21.328 77.231 0zM1024 436.622c0-30.162-24.451-54.612-54.612-54.612s-54.612 24.451-54.612 54.612c0 30.162 24.451 54.612 54.612 54.612s54.612-24.451 54.612-54.612zM865.999 155.152c21.329-21.329 21.329-55.909 0-77.238s-55.909-21.329-77.238 0c-21.329 21.329-21.329 55.909 0 77.238s55.909 21.329 77.238 0zM555.236-9.388c0-30.162-24.451-54.612-54.612-54.612s-54.612 24.451-54.612 54.612c0 30.162 24.451 54.612 54.612 54.612s54.612-24.451 54.612-54.612zM219.154 171.239c21.326-21.326 21.326-55.905 0-77.231s-55.905-21.326-77.231 0c-21.326 21.326-21.326 55.905 0 77.231s55.905 21.326 77.231 0zM109.23 459.376c0-30.162-24.451-54.615-54.615-54.615s-54.615 24.451-54.615 54.615c0 30.162 24.451 54.615 54.615 54.615s54.615-24.451 54.615-54.615zM235.248 818.084c21.329-21.329 21.329-55.909 0-77.238s-55.909-21.329-77.238 0c-21.329 21.329-21.329 55.909 0 77.238s55.909 21.329 77.238 0z" />
<glyph unicode="&#xe918;" glyph-name="chat" d="M219.424 264.297c0 16.287-13.206 29.493-29.493 29.493h-131.341v503.989h694.267c16.287 0 29.493 13.206 29.493 29.493s-13.206 29.493-29.493 29.493h-723.76c-16.287 0-29.493-13.206-29.493-29.493v-562.974c0-16.287 13.206-29.493 29.493-29.493h160.834c16.287-0.001 29.494 13.202 29.494 29.492zM994.113 856.766h-80.42c-16.287 0-29.493-13.206-29.493-29.493s13.206-29.493 29.493-29.493h50.927v-503.988h-589.278c-16.287 0-29.493-13.206-29.493-29.493 0-95.642-77.808-173.45-173.445-173.45-16.287 0-29.493-13.206-29.493-29.493s13.206-29.493 29.493-29.493c118.167 0 215.949 88.661 230.494 202.943h591.213c16.287 0 29.493 13.206 29.493 29.493v562.974c0 16.287-13.208 29.493-29.493 29.493zM189.932 651.672h160.834c16.287 0 29.493 13.206 29.493 29.493s-13.206 29.493-29.493 29.493h-160.834c-16.287 0-29.493-13.206-29.493-29.493s13.206-29.493 29.493-29.493zM833.278 579.014h-643.347c-16.287 0-29.493-13.206-29.493-29.493s13.206-29.493 29.493-29.493h643.348c16.287 0 29.493 13.206 29.493 29.493s-13.204 29.493-29.494 29.493zM833.278 447.366h-643.347c-16.287 0-29.493-13.206-29.493-29.493s13.206-29.493 29.493-29.493h643.348c16.287 0 29.493 13.206 29.493 29.493s-13.204 29.493-29.494 29.493z" />
<glyph unicode="&#xe919;" glyph-name="comunicaciones" horiz-adv-x="1344" d="M775.377 120.682h-707.411v488.114h152.758c18.77 0 33.988 15.218 33.988 33.988s-15.218 33.988-33.988 33.988h-186.747c-18.77 0-33.988-15.218-33.988-33.988v-556.092c0-18.77 15.218-33.988 33.988-33.988h741.396c18.77 0 33.988 15.218 33.988 33.988s-15.213 33.99-33.986 33.99zM1146.076 676.772h-744.081c-18.772 0-33.988-15.218-33.988-33.988s15.216-33.988 33.988-33.988h710.093v-488.116h-149.287c-18.772 0-33.988-15.218-33.988-33.988s15.216-33.988 33.988-33.988h183.275c18.77 0 33.988 15.218 33.988 33.988v556.092c0 18.77-15.216 33.988-33.988 33.988zM965.111 189.877c12.685 13.841 11.75 35.337-2.088 48.022l-159.741 146.418 172.884 88.138c16.723 8.525 23.37 28.993 14.842 45.721-8.522 16.717-28.985 23.356-45.716 14.842l-355.162-181.060-355.203 183.452c-16.679 8.614-37.183 2.080-45.797-14.604-8.614-16.679-2.074-37.181 14.601-45.793l173.668-89.694-149.978-148.306c-13.349-13.2-13.467-34.718-0.269-48.067 6.646-6.722 15.404-10.090 24.167-10.090 8.635 0 17.273 3.27 23.898 9.819l165.692 163.845 133.522-68.961c4.893-2.529 10.245-3.789 15.597-3.789 5.294 0 10.588 1.234 15.437 3.707l133.168 67.888 178.456-163.574c6.525-5.98 14.751-8.934 22.958-8.934 9.195-0.001 18.36 3.715 25.061 11.021zM1310.024 843.295h-698.583c-18.77 0-33.988-15.218-33.988-33.988s15.218-33.988 33.988-33.988h664.594v-541.797c0-18.77 15.216-33.988 33.988-33.988s33.988 15.218 33.988 33.988v575.786c0 18.77-15.216 33.988-33.988 33.988z" />
<glyph unicode="&#xe91a;" glyph-name="contactos" d="M672.408 473.147c-30.528 0.008-55.272 24.758-55.272 55.288 0 15.259 6.181 29.074 16.176 39.076 29.538 29.519 47.809 70.31 47.809 115.368 0 90.078-73.022 163.101-163.101 163.101s-163.101-73.022-163.101-163.101c0-43.282 16.858-82.625 44.368-111.824 9.117-9.77 14.763-23.036 14.763-37.622 0-30.553-24.768-55.321-55.321-55.321-15.804 0-30.059 6.626-40.141 17.254-46.022 48.86-74.288 114.842-74.288 187.428 0 151.095 122.488 273.582 273.582 273.582s273.582-122.488 273.582-273.582c0-75.513-30.592-143.879-80.062-193.383-9.823-10.040-23.512-16.266-38.655-16.266-0.12 0-0.239 0-0.359 0.002zM55.266-60.375c-30.508 0.035-55.231 24.758-55.266 55.262 0.255 198.604 161.211 359.527 359.8 359.729 30.542 0 55.286-24.744 55.286-55.266s-24.744-55.266-55.266-55.266c-108.218-0.116-200.301-69.071-234.827-165.427l-9.952-28.494h793.915l-9.407 26.751c-35.028 98.092-127.081 167.051-235.26 167.169-30.538 0-55.28 24.744-55.28 55.266s24.744 55.266 55.266 55.266c198.573-0.243 359.482-161.152 359.725-359.702-0.035-30.532-24.758-55.255-55.262-55.29z" />
<glyph unicode="&#xe91b;" glyph-name="email" d="M814.034 852.333c-90.653 71.256-203.953 107.667-318.975 102.484-113.813-5.109-222.29-50.33-305.451-127.343-13.195-12.22-13.984-32.817-1.767-46.012 12.22-13.19 32.82-13.984 46.009-1.765 150.896 139.732 377.973 148.745 539.945 21.445 141.606-111.307 166.264-317.064 54.96-458.674-15.952-20.296-34.685-37.856-55.695-52.352-1.173-0.599-2.329-1.25-3.448-2.006-9.893-6.683-21.469-10.216-33.479-10.216-33.040 0-59.922 26.883-59.922 59.922 0 2.46-0.296 4.848-0.813 7.152v198.989c0 17.98-14.578 32.557-32.557 32.557s-32.557-14.578-32.557-32.557v-205.323c0-2.771 0.383-5.447 1.035-8.015 0.145-2.542 0.383-5.060 0.679-7.562-3.062-1.727-5.907-3.954-8.37-6.733-29.018-32.716-70.713-51.48-114.396-51.48-84.277 0-152.841 68.564-152.841 152.846 0 132.943 108.156 241.096 241.1 241.096 28.39 0 56.163-4.875 82.544-14.493 16.899-6.163 35.58 2.554 41.738 19.442 6.158 16.893-2.546 35.584-19.44 41.74-33.551 12.225-68.825 18.425-104.842 18.425-168.847 0-306.214-137.367-306.214-306.212 0-120.182 97.776-217.962 217.956-217.962 55.846 0 109.364 21.554 149.66 59.609 22.941-28.37 58-46.558 97.243-46.558 21.755 0 42.846 5.591 61.577 16.215 1.783 0.747 3.537 1.606 5.215 2.698 29.32 19.082 55.235 42.811 77.025 70.536 133.488 169.84 103.92 416.614-65.916 550.102zM139.019 654.879c8.539 15.823 2.631 35.572-13.192 44.109-15.828 8.542-35.575 2.629-44.113-13.195-46.658-86.475-71.156-184.317-70.846-282.94 0-0.009 0.001-0.017 0.001-0.026 0-0.044-0.007-0.087-0.007-0.133 0-257.339 209.36-466.694 466.699-466.694 57.249 0 113.168 10.254 166.206 30.469 16.8 6.407 25.229 25.218 18.824 42.016-6.404 16.804-25.218 25.239-42.019 18.828-45.604-17.386-93.719-26.199-143.011-26.199-221.435 0-401.585 180.147-401.585 401.579 0 0.041-0.006 0.079-0.006 0.12 0 0.081 0.011 0.159 0.011 0.239-0.279 87.797 21.519 174.876 63.035 251.824z" />
<glyph unicode="&#xe91c;" glyph-name="desconectar" d="M511.999-64c258.256 0 468.363 210.109 468.363 468.365 0 191.596-114.694 361.992-292.198 434.096-16.377 6.663-35.046-1.224-41.698-17.606-6.652-16.372 1.232-35.041 17.606-41.693 153.255-62.258 252.282-209.369 252.282-374.796 0-222.966-181.392-404.357-404.355-404.357s-404.355 181.392-404.355 404.357c0 165.817 99.345 313.065 253.094 375.124 16.393 6.616 24.315 25.264 17.701 41.656-6.616 16.388-25.269 24.331-41.656 17.695-178.079-71.878-293.146-242.421-293.146-434.476 0-258.259 210.107-468.365 468.363-468.365zM479.995 927.996v-261.819c0-17.674 14.33-32.004 32.004-32.004s32.004 14.33 32.004 32.004v261.819c0 17.674-14.33 32.004-32.004 32.004s-32.004-14.33-32.004-32.004z" />
<glyph unicode="&#xe91d;" glyph-name="pro-mostrador" d="M152.958 450.699c17.236 0 31.21 13.974 31.21 31.21v98.233c0 17.236-13.974 31.21-31.21 31.21s-31.21-13.974-31.21-31.21v-98.233c0-17.233 13.974-31.21 31.21-31.21zM315.322 580.143v-98.233c0-17.236 13.974-31.21 31.21-31.21s31.21 13.974 31.21 31.21v98.233c0 17.236-13.974 31.21-31.21 31.21s-31.21-13.974-31.21-31.21zM186.205 616.723c8.072 0 16.143 3.117 22.255 9.329 12.085 12.29 11.918 32.051-0.371 44.135-10.439 10.264-16.19 23.971-16.19 38.601 0 29.843 24.281 54.125 54.125 54.125s54.12-24.281 54.12-54.125c0-14.457-5.629-28.048-15.848-38.268-12.192-12.189-12.192-31.949 0-44.138 12.182-12.186 31.952-12.186 44.133 0 22.015 22.011 34.136 51.278 34.136 82.407 0 64.265-52.282 116.545-116.541 116.545-64.265 0-116.545-52.282-116.545-116.545 0-31.502 12.374-61.019 34.842-83.11 6.080-5.977 13.984-8.956 21.884-8.956zM598.163 652.969c-17.236 0-31.21-13.974-31.21-31.21v-561.456c0-17.236 13.974-31.21 31.21-31.21s31.21 13.974 31.21 31.21v561.456c0 17.236-13.972 31.21-31.21 31.21zM838.559 652.969c-17.236 0-31.21-13.974-31.21-31.21v-561.456c0-17.236 13.974-31.21 31.21-31.21s31.21 13.974 31.21 31.21v561.456c0 17.236-13.972 31.21-31.21 31.21zM715.758 866.95c-64.259 0-116.541-52.282-116.541-116.545 0-31.502 12.374-61.019 34.842-83.11 6.080-5.977 13.985-8.955 21.884-8.955 8.072 0 16.143 3.117 22.255 9.329 12.085 12.29 11.918 32.051-0.371 44.135-10.439 10.264-16.19 23.971-16.19 38.601 0 29.843 24.277 54.125 54.12 54.125s54.125-24.281 54.125-54.125c0-14.457-5.629-28.048-15.848-38.268-12.192-12.189-12.192-31.949 0-44.138 12.182-12.186 31.952-12.186 44.133 0 22.015 22.011 34.136 51.278 34.136 82.407-0.001 64.265-52.284 116.545-116.545 116.545zM751.868 91.517h-72.22c-17.236 0-31.21-13.974-31.21-31.21s13.974-31.21 31.21-31.21h72.22c17.236 0 31.21 13.974 31.21 31.21s-13.972 31.21-31.21 31.21zM992.79 432.853h-61.602c-17.236 0-31.21-13.974-31.21-31.21s13.974-31.21 31.21-31.21h30.392v-310.172c0-17.236 13.974-31.21 31.21-31.21s31.21 13.974 31.21 31.21v341.381c0 17.233-13.977 31.21-31.21 31.21zM507.049 432.853h-475.84c-17.236 0-31.21-13.974-31.21-31.21v-341.381c0-17.236 13.974-31.21 31.21-31.21s31.21 13.974 31.21 31.21v310.172h444.629c17.236 0 31.21 13.974 31.21 31.21s-13.977 31.21-31.209 31.21z" />
<glyph unicode="&#xe91e;" glyph-name="pro-construccion" d="M70.747 253.257c-16.894 0-30.592-13.698-30.592-30.592v-240.953c0-16.894 13.698-30.592 30.592-30.592s30.592 13.698 30.592 30.592v240.953c0 16.892-13.698 30.592-30.592 30.592zM437.937 515.613h-240.931c-16.894 0-30.592-13.695-30.592-30.592 0-16.894 13.698-30.592 30.592-30.592h210.338v-472.719c0-16.894 13.698-30.592 30.592-30.592s30.592 13.698 30.592 30.592v503.312c0 16.897-13.698 30.592-30.592 30.592zM682.638 71.086c0-16.894 13.698-30.592 30.592-30.592s30.592 13.698 30.592 30.592v674.205c0 16.894-13.698 30.592-30.592 30.592h-207.483c-16.894 0-30.592-13.698-30.592-30.592 0-16.896 13.698-30.592 30.592-30.592h176.891v-643.613zM30.592 714.699h392.987c16.894 0 30.592 13.698 30.592 30.592s-13.698 30.592-30.592 30.592h-392.987c-16.894 0-30.592-13.698-30.592-30.592s13.698-30.592 30.592-30.592zM61.185 488.156v174.444c0 16.894-13.698 30.592-30.592 30.592s-30.592-13.698-30.592-30.592v-174.444c0-16.894 13.698-30.592 30.592-30.592s30.592 13.698 30.592 30.592zM226.229 795.693c4.838 0 9.744 1.15 14.316 3.575l159.060 84.43h313.626c16.894 0 30.592 13.698 30.592 30.592s-13.698 30.592-30.592 30.592h-321.242c-5.002 0-9.926-1.225-14.342-3.57l-165.787-87.999c-14.925-7.922-20.601-26.442-12.68-41.364 5.497-10.355 16.090-16.255 27.049-16.255zM808.204 627.451c16.894 0 30.592 13.698 30.592 30.592v160.633c0 16.894-13.698 30.592-30.592 30.592s-30.592-13.698-30.592-30.592v-160.633c0-16.894 13.7-30.592 30.592-30.592zM993.408 849.268c-16.894 0-30.592-13.698-30.592-30.592v-160.633c0-16.894 13.698-30.592 30.592-30.592s30.592 13.698 30.592 30.592v160.633c0 16.894-13.695 30.592-30.592 30.592zM321.936 148.392h-130.282c-16.894 0-30.592-13.698-30.592-30.592v-136.091c0-16.894 13.698-30.592 30.592-30.592s30.592 13.698 30.592 30.592v105.499h69.099v-105.499c0-16.894 13.698-30.592 30.592-30.592s30.592 13.698 30.592 30.592v136.091c0 16.897-13.698 30.592-30.592 30.592zM873.854 12.303h-321.242c-16.894 0-30.592-13.698-30.592-30.592s13.698-30.592 30.592-30.592h321.242c16.894 0 30.592 13.698 30.592 30.592s-13.7 30.592-30.592 30.592zM330.846 401.699c15.581-7.39 22.222-26.010 14.833-41.591s-26.010-22.222-41.591-14.832c-15.581 7.39-22.222 26.010-14.833 41.591s26.010 22.222 41.591 14.832zM330.853 266.495c15.581-7.39 22.223-26.011 14.833-41.593s-26.011-22.223-41.593-14.833c-15.581 7.39-22.223 26.011-14.833 41.593s26.011 22.223 41.593 14.833zM914.185 844.422c15.581-7.39 22.223-26.011 14.833-41.593s-26.011-22.223-41.593-14.833c-15.581 7.39-22.223 26.011-14.833 41.593s26.011 22.223 41.593 14.833zM914.189 686.247c15.581-7.39 22.222-26.011 14.832-41.591s-26.011-22.222-41.591-14.832c-15.581 7.39-22.222 26.011-14.832 41.591s26.011 22.222 41.591 14.832zM204.592 266.491c15.581-7.39 22.223-26.011 14.833-41.593s-26.011-22.223-41.593-14.833c-15.581 7.39-22.223 26.011-14.833 41.593s26.011 22.223 41.593 14.833z" />
<glyph unicode="&#xe91f;" glyph-name="dev-encargo" d="M975.619-26.689c2.604 0 5.252 0.229 7.913 0.705 24.292 4.338 40.469 27.552 36.126 51.848-39.77 222.608-163.846 416.403-349.376 545.69-144.427 100.643-312.622 152.798-485.088 152.211l138.855 114.234c19.064 15.677 21.799 43.84 6.125 62.9-15.682 19.064-43.859 21.791-62.9 6.117l-250.901-206.415c-10.256-8.433-16.226-20.994-16.3-34.272s5.768-25.897 15.929-34.442l248.683-209.072c8.379-7.040 18.583-10.481 28.738-10.481 12.735 0 25.391 5.418 34.229 15.929 15.878 18.893 13.442 47.081-5.448 62.965l-169.266 142.301c165.494 7.622 328.050-39.003 466.244-135.302 165.949-115.64 276.926-288.973 312.499-488.081 3.862-21.643 22.705-36.836 43.938-36.836z" />
<glyph unicode="&#xe920;" glyph-name="editar" d="M642.422 439.555c-8.231 0.002-15.929 2.288-22.493 6.257l-143.71 85.195c-12.955 7.784-21.49 21.763-21.49 37.735 0 8.245 2.274 15.958 6.229 22.549l145.353 245.080c7.76 13.036 21.778 21.635 37.805 21.635 24.216 0 43.848-19.632 43.848-43.848 0-8.323-2.319-16.104-6.346-22.734l-123.017-207.381 68.49-40.588 123.087 207.571c7.76 13.036 21.778 21.635 37.805 21.635 24.216 0 43.848-19.632 43.848-43.848 0-8.323-2.319-16.104-6.346-22.734l-145.315-245.049c-7.792-12.949-21.772-21.479-37.743-21.479-0.002 0-0.003 0-0.005 0zM787.846 684.796c-24.199 0.034-43.802 19.658-43.802 43.862 0 8.253 2.28 15.975 6.243 22.569 3.386 5.604 5.454 12.608 5.454 20.097 0 21.976-17.815 39.79-39.79 39.79-14.487 0-27.166-7.742-34.125-19.316-7.861-13.217-21.878-21.816-37.906-21.816-24.216 0-43.848 19.632-43.848 43.848 0 8.323 2.319 16.104 6.346 22.734 22.497 37.501 63.143 62.341 109.59 62.341 70.408 0 127.485-57.077 127.485-127.485 0-24.040-6.654-46.525-18.22-65.716-7.462-12.378-21.436-20.91-37.403-20.91-0.008 0-0.016 0-0.025 0zM268.724-64c-10.16 0.011-20.089 0.96-29.72 2.763-19.691 3.622-35.17 21.51-35.17 43.013 0 24.216 19.63 43.846 43.846 43.846 2.761 0 5.464-0.255 8.083-0.744 59.074-10.309 100.401 61.644 100.83 62.383l174.999 295.168c7.76 13.036 21.778 21.635 37.805 21.635 24.216 0 43.848-19.632 43.848-43.848 0-8.323-2.319-16.104-6.346-22.734l-174.229-293.809c-33.124-59.648-93.070-100.92-163.104-107.608zM247.788-62.054c-0.039 0-0.084 0-0.131 0-13.721 0-25.965 6.328-33.973 16.223-20.812 31.023-33.177 69.1-33.177 110.065 0 41.335 12.59 79.73 34.144 111.559l173.074 291.937c7.76 13.036 21.778 21.635 37.805 21.635 24.216 0 43.848-19.632 43.848-43.848 0-8.323-2.319-16.104-6.346-22.734l-174.229-293.767c-1.167-1.829-44.83-72.654-6.927-119.741 6.052-7.451 9.716-17.056 9.716-27.514 0-24.196-19.611-43.81-43.806-43.815zM407.611 684.329c-24.199 0.034-43.802 19.658-43.802 43.862 0 8.253 2.28 15.975 6.243 22.569l111.268 187.605c7.76 13.036 21.778 21.635 37.805 21.635 24.216 0 43.848-19.632 43.848-43.848 0-8.323-2.319-16.104-6.346-22.734l-111.268-187.608c-7.791-12.951-21.772-21.481-37.744-21.481-0.002 0-0.002 0-0.003 0z" />
<glyph unicode="&#xe921;" glyph-name="encargo-gen" d="M844.183-63.999h-383.178c-24.776 0-44.859 20.084-44.859 44.859s20.084 44.859 44.859 44.859h338.319v844.562h-52.827c-24.776 0-44.859 20.084-44.859 44.859s20.084 44.859 44.859 44.859h97.687c0.002 0 0.003 0 0.006 0 24.772 0 44.853-20.081 44.853-44.853 0-0.002 0-0.005 0-0.006v-934.281c0-0.002 0-0.003 0-0.006 0-24.772-20.081-44.853-44.853-44.853-0.002 0-0.005 0-0.006 0zM279.894-63.999h-100.077c-0.002 0-0.003 0-0.006 0-24.772 0-44.853 20.081-44.853 44.853 0 0.002 0 0.005 0 0.006v934.281c0 0.002 0 0.003 0 0.006 0 24.772 20.081 44.853 44.853 44.853 0.002 0 0.005 0 0.006 0h390.19c24.776 0 44.859-20.084 44.859-44.859s-20.084-44.859-44.859-44.859h-345.33v-844.56h55.218c24.776 0 44.859-20.084 44.859-44.859s-20.084-44.859-44.859-44.859zM463.156 624.869h-101.273c-24.776 0-44.859 20.084-44.859 44.859s20.084 44.859 44.859 44.859h101.273c24.776 0 44.859-20.084 44.859-44.859s-20.084-44.859-44.859-44.859zM665.701 365.314h-303.818c-24.776 0-44.859 20.084-44.859 44.859s20.084 44.859 44.859 44.859h303.818c24.776 0 44.859-20.084 44.859-44.859s-20.084-44.859-44.859-44.859zM665.701 235.556h-303.818c-24.776 0-44.859 20.084-44.859 44.859s20.084 44.859 44.859 44.859h303.818c24.776 0 44.859-20.084 44.859-44.859s-20.084-44.859-44.859-44.859zM665.701 495.111h-303.818c-24.776 0-44.859 20.084-44.859 44.859s20.084 44.859 44.859 44.859h303.818c24.776 0 44.859-20.084 44.859-44.859s-20.084-44.859-44.859-44.859z" />
<glyph unicode="&#xe922;" glyph-name="encargos" d="M747.137 124.585v805.856c0 16.324-13.235 29.558-29.558 29.558h-84.238c-16.324 0-29.558-13.235-29.558-29.558s13.235-29.558 29.558-29.558h54.681v-746.735h-300.933c-16.324 0-29.558-13.235-29.558-29.558s13.235-29.558 29.558-29.558h330.491c16.325-0.003 29.557 13.234 29.557 29.555zM481.11 959.999h-336.585c-16.326 0-29.558-13.235-29.558-29.558v-805.853c0-16.324 13.233-29.558 29.558-29.558h86.335c16.324 0 29.558 13.235 29.558 29.558s-13.235 29.558-29.558 29.558h-56.777v746.735h307.027c16.326 0 29.558 13.235 29.558 29.558s-13.234 29.558-29.558 29.558zM879.476 804.633c-16.324 0-29.558-13.235-29.558-29.558v-779.959h-371.093c-16.324 0-29.558-13.235-29.558-29.558s13.235-29.558 29.558-29.558h400.649c16.324 0 29.558 13.235 29.558 29.558v809.518c0.002 16.324-13.235 29.558-29.556 29.558zM301.617 689.223h87.341c16.324 0 29.558 13.235 29.558 29.558s-13.235 29.558-29.558 29.558h-87.341c-16.324 0-29.558-13.235-29.558-29.558s13.236-29.558 29.558-29.558zM563.641 524.456h-262.024c-16.324 0-29.558-13.235-29.558-29.558s13.235-29.558 29.558-29.558h262.022c16.324 0 29.558 13.235 29.558 29.558s-13.236 29.558-29.556 29.558zM563.641 412.52h-262.024c-16.324 0-29.558-13.235-29.558-29.558s13.235-29.558 29.558-29.558h262.022c16.324 0 29.558 13.235 29.558 29.558s-13.236 29.558-29.556 29.558zM563.641 636.398h-262.024c-16.324 0-29.558-13.235-29.558-29.558s13.235-29.558 29.558-29.558h262.022c16.324 0 29.558 13.235 29.558 29.558s-13.236 29.558-29.556 29.558z" />
<glyph unicode="&#xe923;" glyph-name="enviando" d="M167.493 232.12c-17.696 0-32.044-14.348-32.044-32.044v-231.427c0-17.686 14.327-32.029 32.019-32.044l689.014-0.604c0.006 0 0.016 0 0.026 0 8.49 0 16.638 3.372 22.651 9.376 6.014 6.012 9.393 14.166 9.393 22.67v231.166c0 17.696-14.348 32.044-32.044 32.044s-32.044-14.348-32.044-32.044v-199.093l-624.925 0.545v199.411c0.001 17.695-14.347 32.046-32.043 32.046zM741.872 666.463c8.199 0 16.403 3.13 22.657 9.386 12.518 12.515 12.518 32.803 0 45.319l-229.451 229.447c-6.008 6.008-14.16 9.386-22.657 9.386-8.502 0-16.648-3.377-22.657-9.386l-229.445-229.447c-12.518-12.515-12.518-32.803 0-45.319 12.507-12.512 32.807-12.512 45.313 0l206.789 206.789 206.794-206.789c6.255-6.256 14.458-9.386 22.657-9.386zM480.377 659.574v-458.893c0-17.696 14.348-32.044 32.044-32.044s32.044 14.348 32.044 32.044v458.893c0 17.696-14.348 32.044-32.044 32.044s-32.044-14.349-32.044-32.044z" />
<glyph unicode="&#xe924;" glyph-name="pro-portafolio" d="M921.832 955.914h-118.458c-19.281 0-34.909-15.631-34.909-34.909 0-19.281 15.628-34.909 34.909-34.909h83.549v-880.279h-749.847v882.122h83.549c19.281 0 34.909 15.631 34.909 34.909s-15.628 34.909-34.909 34.909h-118.458c-19.278 0-34.909-15.631-34.909-34.909v-951.939c0-19.278 15.631-34.909 34.909-34.909h819.666c19.278 0 34.909 15.631 34.909 34.909v950.098c0 19.278-15.634 34.909-34.91 34.909zM339.421 698.181h345.153c19.278 0 34.909 15.631 34.909 34.909v182.096c0 19.278-15.631 34.909-34.909 34.909s-34.909-15.631-34.909-34.909v-147.187h-275.336v149.029c0 19.278-15.631 34.909-34.909 34.909s-34.909-15.631-34.909-34.909v-183.938c0-19.278 15.631-34.909 34.909-34.909zM450.461 890.182h123.071c19.278 0 34.909 15.631 34.909 34.909s-15.631 34.909-34.909 34.909h-123.071c-19.278 0-34.909-15.631-34.909-34.909s15.632-34.909 34.909-34.909zM397.747 239.743c6.494-6.171 15.105-9.6 24.042-9.6 0.306 0 0.614 0.002 0.92 0.011 9.264 0.244 18.051 4.162 24.423 10.892l294.37 310.773c13.258 13.998 12.659 36.091-1.338 49.349-13.994 13.258-36.088 12.662-49.349-1.338l-270.33-285.393-75.906 72.108c-13.977 13.284-36.074 12.71-49.353-1.267s-12.71-36.074 1.267-49.353l101.253-96.185z" />
<glyph unicode="&#xe925;" glyph-name="primer-contacto" d="M985.904 947.374c-18.933 12.626-44.531 7.508-57.164-11.433l-446.958-670.492-201.866 201.887c-16.092 16.099-42.194 16.102-58.291 0.003-16.099-16.095-16.102-42.194-0.003-58.291l237.423-237.449c7.766-7.769 18.268-12.076 29.144-12.076 1.352 0 2.706 0.067 4.066 0.201 12.287 1.218 23.384 7.879 30.234 18.155l474.851 712.336c12.633 18.94 7.515 44.531-11.433 57.159zM800.611-22.779v191.318c0 22.764-18.457 41.22-41.22 41.22-22.767 0-41.22-18.457-41.22-41.22v-150.096h-621.701v621.708h387.866c22.764 0 41.22 18.457 41.22 41.22s-18.457 41.22-41.22 41.22h-429.088c-22.764 0-41.22-18.457-41.22-41.22v-704.148c0-22.764 18.457-41.22 41.22-41.22h704.143c22.761-0.003 41.22 18.457 41.22 41.218z" />
<glyph unicode="&#xe926;" glyph-name="primera-visita" d="M985.904 947.374c-18.933 12.626-44.531 7.508-57.164-11.433l-446.958-670.492-201.866 201.887c-16.092 16.099-42.194 16.102-58.291 0.003-16.099-16.095-16.102-42.194-0.003-58.291l237.423-237.449c7.766-7.769 18.268-12.076 29.144-12.076 1.352 0 2.706 0.067 4.066 0.201 12.287 1.218 23.384 7.879 30.234 18.155l474.851 712.336c12.633 18.94 7.515 44.531-11.433 57.159zM800.611-22.779v191.318c0 22.764-18.457 41.22-41.22 41.22-22.767 0-41.22-18.457-41.22-41.22v-150.096h-621.701v621.708h387.866c22.764 0 41.22 18.457 41.22 41.22s-18.457 41.22-41.22 41.22h-429.088c-22.764 0-41.22-18.457-41.22-41.22v-704.148c0-22.764 18.457-41.22 41.22-41.22h704.143c22.761-0.003 41.22 18.457 41.22 41.218z" />
<glyph unicode="&#xe927;" glyph-name="mensaje-enviando" horiz-adv-x="1488" d="M298.391 553.87h-116.899c-16.705 0-30.249-13.544-30.249-30.249s13.544-30.249 30.249-30.249h116.899c16.705 0 30.249 13.544 30.249 30.249s-13.544 30.249-30.249 30.249zM298.391 402.623h-268.145c-16.705 0-30.249-13.544-30.249-30.249s13.544-30.249 30.249-30.249h268.145c16.705 0 30.249 13.544 30.249 30.249s-13.544 30.249-30.249 30.249zM1127.828 230.786h-629.591v434.427h135.954c16.705 0 30.249 13.544 30.249 30.249s-13.544 30.249-30.249 30.249h-166.205c-16.705 0-30.249-13.544-30.249-30.249v-494.925c0-16.705 13.544-30.249 30.249-30.249h659.84c16.705 0 30.249 13.544 30.249 30.249s-13.542 30.249-30.249 30.249zM1457.753 725.712h-662.23c-16.705 0-30.249-13.544-30.249-30.249s13.544-30.249 30.249-30.249h631.981v-434.427h-132.865c-16.705 0-30.249-13.544-30.249-30.249s13.544-30.249 30.249-30.249h163.114c16.707 0 30.249 13.544 30.249 30.249v494.925c0 16.705-13.542 30.249-30.249 30.249zM1296.69 292.369c11.289 12.319 10.457 31.45-1.859 42.74l-142.171 130.318 153.869 78.444c14.883 7.592 20.799 25.808 13.209 40.691s-25.816 20.792-40.687 13.209l-316.093-161.148-316.129 163.27c-14.841 7.666-33.091 1.851-40.759-12.997-7.666-14.844-1.846-33.091 12.995-40.756l154.564-79.828-133.48-131.992c-11.88-11.748-11.986-30.899-0.239-42.78 5.915-5.982 13.71-8.98 21.508-8.98 7.685 0 15.373 2.91 21.269 8.739l147.465 145.821 118.834-61.375c4.355-2.251 9.118-3.373 13.881-3.373 4.712 0 9.423 1.098 13.739 3.299l118.518 60.422 158.824-145.582c5.807-5.322 13.128-7.952 20.433-7.952 8.184 0.002 16.341 3.304 22.306 9.808z" />
<glyph unicode="&#xe928;" glyph-name="filtro" d="M399.658 436.056c5.551 0 11.164 1.607 16.103 4.963 13.117 8.909 16.528 26.764 7.621 39.881l-277.78 408.996h618.841c15.855 0 28.71 12.855 28.71 28.71s-12.855 28.71-28.71 28.71h-673.046c-10.631 0-20.393-5.876-25.369-15.273-4.977-9.395-4.355-20.771 1.617-29.568l308.234-453.839c5.556-8.178 14.584-12.58 23.781-12.58zM947.026 941.986c-12.916 9.199-30.846 6.194-40.042-6.717l-321-450.4c-0.063-0.089-0.111-0.182-0.173-0.271-0.34-0.486-0.651-0.992-0.96-1.5-0.187-0.308-0.387-0.612-0.561-0.925-0.276-0.494-0.52-1.006-0.766-1.516-0.168-0.348-0.349-0.689-0.502-1.041-0.201-0.466-0.37-0.947-0.548-1.425-0.153-0.412-0.32-0.821-0.453-1.238-0.134-0.419-0.237-0.85-0.352-1.278-0.132-0.489-0.273-0.977-0.378-1.471-0.079-0.376-0.131-0.761-0.196-1.143-0.096-0.558-0.194-1.117-0.257-1.68-0.039-0.355-0.053-0.716-0.078-1.075-0.043-0.592-0.084-1.185-0.090-1.777-0.001-0.109-0.016-0.214-0.016-0.324v-360.916l-152.313-84.892v314.743c0 15.855-12.855 28.71-28.71 28.71s-28.71-12.855-28.71-28.71v-363.615c0-10.18 5.393-19.598 14.168-24.755 4.486-2.636 9.514-3.956 14.542-3.956 4.813 0 9.631 1.208 13.977 3.633l209.734 116.897c9.098 5.068 14.734 14.664 14.734 25.077v368.6l315.668 442.918c9.205 12.914 6.195 30.841-6.715 40.045z" />
<glyph unicode="&#xe929;" glyph-name="flecha-arriba" d="M950.802 155.309c-0.036 0-0.081 0-0.122 0-20.179 0-38.442 8.204-51.637 21.457l-387.177 387.177-387.174-387.174c-13.219-13.086-31.411-21.168-51.489-21.168-40.429 0-73.203 32.774-73.203 73.203 0 20.078 8.084 38.27 21.176 51.497l438.931 438.931c13.242 13.258 31.544 21.459 51.762 21.459s38.52-8.201 51.762-21.459l438.936-438.936c13.242-13.25 21.433-31.549 21.433-51.762 0-40.429-32.769-73.205-73.195-73.221z" />
<glyph unicode="&#xe92a;" glyph-name="flecha-der" d="M292.522-63.999c-40.428 0.013-73.193 32.789-73.193 73.219 0 20.213 8.191 38.514 21.433 51.763l387.099 387.17-387.099 387.159c-13.086 13.218-21.167 31.41-21.167 51.488 0 40.428 32.773 73.201 73.201 73.201 20.077 0 38.269-8.084 51.495-21.175l438.92-438.92c13.257-13.242 21.459-31.543 21.459-51.761s-8.201-38.519-21.459-51.761l-438.925-438.925c-13.198-13.255-31.46-21.459-51.638-21.459-0.044 0-0.086 0-0.13 0z" />
<glyph unicode="&#xe92b;" glyph-name="flecha-izq" d="M731.471-64c-0.036 0-0.081 0-0.122 0-20.179 0-38.441 8.204-51.636 21.456l-438.923 438.931c-13.257 13.242-21.459 31.543-21.459 51.761s8.201 38.519 21.459 51.761l438.923 438.923c13.218 13.086 31.41 21.167 51.486 21.167 40.428 0 73.201-32.773 73.201-73.201 0-20.077-8.084-38.269-21.175-51.495l-387.087-387.16 387.098-387.163c13.242-13.25 21.432-31.548 21.432-51.761 0-40.428-32.768-73.203-73.193-73.219z" />
<glyph unicode="&#xe92c;" glyph-name="flecha" d="M1010.515 470.727l-270.896 270.896c-13.479 13.479-35.342 13.479-48.82 0-13.482-13.482-13.482-35.338 0-48.82l246.487-246.487-246.487-246.487c-13.482-13.482-13.482-35.338 0-48.82 6.739-6.739 15.575-10.111 24.41-10.111s17.67 3.371 24.41 10.111l270.896 270.896c13.486 13.476 13.486 35.333 0 48.82zM745.102 446.315c0 19.064-15.457 34.521-34.521 34.521h-676.061c-19.064 0-34.521-15.457-34.521-34.521s15.457-34.521 34.521-34.521h676.062c19.066 0 34.519 15.454 34.519 34.521z" />
<glyph unicode="&#xe92d;" glyph-name="flecha-abajo" d="M511.998 155.383c-0.036 0-0.081 0-0.122 0-20.185 0-38.452 8.206-51.65 21.462l-439.053 439.053c-13.090 13.222-21.173 31.419-21.173 51.502 0 40.439 32.782 73.222 73.222 73.222 20.083 0 38.28-8.086 51.51-21.181l387.269-387.269 387.275 387.275c13.222 13.090 31.419 21.173 51.502 21.173 40.439 0 73.222-32.782 73.222-73.222 0-20.083-8.086-38.28-21.181-51.51l-439.045-439.045c-13.201-13.259-31.469-21.465-51.653-21.465-0.042 0-0.086 0-0.127 0z" />
<glyph unicode="&#xe92e;" glyph-name="pro-fabrica-1" d="M716.945 180.381c-0.018 0-0.039 0-0.060 0-12.753 0-24.296 5.179-32.64 13.549l-146.641 146.634c-6.003-19.064-23.521-32.648-44.212-32.648-25.546 0-46.256 20.707-46.26 46.251v96.028c0.002 25.543 20.708 46.248 46.251 46.248 12.772 0 24.335-5.176 32.704-13.546l223.561-223.561c8.368-8.37 13.543-19.931 13.543-32.702 0-25.543-20.704-46.248-46.245-46.253zM493.383 180.381c-0.018 0-0.039 0-0.060 0-12.753 0-24.296 5.179-32.64 13.549l-146.641 146.634c-6.003-19.064-23.521-32.648-44.212-32.648-25.546 0-46.256 20.707-46.26 46.251v96.028c0.002 25.543 20.708 46.248 46.251 46.248 12.772 0 24.335-5.176 32.704-13.546l223.561-223.561c8.368-8.37 13.543-19.931 13.543-32.702 0-25.543-20.704-46.248-46.245-46.253zM144.75-27.898h-98.497c-25.544 0.002-46.251 20.708-46.253 46.253v431.841c0.002 25.543 20.708 46.248 46.251 46.248 12.772 0 24.335-5.176 32.705-13.548l223.569-223.569c8.346-8.365 13.505-19.912 13.505-32.663 0-25.541-20.705-46.248-46.248-46.248-12.751 0-24.298 5.16-32.663 13.507l-144.614 144.607v-273.924h52.245c25.544 0 46.253-20.708 46.253-46.253s-20.708-46.253-46.253-46.253zM977.747-27.898h-706.383c-25.544 0-46.253 20.708-46.253 46.253s20.708 46.253 46.253 46.253h706.383c25.544 0 46.253-20.708 46.253-46.253s-20.708-46.253-46.253-46.253zM977.687-27.906c-23.784 0.035-43.357 18.013-45.911 41.121l-15.789 147.231c-0.167 1.48-0.263 3.193-0.263 4.931 0 25.544 20.708 46.253 46.253 46.253 23.808 0 43.414-17.988 45.971-41.114l15.789-147.231c0.164-1.462 0.257-3.156 0.257-4.872 0-25.577-20.731-46.311-46.305-46.319zM947.748 251.22c-23.783 0.038-43.354 18.015-45.911 41.121l-40.158 374.519h-64.493l-21.786-297.668c-1.813-24.051-21.774-42.878-46.132-42.878-25.546 0-46.256 20.71-46.256 46.256 0 1.188 0.045 2.365 0.132 3.532l24.916 340.385c1.814 24.051 21.774 42.878 46.132 42.88h149.041c0 0 0 0 0.002 0 23.807 0 43.413-17.988 45.969-41.114l44.592-415.841c0.164-1.462 0.257-3.156 0.257-4.872 0-25.577-20.731-46.311-46.305-46.319zM762.075 788.116c-0.096 0-0.209 0-0.322 0-33.101 0-63.057 13.466-84.686 35.219-8.373 8.376-13.549 19.937-13.549 32.708 0 25.544 20.708 46.253 46.253 46.253 12.774 0 24.338-5.178 32.71-13.551 5.087-4.86 11.995-7.852 19.603-7.852s14.516 2.992 19.614 7.861c8.358 8.359 19.921 13.535 32.691 13.535 25.541 0 46.248-20.705 46.248-46.248 0-12.771-5.176-24.332-13.546-32.702-21.636-21.758-51.591-35.224-84.692-35.224-0.113 0-0.227 0-0.34 0zM709.77 809.789c-0.015 0-0.035 0-0.053 0-12.754 0-24.299 5.176-32.648 13.543-5.023 5.009-11.953 8.106-19.608 8.106s-14.585-3.097-19.608-8.106c-8.37-8.367-19.931-13.543-32.702-13.543-25.544 0-46.253 20.708-46.253 46.253 0 12.774 5.178 24.338 13.551 32.71 21.773 21.722 51.823 35.153 85.012 35.153s63.239-13.432 85.013-35.155c8.37-8.368 13.549-19.933 13.549-32.708 0-25.544-20.708-46.253-46.253-46.253 0 0 0 0 0 0z" />
<glyph unicode="&#xe92f;" glyph-name="pro-auto-frontal" horiz-adv-x="1200" d="M56.752 188.419c27.547 0 49.882 22.335 49.882 49.882v263.753c0 47.492 38.638 86.131 86.134 86.131 27.547 0 49.882 22.335 49.882 49.882v115.81c0 58.643 47.716 106.355 106.359 106.355h501.989c58.643 0 106.359-47.711 106.359-106.355v-115.814c0-27.547 22.335-49.882 49.882-49.882 47.495 0 86.134-38.643 86.134-86.141v-263.741c0-27.547 22.335-49.882 49.882-49.882s49.882 22.335 49.882 49.882v263.753c0 85.222-57.67 157.184-136.017 179.043v72.784c0 113.654-92.468 206.12-206.125 206.12h-501.989c-113.658 0-206.125-92.468-206.125-206.12v-72.784c-78.347-21.859-136.017-93.826-136.017-179.056v-263.741c0-27.551 22.337-49.882 49.882-49.882zM210.898 188.419v-202.536c0-27.547 22.335-49.882 49.882-49.882s49.882 22.335 49.882 49.882v202.536c0 27.547-22.335 49.882-49.882 49.882s-49.882-22.339-49.882-49.882zM890.969 188.419v-202.536c0-27.547 22.335-49.882 49.882-49.882s49.882 22.335 49.882 49.882v202.536c0 27.547-22.335 49.882-49.882 49.882s-49.882-22.339-49.882-49.882zM499.082 124.908h203.469c27.547 0 49.882 22.335 49.882 49.882s-22.335 49.882-49.882 49.882h-203.469c-27.547 0-49.882-22.335-49.882-49.882s22.337-49.882 49.882-49.882zM822.062 490.606c37.943-4.919 64.715-39.664 59.796-77.607s-39.666-64.713-77.609-59.793c-37.943 4.919-64.715 39.664-59.796 77.607s39.666 64.713 77.609 59.793zM397.387 490.601c37.941-4.919 64.712-39.664 59.791-77.607s-39.664-64.713-77.605-59.795c-37.941 4.919-64.712 39.664-59.791 77.607s39.664 64.713 77.605 59.795z" />
<glyph unicode="&#xe930;" glyph-name="pro-embarcacion" d="M931.732 260.026l-642.772-33.464c-16.514-0.86-29.205-14.944-28.345-31.46s14.944-29.217 31.46-28.345l582.735 30.338-136.056-201.21h-552.945l-54.521 163.556 65.033 3.302c16.516 0.839 29.225 14.906 28.386 31.423-0.839 16.514-14.871 29.217-31.423 28.386l-104.381-5.296c-9.345-0.472-17.933-5.29-23.211-13.017-5.275-7.727-6.637-17.479-3.677-26.356l73.803-221.408c4.075-12.228 15.518-20.474 28.406-20.474h590.425c9.942 0 19.236 4.934 24.805 13.171l178.637 264.181c6.362 9.408 6.854 21.607 1.267 31.498-5.584 9.89-16.234 15.804-27.627 15.175zM442.316 272.069c16.536 0 29.943 13.407 29.943 29.943v628.045c0 16.538-13.407 29.943-29.943 29.943s-29.943-13.405-29.943-29.943v-628.044c0-16.535 13.407-29.945 29.943-29.945zM539.648 310.666c0.631 0 1.267 0.020 1.905 0.058l292.609 18.363c10.191 0.64 19.355 6.431 24.309 15.362 4.952 8.929 5.012 19.767 0.161 28.754l-267.657 495.532c-7.859 14.545-26.017 19.967-40.578 12.116-14.55-7.861-19.975-26.028-12.116-40.578l245.413-454.347-245.896-15.433c-16.505-1.036-29.044-15.254-28.008-31.761 0.996-15.865 14.176-28.072 29.857-28.067z" />
<glyph unicode="&#xe931;" glyph-name="pro-engranajes" d="M770.636 74.157c-12.779-5.462-26.204-9.593-39.907-12.269-13.806-2.7-23.77-14.797-23.77-28.866v-28.895l-58.761 0.005c-0.002 0-0.002 0-0.002 0-16.242 0-29.411-13.169-29.411-29.411s13.167-29.411 29.409-29.411l88.172-0.005c0.002 0 0.002 0 0.002 0 7.8 0 15.28 3.097 20.797 8.612 5.514 5.52 8.614 12.997 8.614 20.8l0.002 35.271c9.524 2.824 18.878 6.195 27.98 10.086 14.935 6.386 21.867 23.671 15.479 38.607-6.384 14.928-23.669 21.863-38.605 15.476zM880.615 472.344l41.548-41.546c5.742-5.745 13.269-8.616 20.797-8.616s15.055 2.872 20.797 8.616c11.487 11.484 11.487 30.106 0 41.591l-62.346 62.346c-11.484 11.484-30.111 11.484-41.595 0l-24.933-24.935c-8.851 4.801-17.987 9.086-27.324 12.81-15.096 6.005-32.198-1.338-38.215-16.425-6.017-15.089 1.338-32.198 16.425-38.215 13.038-5.199 25.555-11.81 37.205-19.65 11.668-7.858 27.276-6.345 37.219 3.602l20.422 20.421zM994.589 356.369h-35.271c-2.837 9.578-6.227 18.986-10.151 28.143-6.39 14.935-23.679 21.871-38.612 15.462-14.933-6.39-21.855-23.682-15.462-38.612 5.495-12.834 9.644-26.309 12.329-40.048 2.7-13.806 14.799-23.768 28.866-23.768h28.89v-58.766c0-16.242 13.169-29.411 29.411-29.411s29.411 13.169 29.411 29.411v88.177c0 16.24-13.171 29.411-29.411 29.411zM938.824 159.882c4.337 7.999 8.255 16.228 11.716 24.629 6.188 15.017-0.972 32.207-15.991 38.396-15.029 6.18-32.21-0.976-38.399-15.993-5.063-12.288-11.388-24.103-18.805-35.113-7.86-11.671-6.352-27.276 3.598-37.223l20.424-20.426-41.548-41.556c-11.487-11.484-11.487-30.106 0-41.595 5.745-5.74 13.269-8.612 20.797-8.612s15.055 2.872 20.797 8.616l62.346 62.35c11.487 11.484 11.487 30.106 0 41.589l-24.933 24.935zM648.955 61.040c6.388 14.935-0.543 32.221-15.479 38.607-11.381 4.868-22.369 10.848-32.658 17.774-11.671 7.855-27.272 6.343-37.221-3.6l-20.422-20.422-41.552 41.552c-11.489 11.48-30.111 11.484-41.595-0.005-11.487-11.484-11.487-30.106 0-41.595l62.348-62.346c5.745-5.74 13.269-8.612 20.797-8.612 7.525 0 15.055 2.872 20.797 8.612l24.933 24.935c6.992-3.797 14.152-7.262 21.443-10.378 14.938-6.386 32.218 0.541 38.605 15.477zM471.074 189.96c4.5-11.68 15.642-18.846 27.451-18.846 3.516 0 7.092 0.636 10.57 1.977 15.155 5.84 22.707 22.863 16.867 38.018-4.153 10.78-7.382 21.987-9.596 33.317-2.697 13.81-14.797 23.773-28.866 23.773h-28.89v58.761c0 16.242-13.169 29.411-29.411 29.411s-29.411-13.169-29.411-29.411v-88.172c0-16.242 13.169-29.411 29.411-29.411h35.271c1.943-6.563 4.15-13.053 6.603-19.416zM489.923 345.345c3.758-1.594 7.662-2.355 11.501-2.355 11.441 0 22.317 6.716 27.077 17.908 2.604 6.123 15.574 23.839 22.542 33.36 4.341 5.931 8.090 11.054 10.828 15.117 7.855 11.671 6.345 27.272-3.602 37.221l-26.164 26.164 21.896 43.344c7.325 14.5 1.508 32.19-12.99 39.514-14.503 7.332-32.192 1.506-39.514-12.99l-31.496-62.348c-5.728-11.34-3.528-25.077 5.455-34.060l23.524-23.524c-11.675-16.070-20.273-28.593-24.606-38.774-6.361-14.946 0.602-32.216 15.549-38.579zM594.936 481.609c4.773-11.168 15.637-17.861 27.059-17.861 3.856 0 7.774 0.763 11.544 2.375 12.793 5.466 26.221 9.598 39.917 12.274 13.803 2.702 23.766 14.799 23.766 28.866v28.89l58.761 0.002c16.244 0 29.411 13.169 29.411 29.411 0 16.244-13.169 29.411-29.411 29.411l-88.172-0.002c-16.244 0-29.411-13.169-29.411-29.411v-35.271c-9.519-2.822-18.871-6.19-27.975-10.081-14.937-6.383-21.873-23.666-15.486-38.602zM711.896 399.089c-31.041 0-60.226-12.092-82.176-34.046-45.309-45.309-45.309-119.034 0.002-164.348 22.657-22.662 52.41-33.983 82.174-33.983 29.756 0 59.522 11.326 82.176 33.978v0.005c21.951 21.948 34.038 51.135 34.038 82.174 0 31.044-12.087 60.226-34.035 82.174-21.954 21.951-51.135 34.045-82.179 34.045zM752.474 242.287c-22.372-22.38-58.779-22.374-81.161-0.005-22.376 22.38-22.38 58.789-0.002 81.169 10.84 10.837 25.254 16.812 40.581 16.812 15.33 0 29.742-5.974 40.581-16.817 10.84-10.837 16.81-25.247 16.81-40.579 0.004-15.325-5.967-29.741-16.81-40.579zM409.453 414.398c-6.383 14.935-23.669 21.862-38.605 15.476-12.793-5.471-26.218-9.598-39.907-12.274-13.806-2.7-23.77-14.797-23.77-28.866v-28.89h-58.763c-16.242 0-29.411-13.169-29.411-29.411s13.169-29.411 29.411-29.411h88.172c16.242 0 29.411 13.169 29.411 29.411l0.002 35.271c9.519 2.819 18.873 6.19 27.98 10.086 14.936 6.382 21.867 23.671 15.479 38.607zM369.56 861.901c-6.017-15.089 1.338-32.198 16.425-38.215 13.028-5.194 25.544-11.807 37.205-19.654 11.666-7.853 27.267-6.34 37.216 3.605l20.422 20.422 41.548-41.552c5.745-5.742 13.269-8.614 20.797-8.614 7.525 0 15.055 2.872 20.797 8.614 11.487 11.487 11.487 30.108 0 41.595l-62.346 62.348c-5.514 5.514-12.997 8.614-20.797 8.614s-15.282-3.1-20.797-8.614l-24.935-24.935c-8.854 4.804-17.985 9.088-27.319 12.81-15.098 6.013-32.197-1.34-38.215-16.425zM549.378 740.227c-6.393 14.926-23.679 21.85-38.615 15.46-14.931-6.393-21.853-23.682-15.46-38.615 5.495-12.832 9.644-26.305 12.329-40.046 2.7-13.803 14.799-23.766 28.863-23.766h28.895l-0.002-58.763c0-16.242 13.167-29.411 29.411-29.411 16.242 0 29.411 13.169 29.411 29.411l0.002 88.172c0 16.242-13.167 29.411-29.409 29.411l-35.276 0.002c-2.838 9.576-6.23 18.986-10.151 28.143zM249.162 416.746c6.39 14.931-0.534 32.219-15.467 38.609-11.408 4.88-22.396 10.862-32.662 17.774-11.678 7.866-27.281 6.35-37.226-3.598l-20.422-20.422-41.552 41.552c-11.484 11.484-30.111 11.484-41.595 0-11.487-11.487-11.487-30.108 0-41.595l62.348-62.346c5.742-5.745 13.269-8.616 20.797-8.616s15.055 2.872 20.797 8.616l24.933 24.93c6.981-3.786 14.143-7.257 21.434-10.373 14.945-6.405 32.224 0.536 38.612 15.467zM71.286 545.669c4.502-11.678 15.642-18.839 27.451-18.839 3.516 0 7.094 0.634 10.572 1.975 15.155 5.842 22.707 22.867 16.865 38.023-4.155 10.776-7.384 21.984-9.598 33.313-2.7 13.808-14.797 23.77-28.863 23.77h-28.892v58.761c0 16.242-13.169 29.411-29.411 29.411s-29.411-13.169-29.411-29.411v-88.17c0-16.242 13.167-29.411 29.409-29.411l35.273-0.002c1.945-6.562 4.153-13.049 6.606-19.419zM85.173 761.575c-3.877-7.147-7.415-14.476-10.591-21.939-6.358-14.947 0.605-32.219 15.553-38.579 3.758-1.596 7.66-2.353 11.498-2.353 11.441 0 22.319 6.716 27.081 17.906 4.904 11.534 10.941 22.654 17.942 33.052 7.855 11.673 6.345 27.274-3.602 37.221l-20.422 20.422 41.552 41.552c11.487 11.487 11.487 30.108 0 41.595-11.484 11.484-30.111 11.484-41.595 0l-62.348-62.348c-11.487-11.487-11.487-30.108 0-41.595l24.933-24.933zM222.204 819.465c3.856 0 7.774 0.763 11.544 2.375 12.796 5.466 26.223 9.596 39.911 12.272 13.808 2.7 23.77 14.797 23.77 28.866v28.892l58.761 0.002c16.244 0 29.411 13.169 29.411 29.411 0 16.244-13.169 29.411-29.411 29.411l-88.172-0.002c-16.244 0-29.411-13.169-29.411-29.411v-35.271c-9.517-2.819-18.871-6.19-27.975-10.081-14.938-6.383-21.869-23.667-15.486-38.602 4.773-11.168 15.637-17.861 27.059-17.861zM312.107 754.799c-31.044 0-60.228-12.087-82.179-34.038-21.948-21.948-34.038-51.133-34.035-82.176 0-31.041 12.089-60.226 34.038-82.174 22.659-22.659 52.413-33.985 82.176-33.985 29.756 0 59.522 11.331 82.174 33.983 45.311 45.314 45.314 119.041 0.002 164.352-21.951 21.951-51.135 34.038-82.176 34.038zM352.686 598.003c-22.376-22.376-58.789-22.369-81.161 0.002-10.84 10.84-16.81 25.252-16.81 40.581s5.967 29.742 16.808 40.579c11.19 11.19 25.886 16.783 40.584 16.783 14.696 0 29.393-5.593 40.581-16.783 22.376-22.376 22.374-58.787-0.002-81.164z" />
<glyph unicode="&#xe932;" glyph-name="pro-fabrica-3" d="M376.915 455.917c0-16.131 13.079-29.21 29.21-29.21s29.21 13.079 29.21 29.21v359.443c0 16.131-13.079 29.21-29.21 29.21h-376.915c-16.131 0-29.21-13.079-29.21-29.21v-784.241c0-16.131 13.079-29.21 29.21-29.21 16.133 0 29.21 13.079 29.21 29.21v755.031h318.494v-330.233zM543.679 278.174c16.131 0 29.21 13.079 29.21 29.21v67.273l170.887-170.882c5.706-5.706 13.179-8.557 20.654-8.557s14.952 2.853 20.654 8.557c11.408 11.405 11.408 29.9 0 41.305l-220.751 220.75c-8.353 8.358-20.916 10.854-31.832 6.332s-18.033-15.171-18.033-26.985v-137.793c-0.002-16.134 13.080-29.211 29.209-29.211zM486.486 203.766c11.41-11.401 29.905-11.405 41.31 0.005 11.408 11.405 11.408 29.9 0 41.31l-220.759 220.755c-8.353 8.353-20.916 10.85-31.832 6.328s-18.033-15.171-18.033-26.985v-232.982h-117.179c-16.131 0-29.21-13.079-29.21-29.21v-151.865c0-16.131 13.079-29.21 29.21-29.21s29.21 13.079 29.21 29.21v122.655h87.97v-135.016c0-16.131 13.079-29.21 29.21-29.21h97.26c16.131 0 29.21 13.079 29.21 29.21s-13.079 29.21-29.21 29.21h-68.049v326.688l170.892-170.891zM1018.247 1.404c0.287 0.387 0.584 0.764 0.852 1.165 0.238 0.356 0.446 0.734 0.667 1.101 0.265 0.436 0.539 0.865 0.781 1.317 0.203 0.381 0.375 0.778 0.563 1.168 0.22 0.458 0.451 0.907 0.647 1.377 0.186 0.447 0.336 0.911 0.501 1.368 0.155 0.43 0.325 0.851 0.46 1.291 0.172 0.561 0.301 1.138 0.441 1.711 0.084 0.352 0.19 0.695 0.261 1.051 0.145 0.72 0.243 1.454 0.334 2.189 0.028 0.226 0.075 0.446 0.099 0.673 0.078 0.784 0.106 1.581 0.12 2.38 0.003 0.189 0.028 0.373 0.028 0.564 0 0.012-0.002 0.023-0.002 0.036-0.001 0.521-0.050 1.050-0.079 1.575-0.026 0.487-0.033 0.981-0.082 1.461-0.001 0.014-0.001 0.028-0.002 0.043l-15.572 145.18c-1.721 16.046-16.086 27.637-32.16 25.93-16.038-1.721-27.648-16.117-25.928-32.157l12.105-112.856h-437.308c-16.131 0-29.21-13.079-29.21-29.21s13.079-29.21 29.21-29.21h469.733c0.017 0 0.034-0.005 0.051-0.005 0.26 0 0.526 0.036 0.786 0.043 0.779 0.020 1.558 0.047 2.321 0.126 0.015 0.001 0.030 0.001 0.045 0.002 0.244 0.026 0.477 0.082 0.719 0.114 0.733 0.097 1.464 0.196 2.178 0.346 0.285 0.059 0.557 0.148 0.838 0.215 0.659 0.16 1.319 0.315 1.96 0.518 0.408 0.128 0.797 0.292 1.195 0.437 0.493 0.181 0.992 0.346 1.472 0.551 0.491 0.211 0.959 0.458 1.436 0.692 0.367 0.182 0.744 0.347 1.102 0.543 0.516 0.283 1.006 0.601 1.503 0.913 0.298 0.188 0.606 0.36 0.896 0.558 0.487 0.332 0.948 0.697 1.413 1.057 0.278 0.215 0.568 0.415 0.837 0.64 0.428 0.356 0.827 0.743 1.234 1.122 0.281 0.262 0.573 0.511 0.843 0.783 0.357 0.361 0.686 0.749 1.024 1.126 0.289 0.325 0.589 0.637 0.864 0.973 0.289 0.358 0.551 0.733 0.824 1.103zM744.976 707.715l-34.128-340.957c-1.606-16.051 10.103-30.366 26.156-31.972 16.040-1.578 30.368 10.103 31.975 26.154l31.495 314.655h94.507l46.399-429.923c1.617-14.976 14.279-26.082 29.005-26.082 1.046 0.005 2.106 0.057 3.171 0.171 16.038 1.736 27.637 16.14 25.906 32.177l-49.214 455.999c-1.599 14.833-14.123 26.077-29.041 26.077h-147.165c-15.006 0.001-27.571-11.372-29.065-26.3zM647.526 825.279c8.28 8.278 19.286 12.837 30.995 12.837s22.716-4.559 30.995-12.837c19.937-19.939 46.116-29.905 72.305-29.905 26.182 0 52.373 9.97 72.307 29.9 11.408 11.41 11.408 29.905 0 41.31-11.405 11.41-29.9 11.405-41.31 0.005-17.089-17.097-44.904-17.091-61.993-0.005-39.869 39.869-104.741 39.869-144.611 0-11.408-11.405-11.408-29.9 0-41.305 11.409-11.41 29.909-11.41 41.31 0zM152.361 346.362c14.878-7.056 21.218-24.835 14.163-39.713s-24.835-21.218-39.713-14.162c-14.878 7.056-21.218 24.835-14.163 39.713s24.835 21.218 39.713 14.162zM152.36 470.238c14.878-7.056 21.218-24.835 14.163-39.713s-24.835-21.218-39.713-14.162c-14.878 7.056-21.218 24.835-14.163 39.713s24.835 21.218 39.713 14.162zM152.362 594.113c14.878-7.056 21.218-24.835 14.163-39.713s-24.835-21.218-39.713-14.162c-14.878 7.056-21.218 24.835-14.163 39.713s24.835 21.218 39.713 14.162zM152.362 717.99c14.878-7.056 21.218-24.835 14.163-39.713s-24.835-21.218-39.713-14.162c-14.878 7.056-21.218 24.835-14.163 39.713s24.835 21.218 39.713 14.162zM308.525 594.113c14.878-7.056 21.218-24.835 14.162-39.713s-24.835-21.218-39.713-14.162c-14.878 7.056-21.218 24.835-14.162 39.713s24.835 21.218 39.713 14.162zM308.525 717.988c14.878-7.056 21.218-24.835 14.162-39.713s-24.835-21.218-39.713-14.162c-14.878 7.056-21.218 24.835-14.162 39.713s24.835 21.218 39.713 14.162z" />
<glyph unicode="&#xe933;" glyph-name="pro-balanza" d="M515.405 68.568c16.277 0 29.474 13.197 29.474 29.474v696.456c0 16.277-13.197 29.474-29.474 29.474s-29.474-13.197-29.474-29.474v-696.457c0-16.278 13.199-29.473 29.474-29.473zM749.906 40.812h-468.995c-16.277 0-29.474-13.197-29.474-29.474s13.197-29.474 29.474-29.474h468.995c16.277 0 29.474 13.197 29.474 29.474s-13.199 29.474-29.474 29.474zM664.812 470.475c4.941-3.186 10.475-4.706 15.947-4.706 9.681 0 19.163 4.764 24.8 13.502l124.697 193.357 124.819-193.368c8.829-13.677 27.076-17.614 40.749-8.779 13.677 8.829 17.607 27.071 8.779 40.749l-149.595 231.748c-5.428 8.41-14.755 13.49-24.764 13.49-0.002 0-0.005 0-0.007 0-10.012-0.002-19.337-5.085-24.764-13.5l-149.455-231.748c-8.82-13.683-4.881-31.923 8.796-40.746zM1004.936 413.053c-14.138 8.069-32.145 3.142-40.207-11-27.575-48.352-79.237-78.388-134.823-78.388-55.841 0-107.614 30.237-135.119 78.916-8.007 14.172-25.982 19.165-40.161 11.158-14.174-8.007-19.17-25.987-11.16-40.163 37.942-67.148 109.381-108.861 186.44-108.861 76.708 0 147.99 41.435 186.029 108.131 8.065 14.142 3.138 32.141-11 40.207zM29.362 628.142c4.941-3.186 10.475-4.706 15.947-4.706 9.681 0 19.163 4.764 24.8 13.502l124.697 193.357 124.819-193.368c8.827-13.675 27.076-17.616 40.749-8.779 13.677 8.829 17.607 27.071 8.779 40.749l-149.595 231.749c-5.428 8.41-14.755 13.49-24.764 13.49-0.002 0-0.005 0-0.007 0-10.012-0.002-19.337-5.085-24.764-13.5l-149.456-231.749c-8.822-13.682-4.884-31.924 8.796-40.746zM380.48 530.514c8.064 14.14 3.139 32.142-11 40.207-14.14 8.071-32.145 3.145-40.207-11-27.575-48.35-79.235-78.386-134.821-78.386-55.841 0-107.616 30.237-135.121 78.914-8.009 14.174-25.987 19.165-40.161 11.16-14.172-8.007-19.17-25.989-11.16-40.161 37.942-67.148 109.384-108.865 186.442-108.865 76.706-0.001 147.99 41.435 186.027 108.131z" />
<glyph unicode="&#xe934;" glyph-name="pro-camion-1" d="M990.286 143.9c-0.001 0-0.002 0-0.005 0-18.618 0-33.709 15.092-33.709 33.709 0 0.001 0 0.004 0 0.005v0 550.415h-522.779v-202.824c0-18.62-15.094-33.714-33.714-33.714s-33.714 15.094-33.714 33.714v0 236.538c0 0.001 0 0.002 0 0.005 0 18.618 15.092 33.709 33.709 33.709 0.001 0 0.004 0 0.005 0h590.207c0.001 0 0.002 0 0.005 0 18.618 0 33.709-15.092 33.709-33.709 0-0.001 0-0.004 0-0.005v0-584.129c0-0.001 0-0.002 0-0.005 0-18.618-15.092-33.709-33.709-33.709-0.001 0-0.004 0-0.005 0v0zM830.877 100.544c-51.168 0.135-92.595 41.646-92.595 92.833s41.427 92.698 92.583 92.833h0.013c18.62 0 33.714-15.094 33.714-33.714s-15.094-33.714-33.714-33.714v0c-0.002 0-0.005 0-0.006 0-14.031 0-25.406-11.374-25.406-25.406s11.374-25.406 25.406-25.406c10.423 0 19.381 6.277 23.297 15.257l0.063 0.164c5.3 12.089 17.161 20.381 30.96 20.381 18.615 0 33.705-15.091 33.705-33.705 0-4.816-1.010-9.397-2.83-13.541l0.085 0.217c-14.556-33.33-47.231-56.2-85.247-56.2-0.010 0-0.019 0-0.029 0h0.001zM198.213 100.544c-51.168 0.135-92.595 41.646-92.595 92.833s41.427 92.698 92.583 92.833h0.013c18.62 0 33.714-15.094 33.714-33.714s-15.094-33.714-33.714-33.714v0c-0.002 0-0.005 0-0.006 0-14.031 0-25.406-11.374-25.406-25.406s11.374-25.406 25.406-25.406c10.423 0 19.381 6.277 23.297 15.257l0.063 0.164c5.3 12.089 17.161 20.381 30.96 20.381 18.615 0 33.705-15.091 33.705-33.705 0-4.816-1.010-9.397-2.83-13.541l0.085 0.217c-14.556-33.33-47.231-56.2-85.247-56.2-0.010 0-0.019 0-0.029 0h0.001zM400.079 255.222c-0.001 0-0.002 0-0.005 0-18.618 0-33.709 15.092-33.709 33.709 0 0.001 0 0.004 0 0.005v0 118.839c0 18.62 15.094 33.714 33.714 33.714s33.714-15.094 33.714-33.714v0-118.839c0-0.001 0-0.002 0-0.005 0-18.618-15.092-33.709-33.709-33.709-0.001 0-0.004 0-0.005 0v0zM657.037 144.225h-291.511c-18.62 0-33.714 15.094-33.714 33.714s15.094 33.714 33.714 33.714v0h291.511c18.62 0 33.714-15.094 33.714-33.714s-15.094-33.714-33.714-33.714v0zM210.968 379.36c-0.001 0-0.002 0-0.005 0-18.618 0-33.709 15.092-33.709 33.709 0 0.001 0 0.004 0 0.005v0 93.298c0.060 56.993 46.245 103.178 103.232 103.238h19.529c18.62 0 33.714-15.094 33.714-33.714s-15.094-33.714-33.714-33.714v0h-19.524c-19.769-0.022-35.788-16.041-35.811-35.809v-93.3c0-0.001 0-0.002 0-0.005 0-18.618-15.092-33.709-33.709-33.709-0.001 0-0.002 0-0.004 0v0zM33.714 242.347c-0.001 0-0.002 0-0.005 0-18.618 0-33.709 15.092-33.709 33.709 0 0.001 0 0.004 0 0.005v0 63.027c0.068 62.645 50.834 113.41 113.472 113.478h0.007c18.62 0 33.714-15.094 33.714-33.714s-15.094-33.714-33.714-33.714v0c-25.422-0.030-46.021-20.63-46.051-46.049v-63.025c0-0.002 0-0.005 0-0.007 0-18.618-15.092-33.709-33.709-33.709-0.001 0-0.004 0-0.005 0v0z" />
<glyph unicode="&#xe935;" glyph-name="pro-euro" d="M512.001 960c-127.629 0-249.891-47.238-344.266-133.016-11.871-10.788-12.747-29.158-1.958-41.028 5.732-6.307 13.603-9.509 21.503-9.509 6.968 0 13.962 2.494 19.526 7.552 83.659 76.037 192.045 117.912 305.194 117.912 250.289 0 453.912-203.623 453.912-453.912 0-90.965-26.8-178.717-77.502-253.766-8.979-13.291-5.484-31.347 7.807-40.326 4.985-3.368 10.638-4.98 16.234-4.98 9.322 0 18.482 4.482 24.092 12.787 57.215 84.69 87.458 183.685 87.458 286.284 0 282.319-229.681 512.002-512.001 512.002zM817.193 112c-83.658-76.040-192.043-117.912-305.192-117.912-250.289 0-453.912 203.623-453.912 453.912 0 90.965 26.8 178.717 77.502 253.766 8.979 13.291 5.484 31.347-7.807 40.326-13.289 8.979-31.345 5.486-40.326-7.807-57.215-84.691-87.458-183.686-87.458-286.285 0-282.319 229.683-512.001 512.001-512.001 127.629 0 249.891 47.238 344.266 133.016 11.871 10.788 12.747 29.158 1.958 41.028-10.79 11.872-29.156 12.748-41.030 1.958zM542.111 613.094c25.081 0 44.635-13.445 56.622-24.724 11.678-10.989 30.061-10.431 41.057 1.248 10.994 11.684 10.433 30.063-1.248 41.057-28.165 26.501-61.509 40.508-96.43 40.508-92.044 0-166.927-100.12-166.927-223.185s74.883-223.185 166.927-223.185c35.533 0 69.351 14.458 97.796 41.808 11.563 11.119 11.922 29.506 0.806 41.069-11.119 11.561-29.504 11.924-41.069 0.806-12.142-11.676-31.98-25.594-57.534-25.594-40.073 0-75.903 34.903-94.777 85.329h102.736c16.040 0 29.044 13.005 29.044 29.044s-13.005 29.044-29.044 29.044h-115.782c-0.647 7.114-1.015 14.342-1.015 21.678 0 5.682 0.205 11.307 0.597 16.862h116.199c16.040 0 29.044 13.005 29.044 29.044s-13.005 29.044-29.044 29.044h-104.463c18.353 53.003 55.17 90.144 96.505 90.144z" />
<glyph unicode="&#xe936;" glyph-name="pro-coche-repara" d="M847.091 119.445c-0.016 0-0.034 0-0.052 0-10.982 0-20.923 4.46-28.109 11.668l-282.39 282.39c-7.199 7.205-11.65 17.157-11.65 28.147 0 21.996 17.831 39.828 39.828 39.828 10.99 0 20.942-4.451 28.147-11.65l282.389-282.389c7.207-7.208 11.663-17.165 11.663-28.162 0-21.997-17.83-39.828-39.826-39.832zM958.898 231.251c-0.016 0-0.034 0-0.052 0-10.982 0-20.923 4.46-28.109 11.668l-394.204 394.21c-7.199 7.205-11.65 17.157-11.65 28.147 0 21.996 17.831 39.828 39.828 39.828 10.99 0 20.942-4.451 28.147-11.65l394.202-394.209c7.207-7.208 11.663-17.165 11.663-28.162 0-21.997-17.83-39.828-39.826-39.832zM391.954 507.936c-0.237-0.001-0.519-0.001-0.799-0.001-124.79 0-225.953 101.163-225.953 225.953 0 28.12 5.137 55.040 14.523 79.873 5.256 13.784 19.807 24.501 36.861 24.501 10.998 0 20.955-4.456 28.164-11.663l95.781-95.781 54.909 54.912-94.407 95.924c-7.074 7.186-11.443 17.053-11.443 27.941 0 17.263 10.981 31.96 26.338 37.49 22.64 8.215 48.454 12.916 75.364 12.916 124.909 0 226.167-101.259 226.167-226.167 0-30.053-5.862-58.737-16.505-84.971-5.468-13.337-19.773-23.623-36.482-23.623-22.001 0-39.835 17.835-39.835 39.835 0 5.293 1.032 10.344 2.906 14.964 6.477 15.763 10.291 34.368 10.291 53.864 0 72.013-52.050 131.868-120.58 143.998l62.678-64.455c7.074-7.185 11.443-17.052 11.443-27.939 0-10.999-4.458-20.957-11.666-28.165l-111.016-111.016c-7.209-7.209-17.168-11.668-28.169-11.668-10.998 0-20.953 4.456-28.162 11.662l-65.728 65.732c10.938-70.942 71.556-124.627 144.714-124.627 17.447 0 34.18 3.054 49.697 8.655 2.913 1.106 7.453 1.931 12.187 1.931 22.001 0 39.835-17.835 39.835-39.835 0-17.267-10.986-31.969-26.351-37.496-22.42-8.106-47.975-12.742-74.614-12.742-0.052 0-0.105 0-0.157 0zM902.994 96.346c-0.064 0-0.14 0-0.215 0-32.752 0-62.401 13.288-83.849 34.767-7.2 7.208-11.651 17.158-11.651 28.148 0 21.996 17.831 39.828 39.828 39.828 10.99 0 20.942-4.451 28.147-11.65 7.102-7.112 16.917-11.511 27.762-11.511 21.668 0 39.232 17.565 39.232 39.232 0 10.844-4.399 20.66-11.511 27.762-7.199 7.207-11.65 17.157-11.65 28.147 0 21.996 17.831 39.828 39.828 39.828 10.99 0 20.942-4.451 28.147-11.65 21.529-21.508 34.848-51.233 34.848-84.069 0-65.629-53.203-118.832-118.832-118.832-0.029 0-0.058 0-0.087 0zM105.701 241.825c-21.998 0.001-39.831 17.834-39.832 39.832v54.302c0.074 62.432 50.665 113.023 113.091 113.097h177.517c21.998 0 39.832-17.834 39.832-39.832s-17.834-39.832-39.832-39.832h-177.51c-18.456-0.021-33.412-14.977-33.433-33.431v-54.305c-0.001-21.998-17.834-39.831-39.832-39.832zM41.921 54.368c-21.998 0.001-39.831 17.834-39.832 39.832v123.671c0.065 57.199 46.414 103.55 103.606 103.619 22.005 0 39.838-17.834 39.838-39.832s-17.834-39.832-39.832-39.832c-13.22-0.014-23.934-10.728-23.948-23.947v-123.679c-0.001-21.998-17.834-39.831-39.832-39.832zM487.622 241.825c-21.998 0.001-39.831 17.834-39.832 39.832v54.302c-0.019 18.456-14.975 33.412-33.428 33.433h-177.516c-21.998 0-39.832 17.834-39.832 39.832s17.834 39.832 39.832 39.832h177.513c62.431-0.074 113.019-50.667 113.091-113.091v-54.309c0 0 0 0 0-0.001 0-21.997-17.831-39.829-39.828-39.831zM551.405 54.368c-21.998 0.001-39.831 17.834-39.832 39.832v123.671c-0.016 13.223-10.729 23.937-23.95 23.955-22.001 0-39.833 17.834-39.833 39.832s17.834 39.832 39.832 39.832c57.198-0.067 103.546-46.416 103.615-103.606v-123.684c-0.001-21.998-17.834-39.831-39.832-39.832zM137.591-64c-21.998 0.001-39.831 17.834-39.832 39.832v94.971c0 21.998 17.834 39.832 39.832 39.832s39.832-17.834 39.832-39.832v-94.971c-0.001-21.998-17.834-39.831-39.832-39.832zM456.493-64c-21.998 0.001-39.831 17.834-39.832 39.832v94.971c0 21.998 17.834 39.832 39.832 39.832s39.832-17.834 39.832-39.832v-94.971c-0.001-21.998-17.834-39.831-39.832-39.832zM344.751 24.585h-95.411c-21.998 0-39.832 17.834-39.832 39.832s17.834 39.832 39.832 39.832h95.411c21.998 0 39.832-17.834 39.832-39.832s-17.834-39.832-39.832-39.832zM203.172 225.629c24.273-3.147 41.397-25.375 38.25-49.647s-25.375-41.397-49.647-38.25c-24.273 3.147-41.397 25.375-38.25 49.647s25.375 41.397 49.647 38.25zM402.309 225.629c24.273-3.147 41.397-25.375 38.25-49.647s-25.375-41.397-49.647-38.25c-24.273 3.147-41.397 25.375-38.25 49.647s25.375 41.397 49.647 38.25z" />
<glyph unicode="&#xe937;" glyph-name="pro-casa" d="M821.96 515.81c-16.121 0-29.191-13.068-29.191-29.191v-431.163h-324.813v329.223c0 16.121-13.070 29.191-29.191 29.191h-150.98c-16.121 0-29.191-13.070-29.191-29.191s13.070-29.191 29.191-29.191h121.788v-300.031h-181.72v431.162c0 16.123-13.070 29.191-29.191 29.191s-29.191-13.068-29.191-29.191v-460.354c0-16.121 13.070-29.191 29.191-29.191h623.304c16.123 0 29.191 13.070 29.191 29.191v460.354c-0.003 16.124-13.072 29.191-29.195 29.191zM1008.635 527.784l-478.997 363.232c-10.429 7.91-24.849 7.91-35.278 0l-478.997-363.232c-12.845-9.74-15.363-28.051-5.621-40.898 9.747-12.85 28.056-15.363 40.898-5.621l461.359 349.856 461.359-349.857c5.276-4.001 11.469-5.934 17.617-5.934 8.82 0 17.539 3.984 23.281 11.555 9.744 12.848 7.223 31.159-5.621 40.899zM524.768 639.132c14.868-7.051 21.205-24.819 14.154-39.687s-24.819-21.206-39.687-14.154c-14.868 7.051-21.205 24.819-14.154 39.687s24.819 21.206 39.687 14.154zM305.051 272.907c14.868-7.051 21.205-24.82 14.153-39.687s-24.82-21.205-39.687-14.153c-14.868 7.051-21.205 24.82-14.153 39.687s24.82 21.205 39.687 14.153z" />
<glyph unicode="&#xe938;" glyph-name="pro-reloj-llave" d="M867.117 78.464c-20.733 0.015-37.534 16.825-37.534 37.561 0 8.655 2.927 16.626 7.845 22.978 41.599 54.214 66.702 123.125 66.702 197.898 0 95.952-41.336 182.25-107.173 242.056-37.135 33.705-82.174 58.856-132.004 72.346-18.466 4.92-30.192 19.503-30.192 36.825 0 20.743 16.816 37.558 37.558 37.558 3.421 0 6.735-0.457 9.885-1.314 172.52-47.075 297.447-202.613 297.447-387.329 0-92.19-31.118-177.112-83.423-244.836-6.233-8.029-16.98-13.742-29.061-13.742-0.017 0-0.035 0-0.053 0zM548.977 269.649c-20.743 0.001-37.557 16.816-37.558 37.558v197.313c0 20.743 16.816 37.558 37.558 37.558s37.558-16.816 37.558-37.558v-197.313c-0.001-20.743-16.816-37.557-37.558-37.558zM579.053-63.999c-141.429 0.341-265.678 73.59-337.187 184.137-4.651 7.292-6.848 14.276-6.848 21.773 0 20.743 16.816 37.558 37.558 37.558 13.246 0 24.889-6.856 31.576-17.213 58.939-91.264 159.986-150.725 274.921-150.725 68.309 0 131.712 21.003 184.104 56.904 4.806 3.357 12.131 5.794 20.025 5.794 20.741 0 37.556-16.814 37.556-37.556 0-12.847-6.45-24.188-16.29-30.96-63.177-43.662-141.255-69.699-225.412-69.713zM793.602 269.649h-121.282c-20.743 0-37.558 16.816-37.558 37.558s16.816 37.558 37.558 37.558h121.282c20.743 0 37.558-16.816 37.558-37.558s-16.816-37.558-37.558-37.558zM87.5 243.139c-20.732 0.028-37.527 16.84-37.527 37.575 0 5.692 1.265 11.089 3.531 15.923l129.389 281.161c6.091 13.007 19.070 21.855 34.117 21.855 20.741 0 37.556-16.814 37.556-37.556 0-5.695-1.268-11.095-3.537-15.932l-129.389-281.161c-6.089-13.013-19.073-21.866-34.123-21.866-0.006 0-0.012 0-0.018 0zM198.915 191.871c-20.732 0.028-37.527 16.84-37.527 37.575 0 5.692 1.265 11.089 3.531 15.923l172.449 374.749c6.090 13.007 19.070 21.856 34.117 21.856 20.741 0 37.555-16.814 37.555-37.555 0-5.695-1.268-11.093-3.536-15.928l-172.449-374.755c-6.089-13.013-19.073-21.866-34.123-21.866-0.006 0-0.012 0-0.018 0zM143.079 156.198c-54.544 0.081-98.73 44.316-98.73 98.871 0 14.996 3.339 29.213 9.313 41.946 5.835 12.402 18.815 21.25 33.861 21.25 20.741 0 37.556-16.814 37.556-37.556 0-5.695-1.268-11.095-3.537-15.932-1.276-2.685-2.078-6.101-2.078-9.704 0-13.126 10.64-23.766 23.766-23.766 9.523 0 17.738 5.601 21.53 13.687 6.152 13.153 19.131 22.001 34.178 22.001 20.741 0 37.556-16.814 37.556-37.556 0-5.695-1.268-11.095-3.537-15.932-15.977-34.018-50.176-57.308-89.812-57.308-0.024 0-0.048 0-0.072 0zM267.772 622.555c-5.689 0.002-11.082 1.274-15.909 3.548l-3.085 1.428c-34.822 16.305-58.51 51.053-58.51 91.336 0 15.248 3.394 29.703 9.468 42.65l35.123 76.277c6.090 13.007 19.070 21.856 34.117 21.856 5.694 0 11.093-1.268 15.928-3.535l65.815-30.294c13.010-6.090 21.86-19.071 21.86-34.12 0-20.743-16.816-37.558-37.558-37.558-5.694 0-11.093 1.267-15.928 3.535l-31.698 14.593-19.684-42.773c-1.471-3.119-2.329-6.776-2.329-10.632 0-10.188 5.992-18.977 14.644-23.034l3.475-1.594c13.005-6.093 21.852-19.074 21.852-34.12 0-20.746-16.818-37.564-37.564-37.564-0.005 0-0.011 0-0.016 0zM438.552 708.874c-20.73 0.028-37.525 16.84-37.525 37.574 0 5.691 1.265 11.088 3.53 15.922l48.881 106.212c6.090 13.007 19.070 21.856 34.117 21.856 20.741 0 37.555-16.814 37.555-37.555 0-5.695-1.268-11.093-3.536-15.928l-48.881-106.212c-6.087-13.015-19.071-21.87-34.123-21.87-0.006 0-0.012 0-0.018 0zM431.662 560.484c-25.917 0.027-50.47 5.832-72.453 16.193-11.968 5.651-20.816 18.631-20.816 33.679 0 20.744 16.817 37.561 37.561 37.561 5.696 0 11.098-1.268 15.934-3.537 11.545-5.46 25.347-8.704 39.907-8.704 52.979 0 95.927 42.948 95.927 95.927 0 38.448-22.621 71.614-55.279 86.915-13.598 6.338-22.447 19.318-22.447 34.367 0 20.743 16.816 37.558 37.558 37.558 5.694 0 11.093-1.267 15.928-3.535 58.929-27.702 99.157-86.791 99.157-155.278 0-94.462-76.528-171.048-170.966-171.146zM341.208 859.423c-20.733 0.015-37.535 16.825-37.535 37.56 0 8.947 3.129 17.164 8.352 23.616 19.381 24.078 48.936 39.401 82.070 39.401 10.988 0 21.583-1.685 31.539-4.811 14.817-4.62 25.925-18.884 25.925-35.743 0-20.743-16.814-37.557-37.557-37.557-3.884 0-7.63 0.589-11.154 1.684-2.355 0.736-5.368 1.201-8.491 1.201-9.601 0-18.175-4.396-23.819-11.286-6.974-8.628-17.491-14.066-29.276-14.066-0.018 0-0.038 0-0.056 0z" />
</font>
</defs>
</svg>
