<?xml version="1.0" standalone="no"?>
<!DOCTYPE svg PUBLIC "-//W3C//DTD SVG 1.1//EN" "http://www.w3.org/Graphics/SVG/1.1/DTD/svg11.dtd" >
<svg xmlns="http://www.w3.org/2000/svg">
<metadata>Generated by IcoMoon</metadata>
<defs>
<font id="gco" horiz-adv-x="1024">
<font-face units-per-em="1024" ascent="960" descent="-64" />
<missing-glyph horiz-adv-x="1024" />
<glyph unicode="&#x20;" horiz-adv-x="512" d="" />
<glyph unicode="&#xe900;" glyph-name="estrella" d="M908.934 569.041c-4.607 10.367-14.89 17.050-26.235 17.050h-244.793c-15.858 0-28.71-12.855-28.71-28.71 0-15.858 12.852-28.71 28.71-28.71h180.19l-147.44-163.305c-6.367-7.055-8.833-16.8-6.585-26.032l49.898-204.918-187.59 106.045c-8.758 4.95-19.472 4.955-28.235 0.010l-188.13-106.132 49.877 204.848c0.004 0.020 0.009 0.037 0.014 0.057l0.022 0.090c0.416 1.708 0.644 3.412 0.745 5.108 0.007 0.108 0.024 0.215 0.029 0.323 0.084 1.74-0.005 3.457-0.23 5.145-0.017 0.133-0.025 0.263-0.044 0.392-0.248 1.678-0.652 3.312-1.185 4.903-0.060 0.18-0.108 0.362-0.171 0.543-0.571 1.6-1.292 3.137-2.133 4.607-0.089 0.155-0.163 0.315-0.255 0.468-0.952 1.597-2.055 3.103-3.301 4.49-0.015 0.018-0.024 0.037-0.040 0.055l-0.057 0.065c-0.015 0.018-0.031 0.035-0.047 0.050l-147.333 163.19h195.215c11.52 0 21.927 6.887 26.427 17.492l84.697 199.532 35.15-82.885c6.19-14.595 23.045-21.413 37.642-15.22 14.597 6.19 21.413 23.043 15.222 37.64l-61.573 145.18c-4.5 10.608-14.905 17.497-26.427 17.5h-0.005c-11.52 0-21.927-6.887-26.427-17.492l-103.71-244.327h-240.815c-11.345 0-21.627-6.68-26.235-17.050-4.61-10.367-2.678-22.478 4.925-30.9l180.552-199.98-61.984-254.567c-2.708-11.118 1.445-22.777 10.565-29.682 5.098-3.86 11.2-5.82 17.332-5.82 4.845 0 9.708 1.223 14.105 3.705l231.675 130.7 231.182-130.69c9.965-5.63 22.318-4.81 31.45 2.095 9.127 6.905 13.283 18.572 10.575 29.693l-61.987 254.567 180.552 199.98c7.602 8.42 9.535 20.53 4.925 30.9z" />
<glyph unicode="&#xe901;" glyph-name="persona-cruz-salud" d="M177.481 849.010h0.003c14.025 0 25.703 10.058 28.21 23.355h26.838l-0.232-59.547c-0.060-15.855 12.745-28.76 28.6-28.82h0.115c15.8 0 28.645 12.78 28.705 28.6l0.345 88.365c0.030 7.635-2.985 14.965-8.37 20.375-5.388 5.407-12.707 8.447-20.34 8.447h-83.87c-15.855 0-28.71-12.852-28.71-28.707v-23.355c-0.003-15.858 12.85-28.712 28.707-28.712zM397.293 714.473v83.87c0 15.858-12.855 28.71-28.71 28.71h-27.855c-15.855 0-28.71-12.852-28.71-28.71 0-15.57 12.395-28.245 27.855-28.695v-26.465h-59.66c-15.855 0-28.71-12.852-28.71-28.71 0-15.855 12.855-28.71 28.71-28.71h88.37c15.855 0 28.71 12.855 28.71 28.71zM265.848 659.373c-14.045 0-25.738-10.087-28.22-23.415h-26.94v59.655c0 15.855-12.855 28.71-28.71 28.71s-28.71-12.855-28.71-28.71v-88.365c0-15.855 12.855-28.71 28.71-28.71h83.87c15.858 0 28.71 12.855 28.71 28.71v23.415c0 15.855-12.852 28.71-28.71 28.71zM103.463 738.673v26.465h59.655c15.855 0 28.71 12.852 28.71 28.71 0 15.855-12.855 28.71-28.71 28.71h-88.365c-15.855 0-28.71-12.855-28.71-28.71v-83.87c0-15.858 12.855-28.71 28.71-28.71h27.85c15.858 0 28.71 12.852 28.71 28.71 0 15.568-12.39 28.242-27.85 28.695zM999.876 253.265c-1.59 56.105-47.617 101.287-104.103 101.287h-71.592c-9.582 0-18.538-4.785-23.865-12.75l-3.233-4.835c-24.505-36.56-65.488-57.853-109.42-57.098-44.007 0.807-84.103 23.638-107.25 61.072-5.235 8.46-14.472 13.61-24.42 13.61h-71.59c-56.49 0-102.525-45.195-104.1-101.313-0.1-0.967-0.15-1.947-0.15-2.943v-265.147c0-15.858 12.855-28.71 28.71-28.71s28.71 12.852 28.71 28.71v265.147c0 25.825 21.010 46.835 46.83 46.835h56.435c34.31-45.99 87.683-73.607 145.77-74.672 60.327-1.132 116.725 26.632 152.603 74.672h56.562c25.825 0 46.832-21.010 46.832-46.835 0-0.015 0.003-0.033 0.003-0.048v-265.1c0-15.858 12.855-28.71 28.71-28.71s28.71 12.852 28.71 28.71v265.147c0 1.002-0.052 1.992-0.153 2.968zM594.283 391.103c14.43-6.56 31.455-0.18 38.015 14.255 6.565 14.433 0.185 31.455-14.25 38.017-26.087 11.86-48.6 30.625-65.105 54.265-50.72 72.645-32.875 173.012 39.77 223.732 35.195 24.57 77.845 33.965 120.11 26.45 42.255-7.51 79.055-31.025 103.62-66.213 24.57-35.197 33.965-77.855 26.45-120.115-7.51-42.258-31.030-79.062-66.205-103.617-8.995-6.27-18.575-11.615-28.47-15.89-14.555-6.285-21.26-23.18-14.975-37.738 4.685-10.847 15.26-17.337 26.37-17.337 3.8 0 7.66 0.76 11.37 2.36 13.425 5.797 26.39 13.030 38.555 21.51 47.77 33.347 79.695 83.303 89.89 140.662s-2.555 115.257-35.903 163.033c-33.343 47.765-83.295 79.685-140.655 89.88-57.362 10.195-115.257-2.555-163.025-35.905-98.61-68.845-122.828-205.078-53.983-303.683 22.39-32.075 52.967-57.548 88.42-73.667z" />
<glyph unicode="&#xe902;" glyph-name="pro-redonda-2" d="M861.104 448c0-192.805-156.299-349.104-349.104-349.104s-349.104 156.299-349.104 349.104c0 192.805 156.299 349.104 349.104 349.104s349.104-156.299 349.104-349.104z" />
<glyph unicode="&#xe903;" glyph-name="pro-autos-cruz" d="M683.882 823.761c15.855 0 28.71 12.852 28.71 28.707l0.003 31.542h91.677l-0.465-120.387c-0.063-15.858 12.743-28.76 28.6-28.822h0.112c15.803 0.003 28.647 12.782 28.707 28.6l0.577 149.21c0.030 7.635-2.983 14.965-8.37 20.372-5.388 5.41-12.707 8.45-20.34 8.45h-149.21c-15.855 0-28.71-12.855-28.71-28.71l-0.003-60.253c0-15.855 12.852-28.71 28.71-28.71zM982.307 792.223h-55.468c-15.855 0-28.71-12.855-28.71-28.712 0-15.855 12.855-28.71 28.71-28.71h26.757v-91.788h-120.502c-15.858 0-28.71-12.855-28.71-28.712 0-15.855 12.852-28.71 28.71-28.71h149.213c15.858 0 28.71 12.855 28.71 28.71v149.21c0 15.858-12.852 28.712-28.71 28.712zM832.522 554.051c-0.093 0-0.187-0.003-0.28-0.003-15.855-0.153-28.585-13.127-28.435-28.985l0.3-31.263h-91.515v120.5c0 15.858-12.852 28.712-28.71 28.712s-28.71-12.855-28.71-28.712v-149.21c0-15.855 12.852-28.71 28.71-28.71h149.213c7.662 0 15.007 3.062 20.398 8.507 5.392 5.443 8.385 12.818 8.313 20.477l-0.577 60.25c-0.153 15.76-12.975 28.435-28.705 28.435zM534.672 585.591h60.253c15.858 0 28.71 12.855 28.71 28.71 0 15.858-12.852 28.712-28.71 28.712h-31.542v91.788h120.5c15.858 0 28.71 12.855 28.71 28.71 0 15.858-12.852 28.712-28.71 28.712h-149.21c-15.858 0-28.71-12.855-28.71-28.712v-149.21c0-15.855 12.852-28.71 28.71-28.71zM619.957 383.331v41.97c0 65.415-53.217 118.635-118.632 118.635h-288.923c-65.415 0-118.632-53.22-118.632-118.635v-41.97c-45.079-12.592-78.285-53.93-78.285-102.975v-151.798c0-15.858 12.855-28.71 28.71-28.71s28.71 12.852 28.71 28.71v151.803c0 27.335 22.24 49.575 49.575 49.575 14.866 0 27.092 11.297 28.562 25.775 0.098 0.965 0.148 1.945 0.148 2.935v66.655c0 33.755 27.46 61.215 61.213 61.215h288.923c33.753 0 61.213-27.46 61.213-61.215v-66.655c0-0.99 0.050-1.97 0.148-2.935 1.47-14.478 13.696-25.775 28.562-25.775 27.335 0 49.575-22.24 49.575-49.58v-151.798c0-15.858 12.855-28.71 28.71-28.71s28.71 12.852 28.71 28.71v151.803c0 49.042-33.206 90.38-78.285 102.97zM161.622 128.558c-15.855 0-28.71-12.855-28.71-28.71v-116.57c0-15.858 12.855-28.71 28.71-28.71s28.71 12.852 28.71 28.71v116.57c0 15.855-12.855 28.71-28.71 28.71zM553.040 128.558c-15.855 0-28.71-12.855-28.71-28.71v-116.57c0-15.858 12.855-28.71 28.71-28.71s28.71 12.852 28.71 28.71v116.57c0 15.855-12.855 28.71-28.71 28.71zM415.887 120.716h-117.108c-15.858 0-28.71-12.852-28.71-28.71 0-15.855 12.852-28.71 28.71-28.71h117.108c15.858 0 28.71 12.855 28.71 28.71 0 15.858-12.852 28.71-28.71 28.71zM484.668 273.778c-21.839 2.825-41.837-12.58-44.668-34.418-2.832-21.835 12.577-41.835 34.416-44.667 21.837-2.832 41.837 12.575 44.668 34.412 2.829 21.84-12.577 41.84-34.416 44.673zM240.247 273.778c-21.839 2.825-41.837-12.58-44.668-34.418-2.832-21.835 12.575-41.835 34.413-44.667s41.837 12.575 44.668 34.412c2.832 21.84-12.577 41.84-34.413 44.673z" />
<glyph unicode="&#xe904;" glyph-name="pro-accidente" d="M211.651 577.528c7.432 0 14.86 2.868 20.48 8.588 11.115 11.31 10.955 29.49-0.355 40.603-7.855 7.72-12.182 18.035-12.182 29.050 0 22.465 18.277 40.74 40.743 40.74 22.46 0 40.735-18.275 40.735-40.74 0-10.88-4.238-21.113-11.933-28.81-11.21-11.212-11.207-29.392 0.007-40.603 11.21-11.207 29.392-11.207 40.603 0.007 18.535 18.542 28.743 43.19 28.743 69.405 0 54.128-44.033 98.162-98.155 98.162-54.128 0-98.162-44.035-98.162-98.162 0-26.542 10.425-51.405 29.358-70.008 5.59-5.492 12.857-8.232 20.12-8.232zM832.924 202.543h-640.842l-65.038 392.682c-2.59 15.643-17.335 26.225-33.017 23.632-15.643-2.59-26.222-17.373-23.632-33.015l69.017-416.703c2.295-13.855 14.28-24.018 28.325-24.018h665.187c15.855 0 28.71 12.852 28.71 28.71s-12.855 28.71-28.71 28.71zM231.219 531.068c-15.557-3.067-25.68-18.168-22.612-33.723l41.090-208.347c2.698-13.682 14.7-23.16 28.138-23.16 1.84 0 3.71 0.178 5.585 0.547 15.557 3.067 25.68 18.165 22.612 33.723l-41.090 208.347c-3.067 15.555-18.158 25.68-33.723 22.612zM338.924 526.176l29.085-137.898c2.853-13.518 14.777-22.792 28.063-22.792 1.965 0 3.958 0.205 5.955 0.625 15.515 3.272 25.44 18.503 22.168 34.017l-29.085 137.898c-3.275 15.517-18.505 25.435-34.017 22.168-15.515-3.272-25.44-18.503-22.168-34.017zM696.279 342.313l-50.757-40.208-100.321 83.918c-0.018 0.015-0.039 0.022-0.058 0.037-1.443 1.2-2.99 2.25-4.618 3.135-0.068 0.037-0.133 0.082-0.201 0.12-1.596 0.852-3.268 1.545-4.989 2.083-0.102 0.033-0.202 0.063-0.304 0.095-1.718 0.515-3.484 0.878-5.274 1.065-0.018 0.003-0.037 0.003-0.055 0.003-3.576 0.37-7.245 0.065-10.816-0.96-0.030-0.010-0.061-0.015-0.092-0.022-1.612-0.468-3.198-1.11-4.751-1.88-0.18-0.090-0.364-0.163-0.543-0.255-0.066-0.035-0.134-0.057-0.199-0.093l-150.265-79.915c-14-7.445-19.312-24.83-11.867-38.83 5.16-9.705 15.097-15.235 25.373-15.235 4.547 0 9.16 1.085 13.455 3.367l133.195 70.835 103.417-86.508c0.065-0.055 0.139-0.088 0.204-0.142 1.187-0.975 2.437-1.84 3.74-2.6 0.262-0.155 0.529-0.287 0.794-0.432 1.176-0.637 2.381-1.2 3.622-1.663 0.193-0.072 0.378-0.165 0.572-0.232 1.34-0.468 2.713-0.807 4.101-1.072 0.37-0.070 0.737-0.127 1.109-0.185 1.391-0.208 2.79-0.35 4.198-0.355 0.022 0 0.043-0.007 0.064-0.007 0.006 0 0.012 0.003 0.018 0.003s0.012-0.003 0.017-0.003c0.022 0 0.044 0.007 0.066 0.007 1.351 0.005 2.695 0.135 4.032 0.327 0.363 0.055 0.722 0.11 1.085 0.175 1.342 0.248 2.672 0.562 3.971 1 0.155 0.052 0.304 0.125 0.458 0.18 1.223 0.435 2.412 0.967 3.575 1.57 0.267 0.14 0.533 0.27 0.797 0.417 1.271 0.712 2.499 1.512 3.668 2.427 0.050 0.040 0.106 0.065 0.156 0.103l69.078 54.723c12.43 9.845 14.523 27.903 4.677 40.33-9.845 12.43-27.897 14.527-40.332 4.677zM277.864 110.168c-15.858 0-28.71-12.855-28.71-28.712l0.003-87.43c0-15.855 12.855-28.71 28.71-28.71 15.858 0 28.71 12.855 28.71 28.712l-0.003 87.43c0 15.858-12.855 28.71-28.71 28.71zM694.561 110.168c-15.855 0-28.71-12.855-28.71-28.71v-87.432c0-15.855 12.855-28.71 28.71-28.71s28.71 12.855 28.71 28.71v87.432c0 15.855-12.855 28.71-28.71 28.71zM647.476 826.746h0.003c15.855 0 28.71 12.852 28.71 28.707v17.81h81.37l-0.428-110.077c-0.063-15.858 12.743-28.76 28.598-28.822h0.115c15.803 0.003 28.645 12.782 28.707 28.598l0.54 138.9c0.030 7.635-2.983 14.965-8.37 20.375-5.388 5.407-12.705 8.447-20.34 8.447h-138.9c-15.855 0-28.71-12.852-28.71-28.71l-0.003-46.518c0-15.855 12.852-28.71 28.707-28.71zM925.281 791.783h-42.065c-15.855 0-28.71-12.852-28.71-28.71 0-15.855 12.855-28.71 28.71-28.71h13.355v-81.477h-110.19c-15.858 0-28.71-12.855-28.71-28.71 0-15.858 12.852-28.71 28.71-28.71h138.9c15.858 0 28.71 12.852 28.71 28.71v138.898c0 15.858-12.852 28.71-28.71 28.71zM806.801 465.093c5.392 5.458 8.377 12.845 8.287 20.517l-0.54 46.512c-0.182 15.855-13.255 28.513-29.040 28.375-15.855-0.185-28.56-13.187-28.375-29.042l0.202-17.47h-81.147v110.19c0 15.855-12.852 28.71-28.71 28.71s-28.71-12.855-28.71-28.71v-138.9c0-15.855 12.852-28.71 28.71-28.71h138.902c7.673 0 15.025 3.070 20.42 8.528zM508.584 595.466h46.515c15.858 0 28.71 12.852 28.71 28.71 0 15.855-12.852 28.71-28.71 28.71h-17.805v81.477h110.185c15.858 0 28.71 12.855 28.71 28.71 0 15.858-12.852 28.71-28.71 28.71h-138.895c-15.858 0-28.71-12.852-28.71-28.71v-138.898c0-15.858 12.852-28.71 28.71-28.71z" />
<glyph unicode="&#xe905;" glyph-name="pro-maletin" d="M377.538 576.771h268.923c15.858 0 28.71 12.852 28.71 28.71 0 15.855-12.852 28.71-28.71 28.71h-268.923c-15.858 0-28.71-12.855-28.71-28.71 0-15.858 12.852-28.71 28.71-28.71zM196.523 576.773h34.15c15.858 0 28.71 12.852 28.71 28.71 0 15.855-12.852 28.71-28.71 28.71h-34.15c-52.903 0-95.94-43.043-95.94-95.948v-403.378c0-0.993 0.051-1.972 0.149-2.94 1.574-51.535 43.881-93.002 95.791-93.002h34.15c15.858 0 28.71 12.855 28.71 28.712 0 15.855-12.852 28.71-28.71 28.71h-34.15c-21.24 0-38.52 17.28-38.52 38.52v403.378c0 21.245 17.28 38.527 38.52 38.527zM923.416 538.246c0 52.905-43.037 95.948-95.94 95.948h-25.878c-15.858 0-28.71-12.855-28.71-28.71 0-15.858 12.852-28.71 28.71-28.71h25.878c21.24 0 38.52-17.283 38.52-38.527v-403.378c0-21.24-17.28-38.52-38.52-38.52h-25.878c-15.858 0-28.71-12.855-28.71-28.71 0-15.858 12.852-28.712 28.71-28.712h25.878c51.91 0 94.217 41.467 95.791 93.002 0.098 0.967 0.149 1.947 0.149 2.94v403.378zM650.596 96.346h-268.923c-15.858 0-28.71-12.852-28.71-28.71 0-15.855 12.852-28.71 28.71-28.71h268.923c15.858 0 28.71 12.855 28.71 28.71 0 15.858-12.852 28.71-28.71 28.71zM306.168 592.833c-15.858 0-28.71-12.852-28.71-28.71v-455.133c0-15.855 12.852-28.71 28.71-28.71s28.71 12.855 28.71 28.71v455.133c0 15.858-12.852 28.71-28.71 28.71zM726.098 592.833c-15.858 0-28.71-12.852-28.71-28.71v-455.133c0-15.855 12.852-28.71 28.71-28.71s28.71 12.855 28.71 28.71v455.133c0 15.858-12.852 28.71-28.71 28.71zM377.538 681.218c15.858 0 28.71 12.855 28.71 28.712 0 21.24 17.28 38.52 38.52 38.52h134.457c21.243 0 38.525-17.28 38.525-38.52 0-15.858 12.852-28.712 28.71-28.712s28.71 12.855 28.71 28.712c0 52.9-43.040 95.94-95.945 95.94h-134.457c-52.903 0-95.94-43.040-95.94-95.94 0-15.858 12.852-28.712 28.71-28.712z" />
<glyph unicode="&#xe906;" glyph-name="usuario" d="M436.957 479.546c13.027-9.040 30.915-5.812 39.955 7.215 9.042 13.027 5.812 30.915-7.215 39.958-9.405 6.527-17.28 14.82-23.408 24.65-11.918 19.115-15.68 41.727-10.59 63.673s18.42 40.592 37.535 52.513c39.453 24.603 91.577 12.513 116.185-26.947 11.918-19.115 15.68-41.73 10.59-63.675-5.090-21.942-18.42-40.592-37.535-52.51-13.455-8.387-17.563-26.098-9.172-39.553 5.443-8.73 14.808-13.525 24.39-13.525 5.185 0 10.437 1.405 15.163 4.353 32.13 20.033 54.538 51.378 63.092 88.265 8.552 36.885 2.23 74.895-17.802 107.025-41.352 66.325-128.955 86.648-195.29 45.292-32.13-20.033-54.538-51.38-63.092-88.268-8.552-36.885-2.23-74.895 17.802-107.022 10.28-16.492 23.535-30.437 39.393-41.443zM611.627 215.661h-273.977v145.878c0 16.255 13.225 29.48 29.48 29.48h45.243c15.855 0 28.71 12.852 28.71 28.71 0 15.855-12.855 28.71-28.71 28.71h-45.243c-47.918 0-86.9-38.983-86.9-86.9v-174.587c0-15.855 12.855-28.71 28.71-28.71h302.687c15.858 0 28.71 12.855 28.71 28.71 0 15.858-12.852 28.71-28.71 28.71zM656.87 448.438h-45.243c-15.855 0-28.71-12.855-28.71-28.71 0-15.858 12.855-28.71 28.71-28.71h45.243c16.255 0 29.48-13.225 29.48-29.48v-174.587c0-15.855 12.855-28.71 28.71-28.71 15.858 0 28.71 12.855 28.71 28.71v174.587c0 47.918-38.983 86.9-86.9 86.9z" />
<glyph unicode="&#xe907;" glyph-name="enlace-externo" d="M903.824 868.561h-549.6c-15.855 0-28.71-12.855-28.71-28.71 0-15.858 12.855-28.71 28.71-28.71h520.89v-520.93c0-15.858 12.855-28.71 28.71-28.71s28.71 12.852 28.71 28.71v549.64c0 15.855-12.855 28.71-28.71 28.71zM531.899 702.768c-11.21 11.212-29.39 11.212-40.6 0l-193.64-193.64c-11.215-11.212-11.215-29.39 0-40.603 5.605-5.605 12.95-8.41 20.3-8.41s14.695 2.805 20.3 8.41l193.64 193.64c11.215 11.212 11.215 29.39 0 40.603zM726.169 467.896l-192.655-192.65c-11.215-11.212-11.215-29.39 0-40.603 5.605-5.607 12.95-8.41 20.3-8.41 7.345 0 14.695 2.802 20.3 8.41l192.655 192.647c11.215 11.212 11.215 29.39 0 40.603-11.205 11.21-29.385 11.218-40.6 0.003zM237.603 447.588c-21.617 0-39.14-17.522-39.14-39.14s17.523-39.14 39.14-39.14c21.621 0 39.145 17.522 39.145 39.14s-17.523 39.14-39.145 39.14zM159.317 369.303c-21.617 0-39.14-17.522-39.14-39.14 0-21.622 17.524-39.145 39.14-39.145s39.14 17.522 39.14 39.145c0 21.618-17.523 39.14-39.14 39.14zM472.458 212.721c-21.621 0-39.144-17.525-39.144-39.145 0-21.618 17.523-39.14 39.144-39.14 21.617 0 39.14 17.522 39.14 39.14 0 21.62-17.523 39.145-39.14 39.145zM394.168 134.436c-21.617 0-39.14-17.53-39.14-39.148 0-21.615 17.523-39.137 39.14-39.137s39.145 17.522 39.145 39.137c0 21.618-17.528 39.148-39.145 39.148z" />
<glyph unicode="&#xe908;" glyph-name="avion" d="M947.081 807.293c-6.905 8.658-18.175 12.577-28.955 10.068l-825.26-191.968c-10.13-2.358-18.19-10.005-21.075-19.995-2.89-9.99-0.145-20.76 7.165-28.155l171.155-173.11c8.245-8.338 20.74-10.82 31.525-6.288l260.070 109.17c14.625 6.135 21.5 22.962 15.365 37.585-6.135 14.62-22.99 21.495-37.585 15.36l-242.185-101.66-121.41 122.798 716.525 166.678-288.66-592.537-219.965 218.345c-8.6 8.537-21.64 10.755-32.57 5.545-10.94-5.21-17.43-16.728-16.22-28.782l22.44-223.94c0.975-9.742 6.85-18.318 15.585-22.745 8.74-4.425 19.125-4.1 27.56 0.878l108.375 63.89 82.81-82.203c5.42-5.38 12.71-8.335 20.225-8.332 1.595 0 3.2 0.133 4.795 0.402 9.135 1.55 16.96 7.408 21.015 15.735l332.635 682.792c4.85 9.955 3.54 21.81-3.36 30.47zM390.096 176.801l-9.985 99.68 66.72-66.233-56.735-33.447z" />
<glyph unicode="&#xe909;" glyph-name="exclamacion" d="M511.998 205.183c15.855 0 28.71 12.855 28.71 28.71v616.18c0 15.858-12.855 28.712-28.71 28.712s-28.71-12.855-28.71-28.712v-616.18c0-15.855 12.855-28.71 28.71-28.71zM512.002 126.468c-19.338 0-35.012-15.568-35.012-34.768s15.674-34.77 35.012-34.77c19.334 0 35.007 15.57 35.007 34.77s-15.673 34.768-35.007 34.768z" />
<glyph unicode="&#xe90a;" glyph-name="pro-inspeccion" d="M819.185 755.188c-75.090 75.082-197.275 75.073-272.365-0.003-57.89-57.902-72.865-146.307-37.255-219.99 6.9-14.275 24.055-20.257 38.345-13.358 14.275 6.9 20.255 24.067 13.355 38.343-24.99 51.71-14.475 113.76 26.16 154.403 52.7 52.692 138.45 52.695 191.16 0 52.695-52.7 52.695-138.45 0-191.15-37.82-37.817-94.505-49.79-144.39-30.518-14.785 5.715-31.41-1.645-37.125-16.435s1.645-31.415 16.435-37.127c22.535-8.705 46.040-12.935 69.355-12.935 50.22 0 99.54 19.625 136.325 56.413 75.085 75.088 75.085 197.265 0 272.357zM541.080 477.081c-11.21 11.21-29.39 11.21-40.6 0l-26.050-26.050-26.055 26.050c-11.21 11.21-29.39 11.21-40.6-0.003-11.215-11.212-11.215-29.39 0-40.603l46.352-46.348c0.001 0 0.001-0.003 0.003-0.003l26.045-26.050-211.45-211.45c-14.36-14.363-37.735-14.373-52.105-0.010-14.36 14.365-14.36 37.74 0 52.105l164.955 164.957c11.215 11.212 11.215 29.392 0 40.603-11.21 11.212-29.39 11.212-40.6 0l-164.955-164.96c-36.75-36.75-36.75-96.552 0-133.307 18.375-18.373 42.51-27.557 66.645-27.557 24.14 0.003 48.285 9.19 66.66 27.565l231.755 231.755c5.385 5.385 8.41 12.685 8.41 20.3s-3.025 14.917-8.41 20.302l-26.050 26.050 26.050 26.047c11.215 11.212 11.215 29.392 0 40.605z" />
<glyph unicode="&#xe90b;" glyph-name="mensaje-leido" d="M893.041 533.686l-365.195 241.73c-9.6 6.36-22.090 6.36-31.69 0l-365.195-241.73c-8.035-5.315-12.865-14.307-12.865-23.94v-365.223c0-15.855 12.855-28.71 28.71-28.71h486.925c15.855 0 28.71 12.855 28.71 28.71 0 15.858-12.855 28.712-28.71 28.712h-458.215v321.085l336.485 222.725 336.485-222.725v-321.085h-91.665c-15.855 0-28.71-12.855-28.71-28.712 0-15.855 12.855-28.71 28.71-28.71h120.375c15.855 0 28.71 12.855 28.71 28.71v365.223c0 9.633-4.83 18.625-12.865 23.94zM269.131 236.951c5.615-5.68 13.015-8.522 20.415-8.522 7.295 0 14.59 2.762 20.185 8.295l105.524 104.342 83.571-43.16c4.135-2.135 8.655-3.2 13.175-3.2 4.47 0 8.945 1.042 13.040 3.13l83.509 42.572 113.936-104.435c5.51-5.053 12.46-7.545 19.39-7.545 7.77 0 15.515 3.133 21.175 9.31 10.715 11.69 9.925 29.85-1.765 40.565l-98.129 89.945 105.344 53.705c14.125 7.203 19.74 24.492 12.54 38.617s-24.485 19.743-38.62 12.537l-230.335-117.425-230.375 118.983c-14.090 7.278-31.41 1.75-38.685-12.335-7.275-14.090-1.755-31.408 12.335-38.685l106.25-54.875-92.25-91.218c-11.275-11.148-11.38-29.328-0.23-40.603z" />
<glyph unicode="&#xe90c;" glyph-name="pro-edificios" d="M760.283 233.576h-213.23c-15.855 0-28.71-12.855-28.71-28.712v-146.64c0-15.858 12.855-28.712 28.71-28.712s28.71 12.855 28.71 28.712v117.93h155.81v-118.077c0-15.858 12.855-28.71 28.71-28.71s28.71 12.852 28.71 28.71v146.787c0 15.858-12.855 28.712-28.71 28.712zM902.063 866.636h-496.645c-15.855 0-28.71-12.855-28.71-28.71v-394.85h-254.77c-15.855 0-28.71-12.852-28.71-28.71v-352.212c0-15.858 12.855-28.712 28.71-28.712s28.71 12.855 28.71 28.712v323.502h226.060v-327.432c0-15.858 12.855-28.712 28.71-28.712s28.71 12.855 28.71 28.712v352.41c0.159 1.225 0.27 2.465 0.27 3.732 0 1.27-0.111 2.51-0.27 3.735v391.115h439.225v-751.14c0-15.858 12.855-28.71 28.71-28.71s28.71 12.852 28.71 28.71v779.85c0 15.855-12.855 28.71-28.71 28.71zM262.838 146.613c15.855 0 28.71 12.855 28.71 28.712v141.797c0 15.855-12.855 28.71-28.71 28.71s-28.71-12.855-28.71-28.71v-141.797c0-15.858 12.855-28.712 28.71-28.712zM289.348 79.976c-0.715 1.742-1.585 3.38-2.61 4.967-1.075 1.537-2.255 3.022-3.585 4.353-5.375 5.325-12.75 8.395-20.325 8.395-7.525 0-14.95-3.070-20.275-8.395-1.33-1.33-2.56-2.815-3.585-4.353-1.025-1.588-1.945-3.225-2.66-4.967-0.72-1.74-1.23-3.53-1.64-5.375-0.36-1.842-0.565-3.737-0.565-5.633 0-7.525 3.075-14.95 8.45-20.275 5.325-5.375 12.75-8.398 20.275-8.398 7.575 0 14.95 3.022 20.325 8.398 5.325 5.325 8.4 12.75 8.4 20.275 0 1.895-0.205 3.79-0.565 5.633-0.36 1.845-0.92 3.635-1.64 5.375zM516.728 701.391c7.525 0 14.95 3.073 20.275 8.398 5.375 5.375 8.45 12.748 8.45 20.327 0 7.577-3.075 14.95-8.45 20.275-5.325 5.375-12.75 8.447-20.275 8.447-7.575 0-14.95-3.073-20.325-8.447-5.325-5.325-8.4-12.697-8.4-20.275 0-7.58 3.075-14.952 8.4-20.327 5.375-5.325 12.75-8.398 20.325-8.398zM643.143 706.256c1.535-1.075 3.225-1.945 4.915-2.663 1.74-0.718 3.585-1.28 5.375-1.637 1.845-0.36 3.735-0.565 5.63-0.565 7.53 0 14.95 3.073 20.275 8.398 1.335 1.332 2.56 2.815 3.585 4.402 1.025 1.537 1.945 3.225 2.665 4.915 0.715 1.742 1.28 3.585 1.635 5.377 0.36 1.893 0.565 3.737 0.565 5.633 0 7.525-3.070 14.95-8.45 20.275-6.655 6.705-16.535 9.727-25.905 7.885-1.79-0.41-3.635-0.923-5.375-1.64-1.69-0.715-3.38-1.637-4.915-2.663-1.59-1.023-3.075-2.252-4.355-3.583-1.33-1.28-2.56-2.765-3.585-4.353-1.020-1.537-1.945-3.225-2.66-4.967-0.715-1.69-1.28-3.532-1.64-5.325-0.355-1.893-0.56-3.737-0.56-5.63 0-7.58 3.070-14.952 8.445-20.327 1.28-1.28 2.765-2.508 4.355-3.532zM827.923 741.071c-0.72 1.742-1.59 3.43-2.665 4.967-1.020 1.588-2.25 3.073-3.53 4.402-5.375 5.325-12.75 8.398-20.325 8.398-7.58 0-14.955-3.073-20.33-8.398-5.325-5.375-8.395-12.748-8.395-20.325 0-1.895 0.205-3.74 0.565-5.633 0.355-1.793 0.92-3.635 1.635-5.377 0.72-1.69 1.64-3.378 2.665-4.915 1.020-1.588 2.25-3.070 3.53-4.402 5.375-5.325 12.75-8.398 20.33-8.398 7.575 0 14.95 3.073 20.325 8.398 5.325 5.375 8.395 12.8 8.395 20.327 0 1.893-0.205 3.737-0.56 5.63-0.36 1.793-0.925 3.635-1.64 5.325zM488.568 582.711c0.36-1.793 0.92-3.635 1.64-5.377 0.715-1.69 1.585-3.378 2.66-4.915 1.025-1.588 2.205-3.073 3.535-4.402 1.33-1.28 2.815-2.51 4.35-3.532 1.59-1.025 3.225-1.947 4.97-2.663 1.74-0.718 3.53-1.28 5.375-1.64 1.84-0.357 3.735-0.562 5.63-0.562 1.845 0 3.74 0.205 5.58 0.562 1.845 0.36 3.635 0.923 5.375 1.64 1.745 0.715 3.435 1.637 4.97 2.663 1.585 1.023 3.070 2.252 4.35 3.532 1.33 1.33 2.56 2.815 3.585 4.402 1.025 1.537 1.945 3.225 2.66 4.915 0.72 1.742 1.23 3.585 1.64 5.377 0.36 1.842 0.565 3.737 0.565 5.63 0 7.527-3.075 14.952-8.45 20.275-1.28 1.332-2.765 2.56-4.35 3.585-1.535 1.025-3.225 1.945-4.97 2.663-1.74 0.718-3.53 1.23-5.375 1.637-3.685 0.718-7.525 0.718-11.21 0-1.845-0.408-3.635-0.92-5.375-1.637-1.745-0.718-3.38-1.637-4.97-2.663-1.535-1.025-3.020-2.252-4.35-3.585-5.325-5.322-8.4-12.748-8.4-20.275 0-1.893 0.205-3.788 0.565-5.63zM630.903 582.711c0.36-1.793 0.925-3.635 1.64-5.377 0.715-1.69 1.64-3.378 2.66-4.915 1.025-1.588 2.255-3.073 3.585-4.402 1.28-1.28 2.765-2.51 4.355-3.532 1.535-1.025 3.225-1.947 4.915-2.663 1.74-0.718 3.585-1.28 5.375-1.64 1.845-0.357 3.735-0.562 5.63-0.562 7.53 0 14.95 3.073 20.275 8.398 1.335 1.33 2.56 2.815 3.585 4.402 1.025 1.537 1.945 3.225 2.665 4.915 0.715 1.742 1.28 3.585 1.635 5.377 0.36 1.893 0.565 3.737 0.565 5.63 0 7.58-3.070 14.952-8.45 20.275-6.655 6.708-16.535 9.73-25.905 7.885-1.79-0.357-3.635-0.92-5.375-1.637-1.69-0.718-3.38-1.637-4.915-2.663-1.59-1.025-3.075-2.252-4.355-3.585-1.33-1.28-2.56-2.762-3.585-4.35-1.020-1.537-1.945-3.225-2.66-4.967-0.715-1.69-1.28-3.532-1.64-5.325-0.355-1.893-0.56-3.737-0.56-5.633 0-1.893 0.205-3.737 0.56-5.63zM801.403 617.066c-7.58 0-14.955-3.073-20.33-8.398-1.28-1.332-2.51-2.815-3.53-4.402-1.025-1.537-1.945-3.225-2.665-4.967-0.715-1.69-1.28-3.532-1.635-5.375-0.36-1.842-0.565-3.737-0.565-5.582 0-7.577 3.070-14.95 8.395-20.325 5.375-5.325 12.75-8.398 20.33-8.398 7.575 0 14.95 3.073 20.325 8.398 1.28 1.33 2.51 2.815 3.53 4.402 1.075 1.537 1.945 3.225 2.665 4.915 0.715 1.742 1.28 3.585 1.64 5.377 0.355 1.842 0.56 3.737 0.56 5.63 0 7.527-3.070 14.952-8.395 20.327-5.375 5.325-12.75 8.398-20.325 8.398zM496.403 426.293c1.33-1.33 2.815-2.56 4.35-3.583 1.59-1.025 3.225-1.947 4.97-2.663 1.74-0.718 3.53-1.28 5.375-1.64 1.84-0.357 3.735-0.562 5.63-0.562 1.845 0 3.74 0.205 5.58 0.562 1.845 0.36 3.635 0.923 5.375 1.64 1.745 0.715 3.435 1.637 4.97 2.663 1.585 1.023 3.070 2.252 4.35 3.583 5.375 5.325 8.45 12.697 8.45 20.275 0 1.895-0.205 3.737-0.565 5.633-0.41 1.793-0.92 3.635-1.64 5.325-0.715 1.74-1.635 3.43-2.66 4.967-1.025 1.588-2.255 3.070-3.585 4.402-1.28 1.28-2.765 2.508-4.35 3.532-1.535 1.025-3.225 1.945-4.97 2.663-1.74 0.718-3.53 1.23-5.375 1.637-3.685 0.718-7.475 0.718-11.21 0-1.845-0.408-3.635-0.92-5.375-1.637-1.745-0.718-3.38-1.637-4.97-2.663-1.535-1.025-3.020-2.252-4.35-3.532-1.33-1.332-2.51-2.815-3.535-4.402-1.075-1.537-1.945-3.227-2.66-4.967-0.72-1.69-1.28-3.532-1.64-5.325-0.36-1.895-0.565-3.737-0.565-5.633 0-7.577 3.075-14.95 8.4-20.275zM630.903 440.936c0.36-1.79 0.925-3.635 1.64-5.375 0.715-1.69 1.64-3.38 2.66-4.915 1.025-1.588 2.255-3.073 3.585-4.353 1.28-1.33 2.765-2.56 4.355-3.583 1.535-1.025 3.225-1.947 4.915-2.663 1.74-0.718 3.585-1.28 5.375-1.64 1.845-0.357 3.735-0.562 5.63-0.562 7.53 0 14.95 3.073 20.275 8.447 5.38 5.325 8.45 12.697 8.45 20.275 0 1.845-0.205 3.737-0.565 5.582-0.355 1.842-0.92 3.685-1.635 5.375-0.72 1.74-1.64 3.43-2.665 4.967-1.025 1.588-2.25 3.070-3.585 4.402-6.655 6.655-16.535 9.727-25.905 7.833-1.79-0.357-3.635-0.92-5.375-1.637-1.69-0.718-3.38-1.637-4.915-2.663-1.59-1.025-3.075-2.252-4.355-3.532-5.375-5.375-8.445-12.75-8.445-20.327 0-1.893 0.205-3.737 0.56-5.633zM827.923 457.526c-0.72 1.74-1.59 3.43-2.665 4.967-1.020 1.588-2.25 3.070-3.53 4.35-5.375 5.377-12.75 8.45-20.325 8.45-7.53 0-14.955-3.073-20.33-8.45-5.325-5.322-8.395-12.697-8.395-20.275s3.070-14.95 8.395-20.325c5.375-5.325 12.75-8.398 20.33-8.398 7.575 0 14.95 3.073 20.325 8.398 1.28 1.33 2.51 2.815 3.53 4.402 1.075 1.535 1.945 3.225 2.665 4.915 0.715 1.74 1.28 3.585 1.64 5.375 0.355 1.895 0.56 3.74 0.56 5.633 0 1.845-0.205 3.737-0.56 5.633-0.36 1.793-0.925 3.635-1.64 5.325zM527.683 278.276c1.745 0.715 3.435 1.585 4.97 2.66 1.585 1.025 3.070 2.255 4.35 3.535 5.375 5.375 8.45 12.748 8.45 20.325s-3.075 14.95-8.45 20.275c-5.325 5.377-12.75 8.45-20.275 8.45-7.575 0-14.95-3.073-20.325-8.45-5.325-5.325-8.4-12.697-8.4-20.275s3.075-14.95 8.4-20.325c1.33-1.28 2.815-2.51 4.35-3.535 1.59-1.075 3.225-1.945 4.97-2.66 1.74-0.718 3.53-1.28 5.375-1.64 1.84-0.357 3.735-0.562 5.63-0.562 1.845 0 3.74 0.205 5.58 0.562 1.845 0.36 3.635 0.923 5.375 1.64zM638.788 284.471c1.28-1.28 2.765-2.51 4.355-3.535 1.535-1.075 3.225-1.945 4.915-2.66 1.74-0.718 3.585-1.28 5.375-1.64 1.845-0.357 3.735-0.562 5.63-0.562 7.53 0 14.95 3.073 20.275 8.398 1.335 1.33 2.56 2.815 3.585 4.402 1.025 1.535 1.945 3.225 2.665 4.915 0.715 1.74 1.28 3.583 1.635 5.377 0.36 1.893 0.565 3.735 0.565 5.63 0 7.527-3.070 14.95-8.45 20.275-6.655 6.708-16.535 9.73-25.905 7.885-1.79-0.41-3.635-0.92-5.375-1.637-1.69-0.718-3.38-1.637-4.915-2.663-1.59-1.025-3.075-2.252-4.355-3.585-1.33-1.28-2.56-2.765-3.585-4.35-1.020-1.537-1.945-3.227-2.66-4.967-0.715-1.69-1.28-3.532-1.64-5.325-0.355-1.895-0.56-3.788-0.56-5.633 0-7.577 3.070-14.95 8.445-20.325zM827.923 315.753c-0.72 1.74-1.59 3.43-2.665 4.967-1.020 1.585-2.2 3.070-3.53 4.35-5.375 5.377-12.75 8.45-20.325 8.45-7.58 0-14.955-3.073-20.33-8.45-1.28-1.28-2.51-2.765-3.53-4.35-1.025-1.537-1.945-3.227-2.665-4.967-0.715-1.69-1.28-3.532-1.635-5.377-0.36-1.842-0.565-3.735-0.565-5.58 0-7.577 3.070-14.95 8.395-20.325 5.375-5.325 12.75-8.398 20.33-8.398 7.575 0 14.95 3.073 20.325 8.398 1.28 1.33 2.51 2.815 3.53 4.402 1.075 1.535 1.945 3.225 2.665 4.915 0.715 1.74 1.28 3.583 1.64 5.377 0.355 1.893 0.56 3.735 0.56 5.63 0 1.845-0.205 3.737-0.56 5.58-0.36 1.845-0.925 3.687-1.64 5.377z" />
<glyph unicode="&#xe90d;" glyph-name="accion-insatis" d="M552.601 447.999l260.588 260.613c11.212 11.212 11.21 29.39 0 40.603-11.215 11.21-29.39 11.21-40.605-0.003l-260.585-260.607-260.585 260.607c-11.21 11.212-29.39 11.212-40.6 0.003-11.215-11.212-11.215-29.39-0.005-40.603l260.59-260.613-260.59-260.61c-11.21-11.212-11.21-29.39 0.005-40.603 5.605-5.607 12.95-8.408 20.3-8.408 7.345 0 14.695 2.802 20.3 8.41l260.585 260.605 260.585-260.605c5.607-5.607 12.955-8.41 20.305-8.41 7.345 0 14.695 2.802 20.3 8.408 11.21 11.212 11.212 29.39 0 40.603l-260.588 260.61z" />
<glyph unicode="&#xe90e;" glyph-name="accion-satis" d="M410.661 85.589c-7.575 0-14.889 2.999-20.3 8.41l-202.674 202.687c-11.211 11.212-11.21 29.391 0.003 40.603s29.39 11.211 40.603-0.001l177.909-177.921 385.919 578.928c8.794 13.193 26.62 16.76 39.814 7.964s16.759-26.62 7.964-39.814l-405.345-608.070c-4.771-7.158-12.5-11.798-21.060-12.646-0.945-0.093-1.89-0.14-2.831-0.14z" />
<glyph unicode="&#xe90f;" glyph-name="ajustes" d="M712.684 447.999c0 110.657-90.028 200.685-200.685 200.685s-200.685-90.028-200.685-200.685 90.028-200.685 200.685-200.685 200.685 90.028 200.685 200.685zM368.734 447.999c0 78.995 64.268 143.265 143.265 143.265s143.265-64.27 143.265-143.265-64.268-143.263-143.265-143.263-143.265 64.268-143.265 143.263zM416.289 783.392c15.858 0 28.71 12.852 28.71 28.71v24.468h64.71v-76.7c0-7.615 3.025-14.917 8.408-20.3 5.385-5.385 12.69-8.41 20.305-8.41l69.29 0.003c15.855 0.003 28.71 12.855 28.707 28.712 0 15.855-12.855 28.71-28.712 28.71l-40.577-0.003v76.697c0 15.858-12.852 28.71-28.71 28.71h-122.13c-15.858 0-28.71-12.852-28.71-28.71v-53.177c0-15.858 12.852-28.71 28.71-28.71zM722.082 752.834l17.302 17.302 45.757-45.757-54.235-54.235c-5.385-5.383-8.41-12.685-8.41-20.3s3.025-14.917 8.41-20.302l48.997-48.993c5.607-5.607 12.953-8.41 20.3-8.41s14.698 2.805 20.302 8.41c11.21 11.212 11.21 29.39-0.003 40.603l-28.692 28.692 54.233 54.235c5.383 5.383 8.408 12.685 8.408 20.3s-3.025 14.917-8.408 20.302l-86.358 86.358c-11.21 11.212-29.39 11.215-40.605 0l-37.603-37.603c-11.212-11.21-11.212-29.39 0-40.603 11.21-11.21 29.388-11.212 40.603 0zM929.279 572.419h-53.177c-15.855 0-28.71-12.852-28.71-28.71 0-15.855 12.855-28.71 28.71-28.71h24.468v-64.71h-76.697c-7.615 0-14.92-3.025-20.302-8.408-5.385-5.385-8.41-12.688-8.408-20.302v-69.29c0-15.858 12.855-28.71 28.712-28.71s28.71 12.855 28.707 28.712v40.577h76.697c15.858 0 28.71 12.855 28.71 28.71v122.13c0 15.858-12.852 28.71-28.71 28.71zM857.437 278.519c-11.212 11.212-29.39 11.212-40.603 0s-11.212-29.39 0-40.603l17.302-17.3-45.757-45.757-54.233 54.235c-5.385 5.385-12.69 8.41-20.302 8.41-7.615 0-14.917-3.028-20.302-8.41l-48.995-48.997c-11.21-11.212-11.21-29.392 0.005-40.603 11.21-11.212 29.39-11.212 40.6 0l28.692 28.695 54.233-54.235c5.385-5.383 12.688-8.408 20.302-8.408s14.917 3.025 20.302 8.408l86.36 86.36c5.383 5.385 8.408 12.688 8.408 20.302s-3.025 14.917-8.408 20.3l-37.605 37.603zM607.712 112.609c-15.858 0-28.71-12.855-28.71-28.71v-24.47h-64.71v76.7c0 7.615-3.025 14.917-8.41 20.302-5.385 5.383-12.688 8.408-20.302 8.408l-69.29-0.003c-15.858 0-28.71-12.855-28.707-28.71 0-15.858 12.855-28.71 28.71-28.71l40.58 0.003v-76.7c0-15.855 12.852-28.71 28.71-28.71h122.13c15.855 0 28.71 12.855 28.71 28.71v53.18c0 15.855-12.855 28.71-28.71 28.71zM301.917 143.164l-17.3-17.3-45.757 45.755 54.235 54.235c5.385 5.385 8.408 12.688 8.408 20.302s-3.025 14.917-8.408 20.3l-48.997 48.995c-11.215 11.212-29.39 11.21-40.605-0.003-11.21-11.212-11.21-29.39 0.005-40.603l28.692-28.692-54.233-54.233c-5.385-5.385-8.41-12.688-8.41-20.302s3.025-14.915 8.41-20.3l86.358-86.36c5.607-5.607 12.953-8.41 20.302-8.41 7.345 0 14.695 2.805 20.3 8.41l37.605 37.603c11.21 11.212 11.21 29.39 0 40.603-11.212 11.212-29.39 11.212-40.605 0zM147.897 380.999h-24.468v64.71h76.7c7.615 0 14.917 3.025 20.302 8.41s8.41 12.688 8.408 20.3l-0.003 69.292c0 15.855-12.855 28.71-28.71 28.707-15.858 0-28.71-12.855-28.71-28.71v-40.58h-76.697c-15.858 0-28.71-12.852-28.71-28.71v-122.13c0-15.855 12.852-28.71 28.71-28.71h53.177c15.858 0 28.71 12.855 28.71 28.71s-12.852 28.71-28.71 28.71zM166.562 617.479c5.607-5.605 12.955-8.41 20.302-8.41s14.695 2.805 20.302 8.41c11.21 11.212 11.21 29.39 0 40.603l-17.305 17.302 45.757 45.755 54.235-54.233c5.383-5.385 12.688-8.41 20.302-8.41s14.915 3.025 20.3 8.41l48.995 48.997c11.21 11.212 11.21 29.39 0 40.603-11.215 11.21-29.392 11.21-40.605-0.003l-28.692-28.695-54.233 54.235c-11.215 11.212-29.39 11.212-40.605 0l-86.358-86.36c-5.383-5.383-8.408-12.685-8.408-20.3s3.025-14.917 8.408-20.302l37.603-37.603z" />
<glyph unicode="&#xe910;" glyph-name="pro-juicio" d="M596.534 110.004h-551.515c-15.855 0-28.71-12.855-28.71-28.71 0-15.858 12.855-28.71 28.71-28.71h551.515c15.858 0 28.71 12.852 28.71 28.71 0 15.855-12.852 28.71-28.71 28.71zM119.941 131.212c15.858 0 28.71 12.855 28.71 28.71v55.78h344.253v-55.78c0-15.855 12.855-28.71 28.71-28.71 15.858 0 28.71 12.855 28.71 28.71v84.49c0 15.858-12.852 28.712-28.71 28.712h-401.672c-15.858 0-28.71-12.855-28.71-28.712v-84.49c0-15.855 12.852-28.71 28.71-28.71zM259.404 501.382l136.818-61.102c3.803-1.7 7.777-2.503 11.692-2.503 10.98 0 21.462 6.335 26.23 17.008l86.265 193.155c3.105 6.952 3.32 14.853 0.6 21.965s-8.155 12.852-15.107 15.958l-136.822 61.102c-14.478 6.465-31.455-0.030-37.92-14.508l-86.265-193.153c-3.105-6.952-3.32-14.855-0.6-21.965 2.72-7.112 8.155-12.852 15.11-15.958zM371.879 682.827l84.392-37.688-62.85-140.725-84.387 37.69 62.845 140.722zM387.694 788.492l136.818-61.102c3.803-1.7 7.777-2.505 11.692-2.505 10.98 0 21.462 6.335 26.23 17.010 6.465 14.48-0.030 31.457-14.508 37.923l-136.818 61.102c-14.478 6.467-31.455-0.027-37.925-14.505-6.465-14.48 0.030-31.457 14.51-37.923zM214.964 403.454l136.82-61.105c3.803-1.7 7.775-2.503 11.69-2.503 10.98 0 21.465 6.335 26.23 17.010 6.467 14.478-0.027 31.455-14.505 37.923l-136.82 61.105c-14.475 6.465-31.455-0.030-37.923-14.508s0.027-31.457 14.508-37.923zM990.291 350.342l-356.4 152.76c-14.572 6.245-31.453-0.505-37.697-15.077-6.247-14.575 0.502-31.453 15.077-37.7l356.4-152.76c3.687-1.58 7.523-2.328 11.297-2.328 11.137 0 21.735 6.52 26.4 17.407 6.247 14.572-0.502 31.453-15.077 37.697z" />
<glyph unicode="&#xe911;" glyph-name="aviso-correcto" d="M676.673 594.069c-12.338 9.962-30.412 8.040-40.372-4.298l-175.91-217.81-71.52 102.035c-9.1 12.982-27.005 16.13-39.99 7.030-12.982-9.102-16.13-27.005-7.030-39.988l93.407-133.258c5.177-7.385 13.52-11.907 22.533-12.215 0.327-0.010 0.652-0.015 0.978-0.015 8.658 0 16.872 3.91 22.333 10.67l199.87 247.475c9.96 12.335 8.037 30.41-4.298 40.372zM512.001 878.117c-237.168 0-430.118-192.938-430.118-430.088 0-237.185 192.95-430.147 430.117-430.147s430.115 192.963 430.115 430.147c0 237.15-192.948 430.087-430.115 430.087zM512.001 75.302c-205.507 0-372.7 167.205-372.7 372.728 0 205.49 167.193 372.67 372.7 372.67s372.7-167.18 372.7-372.67c0-205.522-167.195-372.728-372.7-372.728z" />
<glyph unicode="&#xe912;" glyph-name="aviso-info" d="M512 878.117c-237.168 0-430.118-192.938-430.118-430.088 0-237.185 192.95-430.147 430.117-430.147s430.117 192.963 430.117 430.147c0 237.15-192.95 430.087-430.117 430.087zM512 75.302c-205.507 0-372.697 167.205-372.697 372.728 0 205.49 167.19 372.67 372.697 372.67s372.7-167.18 372.7-372.67c0-205.522-167.193-372.728-372.7-372.728zM505.312 609.172c15.855 0 28.71 12.852 28.71 28.71v1.51c0 15.855-12.855 28.707-28.71 28.707s-28.71-12.852-28.71-28.707v-1.51c0-15.858 12.855-28.71 28.71-28.71zM571.045 322.054h-30.503v186.117c0 15.855-12.855 28.71-28.71 28.71h-39.367c-15.858 0-28.707-12.855-28.707-28.71s12.85-28.707 28.707-28.707h10.657v-157.385l-30.195-0.025c-15.852-0.015-28.692-12.872-28.685-28.722 0.005-15.852 12.857-28.697 28.71-28.697h118.092c15.858 0 28.707 12.855 28.707 28.71s-12.85 28.71-28.707 28.71z" />
<glyph unicode="&#xe913;" glyph-name="ayuda" d="M692.149 863.849c-52.022 49.688-120.36 75.222-192.434 71.91-133.541-6.143-242.625-115.59-248.338-249.162-1.151-26.887 1.766-53.555 8.67-79.257 4.112-15.312 19.854-24.395 35.175-20.28 15.314 4.112 24.394 19.86 20.28 35.175-5.384 20.045-7.658 40.872-6.757 61.908 4.455 104.14 89.497 189.467 193.609 194.258 56.235 2.593 109.565-17.328 150.137-56.075 40.598-38.772 62.955-91.030 62.955-147.148 0-60.097-26.378-116.807-72.368-155.595-0.175-0.148-0.347-0.298-0.52-0.45l-119.845-106.092c-41.911-37.1-65.949-90.482-65.949-146.455v-100.955c0-15.855 12.854-28.71 28.71-28.71s28.71 12.855 28.71 28.71v100.955c0 39.54 16.981 77.253 46.589 103.463l119.595 105.868c58.79 49.718 92.498 122.322 92.498 199.263 0 71.955-28.665 138.96-80.718 188.673zM495.089 58.399c-19.175 2.485-36.735-11.043-39.221-30.22-2.486-19.175 11.044-36.735 30.22-39.218 19.174-2.488 36.735 11.043 39.219 30.215 2.488 19.178-11.041 36.735-30.218 39.222z" />
<glyph unicode="&#xe914;" glyph-name="bloc-notas" d="M819.201 862.474h-64.238c-15.855 0-28.71-12.852-28.71-28.71 0-15.855 12.855-28.71 28.71-28.71h35.527v-748.417c0-15.855 12.852-28.71 28.71-28.71s28.71 12.855 28.71 28.71v777.127c0 15.858-12.852 28.71-28.71 28.71zM694.766 85.349h-461.255v719.708h39.865c15.855 0 28.71 12.855 28.71 28.71 0 15.858-12.855 28.71-28.71 28.71h-68.575c-15.855 0-28.71-12.852-28.71-28.71v-777.13c0-15.855 12.855-28.71 28.71-28.71h489.965c15.855 0 28.71 12.855 28.71 28.71 0 15.858-12.855 28.712-28.71 28.712zM378.556 726.954c15.855 0 28.71 12.852 28.71 28.71v82.945c0 15.858-12.855 28.71-28.71 28.71s-28.71-12.852-28.71-28.71v-82.945c0-15.858 12.855-28.71 28.71-28.71zM563.776 726.954c15.855 0 28.71 12.852 28.71 28.71v82.945c0 15.858-12.855 28.71-28.71 28.71s-28.71-12.852-28.71-28.71v-82.945c0-15.858 12.855-28.71 28.71-28.71zM656.378 809.139c15.858 0 28.71 12.855 28.71 28.71v1.512c0 15.858-12.852 28.71-28.71 28.71s-28.71-12.852-28.71-28.71v-1.512c0-15.855 12.852-28.71 28.71-28.71zM471.163 809.139c15.858 0 28.71 12.855 28.71 28.71v1.512c0 15.858-12.852 28.71-28.71 28.71s-28.71-12.852-28.71-28.71v-1.512c0-15.855 12.852-28.71 28.71-28.71z" />
<glyph unicode="&#xe915;" glyph-name="calendario" d="M921.6 207.077c-15.858 0-28.71-12.855-28.71-28.71v-43.018h-761.78v380.925c0 15.855-12.852 28.71-28.71 28.71s-28.71-12.855-28.71-28.71v-409.635c0-15.858 12.852-28.712 28.71-28.712h819.2c15.858 0 28.71 12.855 28.71 28.712v71.728c0 15.855-12.852 28.71-28.71 28.71zM102.4 620.302c15.858 0 28.71 12.852 28.71 28.71v43.018h106.698c15.858 0 28.71 12.855 28.71 28.71s-12.852 28.71-28.71 28.71h-135.408c-15.858 0-28.71-12.855-28.71-28.71v-71.728c0-15.858 12.852-28.71 28.71-28.71zM442.23 692.029h137.935c15.858 0 28.71 12.855 28.71 28.71s-12.852 28.71-28.71 28.71h-137.935c-15.858 0-28.71-12.855-28.71-28.71s12.852-28.71 28.71-28.71zM921.6 749.449h-136.755c-15.858 0-28.71-12.855-28.71-28.71s12.852-28.71 28.71-28.71h108.045v-380.925c0-15.858 12.852-28.71 28.71-28.71s28.71 12.852 28.71 28.71v409.635c0 15.855-12.852 28.71-28.71 28.71zM341.333 620.302c15.858 0 28.71 12.852 28.71 28.71v140.35c0 15.858-12.852 28.71-28.71 28.71s-28.71-12.852-28.71-28.71v-140.35c0-15.858 12.852-28.71 28.71-28.71zM682.665 620.302c15.858 0 28.71 12.852 28.71 28.71v140.35c0 15.858-12.852 28.71-28.71 28.71s-28.71-12.852-28.71-28.71v-140.35c0-15.858 12.852-28.71 28.71-28.71zM306.16 503.262c16.067 0 29.093 13.025 29.093 29.090 0 16.072-13.025 29.098-29.093 29.098s-29.095-13.025-29.095-29.098c0-16.065 13.026-29.090 29.095-29.090zM306.16 359.322c16.067 0 29.093 13.025 29.093 29.093 0 16.070-13.025 29.095-29.093 29.095s-29.095-13.025-29.095-29.095c0-16.067 13.026-29.093 29.095-29.093zM306.16 214.784c16.067 0 29.093 13.025 29.093 29.093 0 16.070-13.025 29.095-29.093 29.095s-29.095-13.025-29.095-29.095c0-16.067 13.026-29.093 29.095-29.093zM511.020 561.449c-16.069 0-29.095-13.025-29.095-29.098 0-16.065 13.026-29.090 29.095-29.090 16.067 0 29.094 13.025 29.094 29.090 0 16.072-13.026 29.098-29.094 29.098zM511.020 417.509c-16.069 0-29.095-13.025-29.095-29.095 0-16.067 13.026-29.093 29.095-29.093 16.067 0 29.094 13.025 29.094 29.093 0 16.070-13.026 29.095-29.094 29.095zM511.020 272.972c-16.069 0-29.095-13.025-29.095-29.095 0-16.067 13.026-29.093 29.095-29.093 16.067 0 29.094 13.025 29.094 29.093 0 16.070-13.026 29.095-29.094 29.095zM686.188 532.352c0-16.065 13.027-29.090 29.095-29.090s29.094 13.025 29.094 29.090c0 16.072-13.025 29.098-29.094 29.098-16.067 0-29.095-13.025-29.095-29.098zM715.283 417.509c-16.067 0-29.095-13.025-29.095-29.095 0-16.067 13.027-29.093 29.095-29.093s29.094 13.025 29.094 29.093c0 16.070-13.025 29.095-29.094 29.095zM715.283 272.972c-16.067 0-29.095-13.025-29.095-29.095 0-16.067 13.027-29.093 29.095-29.093s29.094 13.025 29.094 29.093c0 16.070-13.025 29.095-29.094 29.095z" />
<glyph unicode="&#xe916;" glyph-name="camara" d="M267.212 752.617h96.438c15.858 0 28.71 12.855 28.71 28.712 0 15.855-12.852 28.71-28.71 28.71h-96.438c-15.855 0-28.71-12.855-28.71-28.71 0-15.858 12.855-28.712 28.71-28.712zM733.59 521.704c1.537-1.023 3.227-1.893 4.967-2.61s3.532-1.28 5.375-1.64c1.845-0.408 3.737-0.562 5.582-0.562 1.893 0 3.788 0.155 5.63 0.562 1.845 0.36 3.635 0.923 5.377 1.64 1.74 0.718 3.378 1.588 4.965 2.61 1.537 1.075 3.022 2.255 4.353 3.585 5.325 5.325 8.398 12.75 8.398 20.275 0 7.577-3.073 14.95-8.398 20.327-1.33 1.33-2.815 2.508-4.353 3.583-1.588 1.025-3.225 1.895-4.965 2.612-1.742 0.715-3.532 1.28-5.377 1.637-3.737 0.767-7.525 0.767-11.212 0-1.842-0.357-3.635-0.923-5.375-1.637-1.74-0.718-3.43-1.588-4.967-2.612-1.588-1.075-3.020-2.252-4.35-3.583-5.377-5.377-8.398-12.75-8.398-20.327 0-7.525 3.020-14.95 8.398-20.275 1.33-1.33 2.762-2.51 4.35-3.585zM277.149 143.382h-77.415c-27.815 0-50.445 22.627-50.445 50.44v390.485c0 27.575 22.437 50.010 50.015 50.010h469.262c15.855 0 28.71 12.852 28.71 28.71 0 15.855-12.855 28.71-28.71 28.71h-469.262c-59.24 0-107.435-48.193-107.435-107.43v-390.485c0-59.475 48.387-107.86 107.865-107.86h77.415c15.858 0 28.71 12.852 28.71 28.71 0 15.855-12.852 28.71-28.71 28.71zM825.137 691.737c-15.855 0-28.71-12.855-28.71-28.71 0-15.858 12.855-28.71 28.71-28.71 27.335 0 49.573-22.237 49.573-49.57v-390.945c0-27.803-22.617-50.42-50.418-50.42h-390.575c-15.858 0-28.71-12.855-28.71-28.71 0-15.858 12.852-28.71 28.71-28.71h390.575c59.463 0 107.837 48.377 107.837 107.84v390.945c0 58.995-47.997 106.99-106.992 106.99zM671.63 389.017c0 102.162-83.115 185.277-185.277 185.277-36.15 0-71.193-10.425-101.34-30.147-13.27-8.68-16.99-26.475-8.308-39.743 8.675-13.27 26.472-16.99 39.743-8.31 20.78 13.593 44.953 20.778 69.905 20.778 70.5 0 127.858-57.355 127.858-127.855s-57.358-127.86-127.858-127.86-127.855 57.358-127.855 127.86c0 8.703 0.872 17.38 2.597 25.79 3.18 15.535-6.832 30.708-22.367 33.887-15.515 3.18-30.702-6.83-33.887-22.365-2.497-12.193-3.762-24.748-3.762-37.313 0-102.162 83.115-185.28 185.275-185.28s185.277 83.118 185.277 185.28z" />
<glyph unicode="&#xe917;" glyph-name="cargando" d="M521.251 863.744c-23.752 0-43.007-19.255-43.007-43.007v-1.525c0-23.752 19.255-43.007 43.007-43.007s43.007 19.255 43.007 43.007v1.525c0 23.752-19.255 43.007-43.007 43.007zM883.974 482.517c-23.752 0-43.007-19.255-43.007-43.007v-1.525c0-23.752 19.255-43.007 43.007-43.007s43.007 19.255 43.007 43.007v1.525c0 23.752-19.255 43.007-43.007 43.007zM768.481 222.202c-23.752 0-43.007-19.255-43.007-43.007v-1.525c0-23.752 19.255-43.007 43.007-43.007s43.007 19.255 43.007 43.007v1.525c0 23.752-19.255 43.007-43.007 43.007zM502.749 119.797c-23.752 0-43.007-19.255-43.007-43.007v-1.525c0-23.752 19.255-43.007 43.007-43.007s43.007 19.255 43.007 43.007v1.525c0 23.752-19.255 43.007-43.007 43.007zM140.026 501.022c-23.752 0-43.007-19.255-43.007-43.007v-1.525c0-23.752 19.255-43.007 43.007-43.007s43.007 19.255 43.007 43.007v1.525c0 23.752-19.255 43.007-43.007 43.007zM255.519 761.337c-23.752 0-43.007-19.255-43.007-43.007v-1.525c0-23.752 19.255-43.007 43.007-43.007s43.007 19.255 43.007 43.007v1.525c0 23.752-19.255 43.007-43.007 43.007zM242.431 235.289c-23.752 0-43.007-19.255-43.007-43.007v-1.525c0-23.752 19.255-43.007 43.007-43.007s43.007 19.255 43.007 43.007v1.525c0 23.752-19.255 43.007-43.007 43.007zM781.569 748.254c-23.752 0-43.007-19.255-43.007-43.010v-1.522c0-23.752 19.255-43.007 43.007-43.007s43.007 19.255 43.007 43.007v1.522c0 23.755-19.255 43.010-43.007 43.010z" />
<glyph unicode="&#xe918;" glyph-name="chat" d="M268.553 239.369c0 15.858-12.852 28.712-28.71 28.712h-107.367v418.892h583.64c15.858 0 28.71 12.855 28.71 28.71 0 15.858-12.852 28.71-28.71 28.71h-612.35c-15.858 0-28.71-12.852-28.71-28.71v-476.315c0-15.855 12.852-28.71 28.71-28.71h136.078c15.858 0 28.71 12.855 28.71 28.71zM920.233 744.394h-68.037c-15.858 0-28.71-12.852-28.71-28.71 0-15.855 12.852-28.71 28.71-28.71h39.327v-418.892h-494.808c-14.866 0-27.092-11.297-28.562-25.775-0.097-0.967-0.148-1.945-0.148-2.937 0-78.845-64.148-142.99-142.992-142.99-15.858 0-28.71-12.855-28.71-28.71 0-15.858 12.852-28.712 28.71-28.712 100.758 0 184.353 74.753 198.325 171.702h496.895c15.855 0 28.71 12.855 28.71 28.71v476.315c0 15.858-12.855 28.71-28.71 28.71zM239.843 563.359h136.078c15.855 0 28.71 12.852 28.71 28.71 0 15.855-12.855 28.71-28.71 28.71h-136.078c-15.855 0-28.71-12.855-28.71-28.71 0-15.858 12.855-28.71 28.71-28.71zM211.133 480.689c0-15.855 12.855-28.71 28.71-28.71h544.313c15.858 0 28.71 12.855 28.71 28.71s-12.852 28.71-28.71 28.71h-544.312c-15.855 0-28.71-12.855-28.71-28.71zM784.156 398.017h-544.312c-15.855 0-28.71-12.855-28.71-28.71 0-15.858 12.855-28.71 28.71-28.71h544.313c15.858 0 28.71 12.852 28.71 28.71 0 15.855-12.852 28.71-28.71 28.71z" />
<glyph unicode="&#xe919;" glyph-name="comunicaciones" d="M579.895 239.417h-458.215v307.803h93.94c15.858 0 28.71 12.852 28.71 28.71 0 15.855-12.852 28.71-28.71 28.71h-122.65c-15.855 0-28.71-12.855-28.71-28.71v-365.223c0-15.858 12.855-28.712 28.71-28.712h486.925c15.855 0 28.71 12.855 28.71 28.712 0 15.855-12.855 28.71-28.71 28.71zM823.357 604.639h-488.688c-15.855 0-28.71-12.855-28.71-28.71 0-15.858 12.855-28.71 28.71-28.71h459.978v-307.803h-91.66c-15.858 0-28.71-12.855-28.71-28.71 0-15.858 12.852-28.712 28.71-28.712h120.37c15.858 0 28.71 12.855 28.71 28.712v365.223c0 15.855-12.852 28.71-28.71 28.71zM709.215 274.157c10.713 11.69 9.923 29.85-1.765 40.565l-98.129 89.945 105.344 53.705c14.128 7.203 19.74 24.492 12.537 38.617-7.203 14.128-24.49 19.74-38.617 12.54l-230.335-117.428-230.373 118.983c-14.098 7.275-31.41 1.75-38.685-12.335-7.275-14.090-1.753-31.408 12.335-38.685l106.245-54.873-92.248-91.22c-11.275-11.15-11.375-29.328-0.227-40.603 5.618-5.68 13.012-8.522 20.415-8.522 7.295 0 14.593 2.762 20.187 8.295l105.519 104.345 83.571-43.163c4.133-2.135 8.652-3.2 13.175-3.2 4.47 0 8.945 1.042 13.040 3.13l83.509 42.575 113.936-104.438c5.512-5.053 12.462-7.545 19.393-7.545 7.768 0 15.51 3.133 21.172 9.31zM931.030 714.004h-458.805c-15.858 0-28.71-12.855-28.71-28.71 0-15.858 12.852-28.71 28.71-28.71h430.095v-349.445c0-15.858 12.852-28.712 28.71-28.712s28.71 12.855 28.71 28.712v378.155c0 15.855-12.852 28.71-28.71 28.71z" />
<glyph unicode="&#xe91a;" glyph-name="contactos" d="M384.254 481.124c5.418-4.655 12.072-6.935 18.695-6.935 8.080 0 16.112 3.395 21.79 10.005 10.333 12.025 8.957 30.152-3.070 40.485-30.792 26.452-48.453 64.812-48.453 105.247 0 76.525 62.26 138.783 138.785 138.783s138.783-62.258 138.783-138.783c0-40.42-17.69-78.777-48.53-105.235-12.035-10.325-13.422-28.45-3.097-40.485 10.322-12.035 28.447-13.418 40.483-3.097 43.575 37.38 68.565 91.623 68.565 148.818 0 108.185-88.015 196.202-196.202 196.202s-196.205-88.018-196.205-196.202c0-57.195 24.953-111.43 68.458-148.803zM618.134 380.869c-15.455 3.598-30.877-6.005-34.475-21.45-3.595-15.442 6.008-30.875 21.45-34.472 118.958-27.702 204.81-107.092 217.358-197.655h-620.935c12.547 90.563 98.4 169.953 217.358 197.655 15.442 3.598 25.045 19.030 21.45 34.472-3.595 15.445-19.018 25.048-34.475 21.45-157.51-36.68-263.338-147.803-263.338-276.513 0-1.642 0.063-3.267 0.135-4.895l0.070-1.7c0.443-15.53 13.16-27.89 28.697-27.89h681.142c15.538 0 28.255 12.36 28.697 27.89l0.067 1.7c0.072 1.627 0.135 3.252 0.135 4.895 0 128.71-105.827 239.833-263.338 276.513z" />
<glyph unicode="&#xe91b;" glyph-name="email" d="M800.133 806.627c-79.937 62.83-179.858 94.922-281.283 90.373-100.368-4.505-196.027-44.385-269.36-112.295-11.635-10.775-12.332-28.94-1.558-40.575 10.77-11.63 28.935-12.332 40.573-1.558 63.382 58.698 146.1 93.168 232.918 97.065 87.72 3.933 174.095-23.82 243.225-78.155 124.875-98.152 146.615-279.598 48.468-404.47-14.301-18.198-31.137-33.895-50.036-46.795-0.704-0.392-1.441-0.682-2.121-1.142-8.72-5.893-18.93-9.008-29.52-9.008-29.138 0-52.842 23.705-52.842 52.842 0 2.173-0.263 4.28-0.72 6.315v175.465c0 15.855-12.852 28.71-28.71 28.71s-28.71-12.855-28.71-28.71v-181.060c0-2.67 0.392-5.243 1.073-7.692 0.129-2.055 0.258-4.103 0.499-6.125-2.708-1.525-5.264-3.402-7.442-5.857-25.585-28.85-62.355-45.395-100.878-45.395-74.318 0-134.78 60.462-134.78 134.783 0 117.232 95.378 212.607 212.613 212.607 25.032 0 49.522-4.298 72.793-12.778 14.9-5.43 31.378 2.247 36.805 17.145 5.43 14.898-2.247 31.378-17.145 36.805-29.59 10.783-60.695 16.25-92.453 16.25-148.897 0-270.032-121.135-270.032-270.030 0-105.983 86.22-192.205 192.2-192.205 49.259 0 96.462 19.015 131.996 52.585 20.23-25.020 51.126-41.075 85.734-41.075 19.187 0 37.789 4.93 54.307 14.303 1.57 0.66 3.115 1.415 4.592 2.378 25.85 16.82 48.7 37.748 67.922 62.2 117.712 149.767 91.638 367.382-58.128 485.1zM629.536 79.094c-40.22-15.33-82.65-23.103-126.117-23.103-195.267 0-354.128 158.86-354.128 354.128 0 0.035-0.005 0.067-0.005 0.103 0 0.072 0.010 0.142 0.010 0.217-0.245 77.42 18.977 154.21 55.587 222.060 7.53 13.955 2.32 31.37-11.635 38.9-13.953 7.53-31.37 2.32-38.9-11.632-41.145-76.257-62.747-162.538-62.472-249.51 0-0.007 0.001-0.012 0.001-0.020-0.001-0.040-0.006-0.078-0.006-0.118 0-226.928 184.62-411.547 411.547-411.547 50.482 0 99.795 9.040 146.567 26.868 14.817 5.65 22.25 22.237 16.603 37.055-5.65 14.817-22.237 22.247-37.053 16.6z" />
<glyph unicode="&#xe91c;" glyph-name="desconectar" d="M670.033 798.274c-14.7 5.968-31.438-1.105-37.405-15.795s1.105-31.435 15.795-37.405c137.482-55.845 226.318-187.818 226.318-336.22 0-200.015-162.725-362.74-362.74-362.74s-362.74 162.725-362.743 362.74c0 148.752 89.123 280.842 227.047 336.515 14.705 5.935 21.812 22.665 15.877 37.37-5.932 14.705-22.668 21.812-37.368 15.877-159.752-64.483-262.977-217.473-262.977-389.763 0.003-231.677 188.487-420.16 420.163-420.16s420.16 188.483 420.16 420.16c0 171.882-102.89 324.737-262.128 389.42zM512 615.017c15.855 0 28.71 12.852 28.71 28.71v234.87c0 15.855-12.855 28.71-28.71 28.71s-28.71-12.855-28.71-28.71v-234.87c0-15.858 12.855-28.71 28.71-28.71z" />
<glyph unicode="&#xe91d;" glyph-name="pro-mostrador" d="M150.61 469.626c15.855 0 28.71 12.855 28.71 28.71v90.365c0 15.855-12.855 28.71-28.71 28.71s-28.71-12.855-28.71-28.71v-90.365c0-15.855 12.855-28.71 28.71-28.71zM338.255 588.701v-90.365c0-15.855 12.855-28.71 28.71-28.71s28.71 12.855 28.71 28.71v90.365c0 15.855-12.855 28.71-28.71 28.71s-28.71-12.855-28.71-28.71zM205.125 622.348c7.43 0 14.855 2.868 20.475 8.585 11.115 11.308 10.96 29.485-0.35 40.6-9.6 9.44-14.89 22.050-14.89 35.508 0 27.455 22.335 49.79 49.79 49.79 27.45 0 49.785-22.335 49.785-49.79 0-13.298-5.18-25.8-14.58-35.205-11.215-11.212-11.215-29.39 0-40.603 11.21-11.212 29.39-11.21 40.6 0.003 20.25 20.248 31.4 47.17 31.4 75.805 0 59.115-48.090 107.21-107.205 107.21s-107.21-48.095-107.21-107.21c0-28.982 11.385-56.135 32.060-76.458 5.59-5.495 12.86-8.235 20.125-8.235zM574.515 636.551c-15.855 0-28.71-12.852-28.71-28.71v-516.48c0-15.858 12.855-28.71 28.71-28.71s28.71 12.852 28.71 28.71v516.48c0 15.858-12.855 28.71-28.71 28.71zM810.010 636.551c-15.855 0-28.71-12.852-28.71-28.71v-516.48c0-15.858 12.855-28.71 28.71-28.71s28.71 12.852 28.71 28.71v516.48c0 15.858-12.855 28.71-28.71 28.71zM692.26 833.393c-59.115 0-107.21-48.095-107.21-107.212 0-28.975 11.385-56.125 32.055-76.45 5.59-5.5 12.86-8.24 20.13-8.24 7.425 0 14.85 2.865 20.47 8.58 11.12 11.308 10.965 29.485-0.34 40.603-9.605 9.443-14.895 22.055-14.895 35.508 0 27.455 22.335 49.79 49.79 49.79 27.45 0 49.785-22.335 49.785-49.79 0-13.3-5.175-25.802-14.575-35.203-11.215-11.212-11.215-29.392 0-40.603 11.21-11.212 29.39-11.212 40.6 0 20.245 20.248 31.395 47.167 31.395 75.805 0 59.118-48.090 107.212-107.205 107.212zM725.475 120.071h-66.43c-15.855 0-28.71-12.855-28.71-28.71 0-15.858 12.855-28.71 28.71-28.71h66.43c15.855 0 28.71 12.852 28.71 28.71 0 15.855-12.855 28.71-28.71 28.71zM961.455 434.066h-56.665c-15.855 0-28.71-12.855-28.71-28.71 0-15.858 12.855-28.71 28.71-28.71h27.955v-285.328c0-15.858 12.855-28.71 28.71-28.71s28.71 12.852 28.71 28.71v314.038c0 15.855-12.855 28.71-28.71 28.71zM500.27 434.066h-437.73c-15.855 0-28.71-12.855-28.71-28.71v-314.038c0-15.858 12.855-28.71 28.71-28.71s28.71 12.852 28.71 28.71v285.328h409.020c15.855 0 28.71 12.852 28.71 28.71 0 15.855-12.855 28.71-28.71 28.71z" />
<glyph unicode="&#xe91e;" glyph-name="pro-construccion" d="M162.922 298.446c-15.855 0-28.71-12.852-28.71-28.71v-190.62c0-15.855 12.855-28.71 28.71-28.71s28.71 12.855 28.71 28.71v190.62c0 15.858-12.855 28.71-28.71 28.71zM453.402 506.001h-190.595c-15.855 0-28.71-12.855-28.71-28.71 0-15.858 12.855-28.71 28.71-28.71h161.885v-369.465c0-15.855 12.855-28.71 28.71-28.71s28.71 12.855 28.71 28.71v398.175c0 15.855-12.855 28.71-28.71 28.71zM642.482 149.821c0-15.855 12.855-28.71 28.71-28.71s28.71 12.855 28.71 28.71v533.368c0 15.858-12.855 28.71-28.71 28.71h-164.14c-15.855 0-28.71-12.852-28.71-28.71 0-15.855 12.855-28.71 28.71-28.71h135.43v-504.658zM131.157 654.478h310.89c15.855 0 28.71 12.855 28.71 28.71 0 15.858-12.855 28.71-28.71 28.71h-310.89c-15.855 0-28.71-12.852-28.71-28.71 0-15.855 12.855-28.71 28.71-28.71zM159.867 479.768v138.002c0 15.858-12.855 28.71-28.71 28.71s-28.71-12.852-28.71-28.71v-138.002c0-15.855 12.855-28.71 28.71-28.71s28.71 12.855 28.71 28.71zM285.927 718.551c4.54 0 9.145 1.080 13.435 3.357l124.84 66.265h246.99c15.855 0 28.71 12.852 28.71 28.71 0 15.855-12.855 28.71-28.71 28.71h-254.135c-4.695 0-9.315-1.15-13.46-3.35l-131.155-69.618c-14.005-7.435-19.335-24.815-11.9-38.82 5.16-9.715 15.1-15.255 25.385-15.255zM746.327 585.451c15.855 0 28.71 12.855 28.71 28.712v127.080c0 15.858-12.855 28.712-28.71 28.712s-28.71-12.855-28.71-28.712v-127.080c0-15.858 12.855-28.712 28.71-28.712zM892.842 769.956c-15.855 0-28.71-12.855-28.71-28.712v-127.080c0-15.858 12.855-28.712 28.71-28.712s28.71 12.855 28.71 28.712v127.080c0 15.858-12.855 28.712-28.71 28.712zM361.637 215.486h-103.065c-15.855 0-28.71-12.855-28.71-28.71v-107.66c0-15.855 12.855-28.71 28.71-28.71s28.71 12.855 28.71 28.71v78.95h45.645v-78.95c0-15.855 12.855-28.71 28.71-28.71s28.71 12.855 28.71 28.71v107.66c0 15.855-12.855 28.71-28.71 28.71zM798.262 107.828h-254.135c-15.855 0-28.71-12.855-28.71-28.712 0-15.855 12.855-28.71 28.71-28.71h254.135c15.855 0 28.71 12.855 28.71 28.71 0 15.858-12.855 28.712-28.71 28.712zM846.107 750.288c-0.715 1.688-1.585 3.378-2.66 4.915-1.025 1.588-2.255 3.073-3.535 4.402-1.33 1.33-2.815 2.51-4.405 3.585-1.535 1.023-3.225 1.893-4.965 2.61-1.69 0.718-3.53 1.28-5.325 1.64-3.735 0.767-7.525 0.767-11.21 0-1.845-0.36-3.69-0.923-5.38-1.64-1.74-0.718-3.43-1.588-4.965-2.61-1.585-1.075-3.070-2.255-4.4-3.585-5.325-5.375-8.4-12.75-8.4-20.325 0-7.527 3.075-14.952 8.4-20.278 5.375-5.375 12.8-8.395 20.325-8.395 1.895 0 3.735 0.153 5.63 0.562 1.795 0.357 3.635 0.923 5.325 1.637 1.74 0.718 3.43 1.588 4.965 2.612 1.59 1.023 3.075 2.252 4.405 3.583 1.28 1.28 2.51 2.765 3.535 4.353 1.075 1.537 1.945 3.225 2.66 4.967 0.72 1.74 1.28 3.532 1.64 5.375s0.56 3.737 0.56 5.582c0 1.893-0.2 3.788-0.56 5.63-0.36 1.845-0.92 3.635-1.64 5.377zM846.107 625.156c-0.715 1.74-1.585 3.378-2.66 4.965-1.025 1.535-2.255 3.020-3.535 4.353-1.33 1.33-2.815 2.508-4.405 3.583-1.535 1.025-3.225 1.895-4.965 2.612-1.69 0.718-3.53 1.28-5.325 1.637-3.735 0.77-7.525 0.77-11.21 0-1.845-0.357-3.69-0.92-5.38-1.637-1.74-0.718-3.43-1.588-4.965-2.612-1.585-1.075-3.070-2.252-4.4-3.583-5.325-5.377-8.4-12.75-8.4-20.327 0-7.525 3.075-14.95 8.4-20.275 1.33-1.33 2.815-2.508 4.4-3.583 1.535-1.025 3.225-1.895 4.965-2.612 1.69-0.715 3.535-1.28 5.38-1.637 1.84-0.41 3.685-0.562 5.58-0.562s3.735 0.153 5.63 0.562c1.795 0.357 3.635 0.923 5.325 1.637 1.74 0.718 3.43 1.588 4.965 2.612 1.59 1.075 3.075 2.252 4.405 3.583 5.325 5.325 8.395 12.75 8.395 20.275 0 1.895-0.2 3.79-0.56 5.633s-0.92 3.635-1.64 5.377zM358.122 360.348c7.525 0 14.95 3.073 20.275 8.398 5.375 5.325 8.445 12.748 8.445 20.325 0 7.527-3.070 14.95-8.445 20.275-5.325 5.325-12.75 8.398-20.275 8.398-7.58 0-15.005-3.073-20.33-8.398s-8.395-12.748-8.395-20.275c0-7.577 3.070-15 8.395-20.325s12.75-8.398 20.33-8.398zM329.962 276.483c0.355-1.842 0.92-3.635 1.635-5.377 0.72-1.74 1.59-3.378 2.665-4.965 1.025-1.535 2.2-3.020 3.53-4.353 5.325-5.325 12.75-8.398 20.33-8.398 7.525 0 14.95 3.073 20.275 8.398 1.33 1.332 2.56 2.817 3.585 4.353 1.020 1.588 1.945 3.225 2.66 4.965 0.715 1.742 1.23 3.535 1.64 5.377 0.355 1.842 0.56 3.737 0.56 5.58 0 7.577-3.070 15.003-8.445 20.327-5.325 5.325-12.75 8.395-20.275 8.395-7.58 0-15.005-3.070-20.33-8.395s-8.395-12.75-8.395-20.327c0-1.842 0.205-3.737 0.565-5.58zM231.707 271.106c0.72-1.74 1.59-3.378 2.665-4.965 1.020-1.535 2.25-3.020 3.53-4.353 5.375-5.325 12.75-8.398 20.325-8.398 1.895 0 3.74 0.155 5.635 0.565 1.79 0.357 3.635 0.92 5.325 1.637 1.74 0.718 3.43 1.588 4.965 2.612 1.59 1.075 3.020 2.25 4.355 3.583 1.33 1.332 2.56 2.817 3.58 4.353 1.025 1.588 1.945 3.225 2.665 4.965 0.715 1.742 1.23 3.535 1.635 5.377 0.36 1.842 0.565 3.737 0.565 5.58 0 7.577-3.070 15.003-8.445 20.327-5.325 5.325-12.7 8.395-20.28 8.395-7.575 0-14.95-3.070-20.325-8.395-1.28-1.332-2.51-2.765-3.53-4.353-1.075-1.588-1.945-3.227-2.665-4.967-0.715-1.74-1.28-3.532-1.64-5.375-0.355-1.845-0.56-3.737-0.56-5.633 0-1.842 0.205-3.737 0.56-5.58 0.36-1.842 0.925-3.635 1.64-5.377z" />
<glyph unicode="&#xe91f;" glyph-name="dev-encargo" d="M839.46 178.554c-47.056 263.382-277.444 448.793-536.223 448.29l89.316 73.48c12.245 10.073 14.005 28.165 3.933 40.41-10.073 12.242-28.163 14.010-40.413 3.933l-161.195-132.613c-6.587-5.42-10.425-13.49-10.47-22.020s3.705-16.64 10.235-22.13l159.773-134.322c5.383-4.525 11.937-6.735 18.46-6.735 8.185 0 16.313 3.483 21.99 10.237 10.205 12.135 8.637 30.247-3.5 40.45l-108.704 91.39c239.738 10.705 456.939-157.905 500.274-400.47 2.482-13.9 14.585-23.665 28.23-23.665 1.675 0 3.375 0.148 5.083 0.453 15.608 2.787 26.002 17.703 23.212 33.313z" />
<glyph unicode="&#xe920;" glyph-name="editar" d="M733.846 803.514c-46.805 27.758-107.49 12.26-135.26-34.55-0.011-0.018-0.019-0.037-0.030-0.055l-121.693-205.205c-3.882-6.55-5.008-14.375-3.122-21.753s6.625-13.703 13.172-17.588l120.42-71.412c4.47-2.653 9.535-4.015 14.645-4.015 2.378 0 4.765 0.295 7.105 0.893 7.378 1.885 13.705 6.623 17.59 13.172l121.723 205.255c0.512 0.863 0.972 1.742 1.384 2.635 25.69 46.437 10.016 105.368-35.934 132.622zM611.929 516.987l-71.030 42.122 107.077 180.56c0.006 0.010 0.010 0.020 0.016 0.030 11.629 19.56 36.997 26.030 56.564 14.427 19.58-11.613 26.062-36.995 14.448-56.577-0.011-0.020-0.019-0.040-0.030-0.057l-107.045-180.505zM575.401 399.104c-13.645 8.090-31.25 3.59-39.34-10.050l-145.898-246.017c-0.135-0.227-0.323-0.562-0.453-0.793-0.342-0.618-32.574-57.447-81.907-57.132-23.917 43.125 10.47 98.665 10.792 99.175 0.185 0.287 0.362 0.577 0.537 0.87l145.898 246.020c8.088 13.637 3.587 31.25-10.050 39.338-13.642 8.090-31.248 3.59-39.34-10.050l-145.682-245.657c-2.65-4.223-15.852-26.198-23.233-56.232-11.17-45.465-3.372-86.52 22.55-118.725 0.082-0.1 0.176-0.185 0.258-0.285 0.469-0.568 0.97-1.108 1.482-1.637 0.202-0.21 0.39-0.438 0.596-0.637 0.702-0.685 1.442-1.332 2.213-1.945 0.317-0.25 0.652-0.47 0.977-0.705 0.489-0.357 0.978-0.71 1.492-1.035 0.383-0.245 0.776-0.46 1.168-0.682 0.482-0.275 0.966-0.543 1.466-0.79 0.419-0.208 0.842-0.395 1.269-0.58 0.492-0.215 0.99-0.415 1.497-0.603 0.453-0.167 0.907-0.323 1.366-0.468 0.492-0.153 0.992-0.29 1.497-0.417 0.487-0.125 0.974-0.242 1.467-0.34 0.185-0.037 0.362-0.095 0.548-0.127 0.411-0.075 0.818-0.097 1.229-0.165 0.329-0.045 0.655-0.1 0.986-0.133 6.676-1.080 13.327-1.697 19.93-1.697 32.878 0.003 64.61 13.302 92.85 39.15 22.81 20.875 35.76 42.998 38.198 47.353l145.685 245.663c8.088 13.637 3.587 31.25-10.050 39.338zM410.826 657.814c4.595-2.725 9.637-4.020 14.617-4.020 9.805 0 19.357 5.025 24.722 14.070l93.208 157.17c8.088 13.64 3.587 31.252-10.050 39.34-13.642 8.090-31.25 3.587-39.34-10.050l-93.208-157.172c-8.088-13.637-3.587-31.25 10.050-39.338z" />
<glyph unicode="&#xe921;" glyph-name="encargo-gen" d="M819.201 868.072h-90.318c-15.858 0-28.71-12.852-28.71-28.71s12.852-28.71 28.71-28.71h61.607v-725.302h-325.625c-15.858 0-28.71-12.855-28.71-28.712 0-15.855 12.852-28.71 28.71-28.71h354.335c15.858 0 28.71 12.855 28.71 28.71v782.725c0 15.858-12.852 28.71-28.71 28.71zM297.363 85.349h-63.852v725.303h332.16c15.855 0 28.71 12.852 28.71 28.71s-12.855 28.71-28.71 28.71h-360.87c-15.855 0-28.71-12.852-28.71-28.71v-782.725c0-15.855 12.855-28.71 28.71-28.71h92.562c15.858 0 28.71 12.855 28.71 28.71 0 15.858-12.852 28.712-28.71 28.712zM373.226 605.067h93.642c15.858 0 28.71 12.855 28.71 28.712 0 15.855-12.852 28.71-28.71 28.71h-93.642c-15.855 0-28.71-12.855-28.71-28.71 0-15.858 12.855-28.712 28.71-28.712zM654.153 445.029h-280.927c-15.858 0-28.71-12.852-28.71-28.71 0-15.855 12.852-28.71 28.71-28.71h280.927c15.855 0 28.71 12.855 28.71 28.71 0 15.858-12.855 28.71-28.71 28.71zM682.863 307.597c0 15.855-12.855 28.71-28.71 28.71h-280.927c-15.858 0-28.71-12.855-28.71-28.71 0-15.858 12.852-28.712 28.71-28.712h280.927c15.855 0 28.71 12.855 28.71 28.712zM344.516 525.049c0-15.858 12.852-28.71 28.71-28.71h280.927c15.855 0 28.71 12.852 28.71 28.71 0 15.855-12.855 28.71-28.71 28.71h-280.927c-15.858 0-28.71-12.855-28.71-28.71z" />
<glyph unicode="&#xe922;" glyph-name="encargos" d="M722.93 120.364v714.282c0 15.858-12.855 28.71-28.71 28.71h-74.668c-15.858 0-28.71-12.852-28.71-28.71 0-15.855 12.852-28.71 28.71-28.71h45.957v-656.863h-264.225c-15.855 0-28.71-12.852-28.71-28.71 0-15.855 12.855-28.71 28.71-28.71h292.935c15.855 0 28.71 12.855 28.71 28.71zM262.807 149.074h-47.815v656.863h269.627c15.855 0 28.71 12.855 28.71 28.71 0 15.858-12.855 28.71-28.71 28.71h-298.337c-15.855 0-28.71-12.852-28.71-28.71v-714.282c0-15.855 12.855-28.71 28.71-28.71h76.525c15.855 0 28.71 12.855 28.71 28.71 0 15.858-12.855 28.71-28.71 28.71zM837.717 725.647c-15.858 0-28.71-12.855-28.71-28.71v-688.822h-326.412c-15.855 0-28.71-12.855-28.71-28.71 0-15.858 12.855-28.71 28.71-28.71h355.122c15.858 0 28.71 12.852 28.71 28.71v717.532c0 15.855-12.852 28.71-28.71 28.71zM325.525 618.329h77.415c15.858 0 28.71 12.855 28.71 28.71 0 15.858-12.852 28.71-28.71 28.71h-77.415c-15.858 0-28.71-12.852-28.71-28.71 0-15.855 12.852-28.71 28.71-28.71zM557.772 477.307h-232.248c-15.858 0-28.71-12.855-28.71-28.71 0-15.858 12.852-28.71 28.71-28.71h232.248c15.855 0 28.71 12.852 28.71 28.71 0 15.855-12.855 28.71-28.71 28.71zM586.482 349.379c0 15.855-12.855 28.71-28.71 28.71h-232.248c-15.858 0-28.71-12.855-28.71-28.71 0-15.858 12.852-28.71 28.71-28.71h232.248c15.855 0 28.71 12.852 28.71 28.71zM296.815 547.819c0-15.858 12.852-28.712 28.71-28.712h232.248c15.855 0 28.71 12.855 28.71 28.712 0 15.855-12.855 28.71-28.71 28.71h-232.248c-15.858 0-28.71-12.855-28.71-28.71z" />
<glyph unicode="&#xe923;" glyph-name="enviando" d="M787.868 308.209c-15.855 0-28.71-12.855-28.71-28.71v-156.368l-494.315 0.428v156.63c0 15.858-12.855 28.712-28.71 28.712s-28.71-12.855-28.71-28.712v-185.315c0-15.845 12.84-28.695 28.685-28.71l551.76-0.477c7.61 0 14.91 3.020 20.29 8.4 5.39 5.385 8.42 12.69 8.42 20.31v185.102c0 15.855-12.855 28.71-28.71 28.71zM348.903 597.569l163.44 163.43 163.415-163.427c5.605-5.607 12.95-8.41 20.3-8.41 7.345 0 14.695 2.802 20.3 8.408 11.215 11.212 11.215 29.39 0 40.603l-183.715 183.732c-5.38 5.385-12.685 8.41-20.3 8.41s-14.915-3.025-20.3-8.41l-183.74-183.73c-11.215-11.212-11.215-29.39 0-40.603 11.205-11.21 29.385-11.218 40.6-0.003zM483.628 627.657v-367.463c0-15.858 12.855-28.71 28.71-28.71s28.71 12.852 28.71 28.71v367.463c0 15.858-12.855 28.71-28.71 28.71s-28.71-12.852-28.71-28.71z" />
<glyph unicode="&#xe924;" glyph-name="pro-portafolio" d="M819.199 864.722h-76.8c-15.855 0-28.71-12.855-28.71-28.712 0-15.855 12.855-28.71 28.71-28.71h48.090v-721.95h-556.98v723.46h48.090c15.855 0 28.71 12.855 28.71 28.71 0 15.858-12.855 28.712-28.71 28.712h-76.8c-15.855 0-28.71-12.855-28.71-28.712v-780.882c0-15.855 12.855-28.71 28.71-28.71h614.4c15.855 0 28.71 12.855 28.71 28.71v779.372c0 15.858-12.855 28.712-28.71 28.712zM372.754 653.152h278.49c15.855 0 28.71 12.855 28.71 28.71v149.375c0 15.858-12.855 28.712-28.71 28.712s-28.71-12.855-28.71-28.712v-120.662h-221.070v122.175c0 15.855-12.855 28.71-28.71 28.71s-28.71-12.855-28.71-28.71v-150.887c0-15.855 12.855-28.71 28.71-28.71zM476.434 810.652h71.13c15.855 0 28.71 12.852 28.71 28.71s-12.855 28.71-28.71 28.71h-71.13c-15.855 0-28.71-12.852-28.71-28.71s12.855-28.71 28.71-28.71zM315.074 348.254l57.345-54.895c5.535-5.298 12.69-7.973 19.86-7.973 6.54 0 13.1 2.228 18.455 6.72l284.455 238.757c12.145 10.192 13.725 28.302 3.53 40.447-10.2 12.148-28.305 13.725-40.45 3.532l-264.735-222.207-38.75 37.095c-11.465 10.97-29.63 10.565-40.595-0.885-10.965-11.455-10.565-29.627 0.885-40.592z" />
<glyph unicode="&#xe925;" glyph-name="primer-contacto" d="M844.066 797.799c-13.19 8.793-31.015 5.232-39.815-7.963l-311.305-466.998-140.605 140.615c-11.21 11.21-29.39 11.215-40.6 0.003-11.215-11.212-11.215-29.39 0-40.603l165.365-165.383c5.41-5.413 12.725-8.41 20.3-8.41 0.94 0 1.885 0.045 2.83 0.138 8.56 0.85 16.29 5.49 21.060 12.647l330.735 496.14c8.795 13.192 5.23 31.018-7.965 39.813zM686.296 284.052c-15.855 0-28.71-12.855-28.71-28.71v-104.543h-433.015v433.020h270.15c15.855 0 28.71 12.852 28.71 28.71 0 15.855-12.855 28.71-28.71 28.71h-298.86c-15.855 0-28.71-12.855-28.71-28.71v-490.44c0-15.858 12.855-28.71 28.71-28.71h490.435c15.855 0 28.71 12.852 28.71 28.71v133.253c0 15.855-12.855 28.71-28.71 28.71z" />
<glyph unicode="&#xe926;" glyph-name="casa-cueva" d="M862.919 514.39l28.575-21.388c5.162-3.862 11.197-5.727 17.183-5.727 8.737 0 17.37 3.978 23.007 11.508 9.5 12.695 6.913 30.69-5.78 40.19l-45.78 34.265c-10.2 7.635-24.21 7.635-34.41 0l-45.78-34.265c-12.692-9.5-15.28-27.495-5.78-40.19 9.5-12.69 27.49-15.28 40.19-5.78l28.575 21.388zM62.571 595.233h120.063c132.675 0 191.89-64.195 260.453-138.53 73.555-79.745 156.925-170.13 341.672-170.13 15.858 0 28.71 12.855 28.71 28.71 0 15.858-12.852 28.71-28.71 28.71-159.595 0-227.535 73.66-299.465 151.643-71.203 77.195-144.83 157.017-302.66 157.017h-120.063c-15.858 0-28.71-12.855-28.71-28.71s12.852-28.71 28.71-28.71zM219.609 403.758c-15.858 0-28.71-12.852-28.71-28.71 0-15.855 12.852-28.71 28.71-28.71h62.82c15.855 0 28.71 12.855 28.71 28.71v83.25c0 30.198-19.62 75.125-73.675 75.125s-73.678-44.927-73.678-75.125v-16.63c0-15.858 12.852-28.71 28.71-28.71s28.71 12.852 28.71 28.71l-0.003 16.225c0.56 18.11 11.965 18.11 16.26 18.11 4.293 0 15.7 0 16.255-17.705v-54.54h-34.11zM727.714 123.905c-15.858 0-28.71-12.852-28.71-28.71s12.852-28.71 28.71-28.71h62.82c15.855 0 28.71 12.852 28.71 28.71v83.248c0 30.2-19.62 75.125-73.675 75.125s-73.678-44.925-73.678-75.125v-16.63c0-15.855 12.852-28.71 28.71-28.71s28.71 12.855 28.71 28.71l-0.003 16.225c0.56 18.11 11.965 18.11 16.26 18.11 4.293 0 15.698 0 16.255-17.705v-54.538h-34.11zM191.739 683.64c5.465 0 10.995 1.56 15.885 4.818l105.5 70.247c13.195 8.788 16.77 26.612 7.985 39.81-8.79 13.198-26.615 16.773-39.81 7.985l-105.5-70.247c-13.198-8.79-16.773-26.615-7.985-39.81 5.53-8.308 14.64-12.803 23.925-12.803zM364.179 798.463c5.465 0 10.995 1.56 15.885 4.818l68.577 45.665 229.733-205.292c0.167-0.15 0.36-0.245 0.528-0.39 1.040-0.885 2.128-1.69 3.267-2.412 0.275-0.175 0.537-0.37 0.815-0.532 1.325-0.778 2.702-1.443 4.125-1.995 0.385-0.15 0.775-0.255 1.165-0.387 1.102-0.375 2.222-0.682 3.363-0.923 0.447-0.093 0.888-0.187 1.335-0.26 1.507-0.242 3.025-0.408 4.56-0.408 0.178 0 0.355 0.030 0.532 0.035 0.91 0.018 1.817 0.070 2.723 0.172 0.432 0.050 0.863 0.133 1.298 0.202 0.695 0.112 1.388 0.242 2.077 0.405 0.423 0.103 0.842 0.212 1.262 0.332 0.778 0.223 1.543 0.485 2.303 0.775 0.302 0.115 0.605 0.215 0.905 0.34 1.098 0.46 2.173 0.98 3.215 1.58 0.003 0.003 0.005 0.003 0.007 0.005l139.345 80.408c38.47-25.407 76.87-51.242 82.41-55.8 12.005-10.36 30.135-9.027 40.495 2.977s9.027 30.132-2.975 40.492c-9.875 8.522-75.438 51.825-103.165 70.047-9.070 5.955-20.72 6.295-30.12 0.875l-136.697-78.883-229.37 204.965c-9.458 9.67-24.722 11.6-36.392 3.828l-87.145-58.028c-13.198-8.788-16.773-26.612-7.985-39.81 5.53-8.308 14.64-12.803 23.925-12.803zM888.949 40.488h-523.69v70.26c0 42.14-38.715 107.13-90.155 107.13-51.445 0-90.16-64.99-90.16-107.13v-71.245h-93.663v489.565c0 15.855-12.852 28.71-28.71 28.71s-28.71-12.855-28.71-28.71v-518.275c0-15.855 12.852-28.71 28.71-28.71h151.082c15.858 0 28.71 12.855 28.71 28.71v99.955c0 20.822 22.73 49.71 32.74 49.71 10.005 0 32.735-28.888 32.735-49.71v-98.97c0-15.858 12.852-28.71 28.71-28.71h552.4c15.855 0 28.71 12.852 28.71 28.71 0 15.855-12.855 28.71-28.71 28.71zM961.429 343.993h-69.8v107.382c0 15.858-12.855 28.71-28.71 28.71s-28.71-12.852-28.71-28.71v-135.758c0-0.057 0.007-0.112 0.007-0.167s-0.007-0.11-0.007-0.167c0-15.855 12.855-28.71 28.71-28.71h69.8v-274.795c0-15.858 12.855-28.71 28.71-28.71s28.71 12.852 28.71 28.71v303.505c0 15.858-12.855 28.71-28.71 28.71z" />
<glyph unicode="&#xe927;" glyph-name="mensaje-enviando" d="M202.045 532.514h-76.83c-15.855 0-28.71-12.855-28.71-28.71 0-15.858 12.855-28.71 28.71-28.71h76.83c15.855 0 28.71 12.852 28.71 28.71 0 15.855-12.855 28.71-28.71 28.71zM202.045 420.902h-155.41c-15.855 0-28.71-12.852-28.71-28.71 0-15.855 12.855-28.71 28.71-28.71h155.41c15.855 0 28.71 12.855 28.71 28.71 0 15.858-12.855 28.71-28.71 28.71zM733.9 294.097h-420.465v307.805h93.94c15.855 0 28.71 12.855 28.71 28.71 0 15.858-12.855 28.712-28.71 28.712h-122.65c-15.855 0-28.71-12.855-28.71-28.712v-365.225c0-15.855 12.855-28.71 28.71-28.71h449.175c15.855 0 28.71 12.855 28.71 28.71 0 15.858-12.855 28.71-28.71 28.71zM977.365 659.324h-450.935c-15.855 0-28.71-12.855-28.71-28.712 0-15.855 12.855-28.71 28.71-28.71h422.225v-307.805h-91.66c-15.855 0-28.71-12.852-28.71-28.71 0-15.855 12.855-28.71 28.71-28.71h120.37c15.855 0 28.71 12.855 28.71 28.71v365.225c0 15.858-12.855 28.712-28.71 28.712zM863.22 328.839c10.715 11.687 9.925 29.85-1.765 40.562l-95.044 87.12 103.109 56.982c13.88 7.67 18.915 25.138 11.245 39.015s-25.14 18.91-39.015 11.24l-210.615-116.392-210.65 117.94c-13.82 7.743-31.33 2.813-39.075-11.025-7.745-13.835-2.81-31.333 11.025-39.077l104.108-58.288-89.258-88.265c-11.275-11.148-11.38-29.328-0.23-40.6 5.615-5.68 13.015-8.525 20.415-8.525 7.295 0 14.59 2.762 20.185 8.298l101.026 99.9 68.339-38.26c4.355-2.44 9.19-3.66 14.025-3.66 4.78 0 9.565 1.192 13.885 3.583l68.465 37.835 109.26-100.148c5.51-5.053 12.46-7.547 19.39-7.547 7.77 0 15.515 3.135 21.175 9.313z" />
<glyph unicode="&#xe928;" glyph-name="filtro" d="M430.736 415.677c5.555 0 11.165 1.607 16.105 4.963 13.12 8.91 16.53 26.765 7.62 39.88l-194.775 286.783h437.595c15.855 0 28.71 12.855 28.71 28.71 0 15.858-12.855 28.71-28.71 28.71h-491.8c-10.635 0-20.395-5.875-25.37-15.272-4.98-9.395-4.355-20.773 1.62-29.567l225.23-331.623c5.555-8.178 14.585-12.583 23.775-12.583zM835.181 799.392c-12.925 9.208-30.85 6.192-40.045-6.717l-234.555-329.11c-0.039-0.052-0.059-0.115-0.097-0.17-1.025-1.455-1.911-3.010-2.654-4.647-0.056-0.125-0.122-0.242-0.177-0.368-0.684-1.565-1.217-3.207-1.616-4.905-0.039-0.165-0.091-0.325-0.126-0.49-0.342-1.585-0.531-3.222-0.599-4.893-0.010-0.238-0.032-0.47-0.036-0.707-0.003-0.163-0.024-0.32-0.024-0.483v-259.18l-95.83-53.413v216.822c0 15.858-12.855 28.712-28.71 28.712s-28.71-12.855-28.71-28.712v-265.695c0-10.18 5.39-19.598 14.165-24.755 4.49-2.635 9.515-3.955 14.545-3.955 4.815 0 9.63 1.21 13.98 3.632l153.25 85.418c9.095 5.070 14.73 14.665 14.73 25.078v266.865l229.225 321.63c9.205 12.912 6.195 30.84-6.715 40.042z" />
<glyph unicode="&#xe929;" glyph-name="flecha-arriba" d="M761.678 353.614l-229.38 229.375c-11.21 11.212-29.39 11.212-40.6 0l-229.38-229.375c-11.215-11.212-11.215-29.39 0-40.605 11.21-11.207 29.39-11.212 40.6 0l209.080 209.078 209.080-209.078c5.605-5.605 12.95-8.408 20.3-8.408s14.695 2.802 20.3 8.408c11.215 11.215 11.215 29.392 0 40.605z" />
<glyph unicode="&#xe92a;" glyph-name="flecha-der" d="M646.99 468.297l-229.38 229.385c-11.205 11.21-29.385 11.215-40.6 0-11.215-11.212-11.215-29.39 0-40.603l209.075-209.083-209.075-209.075c-11.215-11.212-11.215-29.392 0-40.603 5.605-5.607 12.95-8.41 20.3-8.41 7.345 0 14.695 2.802 20.3 8.41l229.38 229.375c11.215 11.212 11.215 29.39 0 40.603z" />
<glyph unicode="&#xe92b;" glyph-name="flecha-izq" d="M437.912 448.004l209.075 209.075c11.215 11.212 11.215 29.39 0 40.603-11.21 11.212-29.39 11.212-40.6 0l-229.375-229.377c-11.215-11.21-11.215-29.39 0-40.6l229.375-229.385c5.605-5.607 12.95-8.41 20.3-8.41 7.345 0 14.695 2.802 20.3 8.408 11.215 11.212 11.215 29.392 0 40.603l-209.075 209.085z" />
<glyph unicode="&#xe92c;" glyph-name="flecha" d="M928.009 468.302l-225.3 225.298c-11.21 11.212-29.39 11.212-40.6 0-11.215-11.21-11.215-29.39 0-40.603l204.995-204.997-204.995-204.997c-11.215-11.212-11.215-29.39 0-40.603 5.605-5.605 12.95-8.41 20.3-8.41 7.345 0 14.695 2.805 20.3 8.41l225.3 225.3c5.385 5.385 8.41 12.685 8.41 20.3s-3.025 14.917-8.41 20.302zM707.269 447.999c0 15.858-12.855 28.71-28.71 28.71h-562.265c-15.855 0-28.71-12.852-28.71-28.71 0-15.855 12.855-28.71 28.71-28.71h562.265c15.855 0 28.71 12.855 28.71 28.71z" />
<glyph unicode="&#xe92d;" glyph-name="flecha-abajo" d="M511.995 304.602c-7.35 0-14.695 2.802-20.3 8.409l-229.375 229.376c-11.215 11.212-11.215 29.391 0 40.603 11.215 11.214 29.395 11.21 40.6 0l209.075-209.075 209.085 209.076c11.215 11.214 29.395 11.209 40.6-0.001 11.215-11.212 11.215-29.391 0-40.603l-229.385-229.376c-5.605-5.605-12.955-8.409-20.3-8.409z" />
<glyph unicode="&#xe92e;" glyph-name="pro-fabrica-1" d="M497.719 303.786c15.855 0 28.71 12.855 28.71 28.71v4.34l122.455-122.46c5.605-5.605 12.95-8.41 20.3-8.41 7.345 0 14.695 2.805 20.3 8.41 11.215 11.21 11.215 29.39 0 40.603l-171.465 171.472c-8.21 8.215-20.57 10.665-31.285 6.225-10.73-4.445-17.725-14.913-17.725-26.525v-73.655c0-15.855 12.855-28.71 28.71-28.71zM326.244 303.786c15.855 0 28.71 12.855 28.71 28.71v4.342l122.465-122.463c5.605-5.605 12.95-8.41 20.3-8.41s14.695 2.805 20.3 8.41c11.215 11.212 11.215 29.39 0 40.603l-171.475 171.472c-8.21 8.215-20.57 10.665-31.285 6.225-10.73-4.445-17.725-14.913-17.725-26.525v-73.655c0-15.855 12.855-28.71 28.71-28.71zM230.314 103.636h-46.835v233.205l122.47-122.467c11.21-11.212 29.39-11.212 40.6 0 11.215 11.212 11.215 29.39 0 40.603l-171.48 171.48c-8.21 8.212-20.57 10.665-31.285 6.222-10.73-4.443-17.725-14.913-17.725-26.525v-331.227c0-15.858 12.855-28.712 28.71-28.712h75.545c15.855 0 28.71 12.855 28.71 28.712 0 15.855-12.855 28.71-28.71 28.71zM892.254 57.821c0.296 0.398 0.601 0.788 0.876 1.2 0.224 0.335 0.417 0.688 0.626 1.030 0.271 0.445 0.551 0.885 0.797 1.345 0.191 0.357 0.353 0.73 0.528 1.095 0.225 0.468 0.46 0.927 0.66 1.405 0.178 0.425 0.317 0.865 0.475 1.298 0.157 0.438 0.331 0.867 0.468 1.315 0.166 0.54 0.29 1.098 0.425 1.65 0.085 0.355 0.191 0.703 0.265 1.065 0.135 0.667 0.223 1.35 0.31 2.032 0.034 0.263 0.088 0.52 0.115 0.788 0.070 0.707 0.090 1.428 0.108 2.147 0.006 0.245 0.037 0.485 0.037 0.735 0 0.015-0.003 0.030-0.003 0.045-0.001 0.443-0.045 0.893-0.067 1.337-0.026 0.552-0.036 1.108-0.094 1.652-0.001 0.010 0 0.018-0.001 0.027l-12.095 112.767c-1.695 15.768-15.86 27.17-31.605 25.485-15.77-1.693-27.18-15.843-25.485-31.61l8.688-80.995h-509.853c-15.855 0-28.71-12.855-28.71-28.71 0-15.858 12.855-28.712 28.71-28.712h541.805c1.029 0 2.044 0.060 3.045 0.165 0.005 0 0.010 0 0.015 0.003 0.089 0.007 0.172 0.030 0.261 0.040 0.882 0.103 1.756 0.235 2.612 0.415 0.154 0.033 0.301 0.082 0.456 0.118 0.775 0.175 1.545 0.368 2.295 0.605 0.293 0.093 0.569 0.212 0.856 0.315 0.594 0.208 1.19 0.413 1.765 0.66 0.401 0.172 0.781 0.375 1.171 0.565 0.443 0.212 0.891 0.413 1.32 0.65 0.445 0.245 0.867 0.522 1.298 0.788 0.354 0.22 0.716 0.425 1.059 0.658 0.436 0.298 0.845 0.625 1.264 0.945 0.314 0.24 0.637 0.468 0.941 0.72 0.394 0.327 0.761 0.685 1.136 1.032 0.301 0.28 0.614 0.547 0.903 0.84 0.332 0.335 0.637 0.695 0.951 1.045 0.304 0.338 0.616 0.665 0.903 1.017 0.271 0.332 0.514 0.682 0.769 1.027zM669.129 609.908l-19.115-261.205c-1.155-15.813 10.725-29.573 26.54-30.727 15.78-1.162 29.57 10.723 30.73 26.538l17.165 234.59h61.83l31.45-293.147c1.58-14.725 14.025-25.65 28.51-25.65 1.025 0 2.055 0.055 3.095 0.165 15.77 1.693 27.18 15.845 25.485 31.61l-34.2 318.795c-1.565 14.587-13.875 25.648-28.545 25.648h-114.31c-15.045 0-27.535-11.61-28.635-26.615zM583.449 688.731c7.35 0 14.695 2.802 20.3 8.408 10.925 10.922 28.705 10.93 39.64-0.003 0.016-0.015 0.035-0.025 0.052-0.042 16.134-16.11 37.566-24.985 60.368-24.985 22.83 0 44.285 8.89 60.425 25.032 11.21 11.215 11.205 29.392-0.005 40.603-11.215 11.212-29.4 11.207-40.605-0.005-5.29-5.292-12.33-8.208-19.815-8.208-7.48 0-14.52 2.915-19.81 8.208-0.015 0.015-0.035 0.025-0.050 0.042-33.324 33.275-87.502 33.255-120.8-0.040-11.215-11.212-11.215-29.39 0-40.603 5.605-5.605 12.95-8.408 20.3-8.408z" />
<glyph unicode="&#xe92f;" glyph-name="pro-auto-frontal" d="M775.095 582.078v41.97c0 65.418-53.22 118.638-118.635 118.638h-288.925c-65.415 0-118.63-53.22-118.63-118.638v-41.97c-45.078-12.592-78.285-53.93-78.285-102.973v-151.8c0-15.855 12.855-28.71 28.71-28.71s28.71 12.855 28.71 28.71v151.805c0 27.335 22.24 49.573 49.575 49.573 15.855 0 28.71 12.855 28.71 28.712v66.653c0 33.755 27.46 61.215 61.21 61.215h288.925c33.755 0 61.215-27.46 61.215-61.215v-66.653c0-15.858 12.855-28.712 28.71-28.712 27.335 0 49.575-22.24 49.575-49.578v-151.8c0-15.855 12.855-28.71 28.71-28.71s28.71 12.855 28.71 28.71v151.805c0 49.040-33.208 90.378-78.285 102.968zM316.755 327.306c-15.855 0-28.71-12.855-28.71-28.71v-116.57c0-15.855 12.855-28.71 28.71-28.71s28.71 12.855 28.71 28.71v116.57c0 15.855-12.855 28.71-28.71 28.71zM708.175 327.306c-15.855 0-28.71-12.855-28.71-28.71v-116.57c0-15.855 12.855-28.71 28.71-28.71s28.71 12.855 28.71 28.71v116.57c0 15.855-12.855 28.71-28.71 28.71zM571.025 319.466h-117.11c-15.855 0-28.71-12.855-28.71-28.71 0-15.858 12.855-28.712 28.71-28.712h117.11c15.855 0 28.71 12.855 28.71 28.712 0 15.855-12.855 28.71-28.71 28.71zM639.804 472.526c-21.839 2.828-41.836-12.58-44.669-34.415-2.832-21.838 12.577-41.838 34.416-44.67 21.836-2.83 41.836 12.575 44.669 34.412 2.829 21.84-12.577 41.84-34.416 44.673zM395.383 472.526c-21.839 2.828-41.836-12.58-44.667-34.415-2.832-21.838 12.575-41.838 34.412-44.67 21.84-2.83 41.838 12.575 44.669 34.412 2.831 21.84-12.576 41.84-34.414 44.673z" />
<glyph unicode="&#xe930;" glyph-name="pro-embarcacion" d="M885.822 307.701c-5.355 9.48-15.705 15.118-26.485 14.555l-497.385-25.785c-15.835-0.82-28.010-14.325-27.185-30.16 0.82-15.835 14.285-28 30.155-27.185l439.835 22.802-107.040-158.292h-452.76l-42.595 127.79 48.665 2.467c15.835 0.805 28.020 14.292 27.22 30.128-0.805 15.837-14.275 28.025-30.13 27.22l-86.395-4.383c-8.96-0.455-17.195-5.072-22.255-12.483-5.060-7.408-6.365-16.758-3.525-25.27l61.085-183.26c3.905-11.725 14.875-19.632 27.235-19.632h488.7c9.53 0 18.445 4.733 23.785 12.628l147.86 218.66c6.1 9.020 6.57 20.718 1.215 30.2zM462.532 341.003c15.855 0 28.71 12.855 28.71 28.712v503.205c0 15.858-12.855 28.71-28.71 28.71s-28.71-12.852-28.71-28.71v-503.205c0-15.858 12.855-28.712 28.71-28.712zM721.817 414.146l-166.685-9.637c-15.83-0.918-27.925-14.49-27.005-30.32 0.88-15.267 13.535-27.055 28.635-27.055 0.555 0 1.12 0.018 1.68 0.050l211.18 12.212c9.745 0.562 18.535 6.035 23.34 14.533 4.8 8.495 4.96 18.85 0.42 27.487l-222.055 422.405c-7.38 14.030-24.72 19.435-38.775 12.052-14.035-7.378-19.43-24.737-12.055-38.772l201.32-382.955z" />
<glyph unicode="&#xe931;" glyph-name="pro-engranajes" d="M573.189 461.651c4.675-10.87 15.265-17.373 26.39-17.373 3.785 0 7.635 0.752 11.33 2.343 9.89 4.255 20.275 7.46 30.865 9.533 13.48 2.635 23.205 14.445 23.205 28.178v17.627h41.385c15.855 0 28.71 12.852 28.71 28.71 0 15.855-12.855 28.71-28.71 28.71h-70.095c-15.855 0-28.71-12.855-28.71-28.71v-24.093c-6.565-2.085-13.025-4.49-19.34-7.207-14.565-6.265-21.295-23.152-15.030-37.718zM805.444 449.028l29.265-29.265c5.605-5.605 12.95-8.408 20.3-8.408s14.695 2.805 20.3 8.41c11.215 11.212 11.215 29.392 0 40.603l-49.565 49.56c-11.205 11.207-29.385 11.212-40.6 0.003l-17.045-17.040c-6.055 3.14-12.26 5.98-18.575 8.507-14.745 5.89-31.43-1.28-37.32-16.003-5.885-14.723 1.28-31.43 16-37.315 9.945-3.978 19.515-9.038 28.435-15.043 11.4-7.662 26.615-6.192 36.33 3.517l12.475 12.473zM896.044 369.691h-24.090c-1.845 5.815-3.945 11.545-6.285 17.165-6.105 14.638-22.94 21.545-37.55 15.45-14.635-6.102-21.55-22.915-15.45-37.55 3.925-9.407 6.905-19.255 8.855-29.27 2.63-13.485 14.44-23.218 28.18-23.218h17.63v-41.377c0-15.855 12.855-28.71 28.71-28.71s28.71 12.855 28.71 28.71v70.090c0 15.855-12.855 28.71-28.71 28.71zM858.269 209.151c2.695 5.2 5.17 10.503 7.41 15.888 6.090 14.638-0.84 31.445-15.48 37.535-14.63 6.092-31.445-0.84-37.54-15.478-3.835-9.228-8.63-18.14-14.25-26.49-7.66-11.395-6.185-26.617 3.525-36.325l12.47-12.47-29.265-29.265c-11.21-11.21-11.21-29.39 0.005-40.6 5.605-5.607 12.95-8.41 20.3-8.41s14.695 2.805 20.305 8.41l49.56 49.567c11.21 11.212 11.21 29.39-0.005 40.603l-17.035 17.035zM728.244 163.811c-8.83-3.54-18.040-6.26-27.385-8.085-13.48-2.632-23.205-14.442-23.205-28.178v-17.633h-41.385c-15.855 0-28.71-12.855-28.71-28.71 0-15.858 12.855-28.712 28.71-28.712h70.095c15.855 0 28.71 12.855 28.71 28.712v24.095c4.915 1.56 9.77 3.3 14.54 5.215 14.72 5.9 21.865 22.615 15.965 37.332-5.905 14.715-22.61 21.868-37.335 15.963zM623.894 128.058c6.435 14.493-0.1 31.457-14.59 37.89-8.115 3.602-15.96 7.937-23.31 12.888-11.4 7.675-26.63 6.195-36.34-3.515l-12.465-12.47-29.265 29.262c-11.21 11.21-29.39 11.215-40.6 0-11.215-11.212-11.215-29.39 0-40.603l49.565-49.565c5.385-5.385 12.685-8.41 20.3-8.41s14.92 3.025 20.305 8.41l17.035 17.038c3.77-1.957 7.6-3.798 11.475-5.518 14.495-6.433 31.46 0.097 37.89 14.593zM476.054 227.231c4.51-11.19 15.27-17.985 26.64-17.985 3.57 0.003 7.205 0.673 10.725 2.090 14.705 5.93 21.82 22.657 15.895 37.362-3.6 8.927-6.365 18.247-8.215 27.71-2.635 13.475-14.445 23.195-28.175 23.195h-17.63v41.385c0 15.858-12.855 28.71-28.71 28.71s-28.71-12.852-28.71-28.71v-70.095c0-15.858 12.855-28.71 28.71-28.71h24.095c1.605-5.055 3.4-10.047 5.375-14.952zM557.489 509.926c-11.205 11.21-29.385 11.218-40.6 0.003l-49.565-49.56c-5.385-5.385-8.41-12.688-8.41-20.302s3.025-14.917 8.41-20.302l17.040-17.040c-3.12-6.020-5.945-12.18-8.455-18.448-5.89-14.72 1.265-31.43 15.985-37.322 3.5-1.403 7.11-2.065 10.66-2.065 11.39 0.003 22.17 6.828 26.665 18.047 3.955 9.88 9 19.412 15 28.33 7.665 11.393 6.19 26.617-3.52 36.327l-12.47 12.473 29.26 29.258c11.215 11.212 11.215 29.39 0 40.603zM671.314 403.651c-53.88 0-97.715-43.833-97.715-97.71 0-53.883 43.835-97.72 97.715-97.72 53.885 0 97.72 43.837 97.72 97.72 0 53.878-43.835 97.71-97.72 97.71zM671.314 265.643c-22.22 0-40.295 18.077-40.295 40.298 0 22.215 18.075 40.29 40.295 40.29s40.3-18.075 40.3-40.29c0-22.22-18.080-40.298-40.3-40.298zM280.954 728.406c3.785 0 7.635 0.752 11.335 2.345 9.86 4.242 20.245 7.448 30.865 9.522 13.475 2.635 23.2 14.445 23.2 28.178v17.635h41.38c15.855 0 28.71 12.852 28.71 28.71 0 15.855-12.855 28.71-28.71 28.71h-70.090c-15.855 0-28.71-12.855-28.71-28.71v-24.095c-6.575-2.085-13.035-4.49-19.345-7.207-14.565-6.267-21.29-23.158-15.020-37.72 4.675-10.868 15.26-17.37 26.385-17.368zM393.579 769.523c-5.885-14.723 1.28-31.43 16-37.317 9.925-3.965 19.49-9.027 28.43-15.045 11.4-7.668 26.62-6.192 36.33 3.517l12.475 12.473 29.265-29.265c5.605-5.605 12.95-8.408 20.3-8.408 7.345 0 14.695 2.802 20.3 8.408 11.215 11.212 11.215 29.39 0 40.603l-49.565 49.567c-11.21 11.21-29.39 11.215-40.6 0l-17.040-17.040c-6.060 3.143-12.265 5.985-18.575 8.51-14.745 5.89-31.435-1.283-37.32-16.003zM547.044 670.976c-6.095 14.638-22.905 21.558-37.545 15.457-14.635-6.098-21.555-22.907-15.455-37.545 3.915-9.403 6.9-19.255 8.855-29.287 2.635-13.477 14.445-23.205 28.18-23.205h17.63v-41.377c0-15.858 12.855-28.71 28.71-28.71s28.71 12.852 28.71 28.71v70.087c0 15.858-12.855 28.71-28.71 28.71h-24.090c-1.845 5.815-3.945 11.545-6.285 17.16zM446.954 431.966c-5.9 14.717-22.63 21.87-37.33 15.967-8.82-3.535-18.035-6.252-27.395-8.080-13.48-2.63-23.21-14.442-23.21-28.178v-17.633h-41.38c-15.855 0-28.71-12.855-28.71-28.712 0-15.855 12.855-28.71 28.71-28.71h70.090c15.855 0 28.71 12.855 28.71 28.71v24.093c4.92 1.558 9.775 3.297 14.545 5.21 14.72 5.9 21.87 22.612 15.97 37.332zM305.269 412.186c6.435 14.493-0.1 31.455-14.59 37.89-8.115 3.6-15.96 7.937-23.31 12.885-11.39 7.668-26.62 6.192-36.33-3.515l-12.475-12.473-29.265 29.262c-11.21 11.212-29.39 11.21-40.6-0.003-11.215-11.212-11.215-29.39 0-40.603l49.565-49.56c5.605-5.605 12.95-8.408 20.3-8.408 7.345 0 14.695 2.802 20.3 8.408l17.040 17.040c3.775-1.957 7.605-3.798 11.475-5.518 14.505-6.43 31.455 0.097 37.89 14.593zM157.424 511.358c4.51-11.188 15.27-17.985 26.64-17.983 3.57 0 7.205 0.67 10.725 2.090 14.705 5.927 21.82 22.655 15.895 37.36-3.61 8.95-6.37 18.265-8.205 27.685-2.625 13.488-14.44 23.22-28.18 23.22h-17.635v41.38c0 15.855-12.855 28.71-28.71 28.71s-28.71-12.855-28.71-28.71v-70.090c0-15.855 12.855-28.71 28.71-28.71h24.095c1.605-5.050 3.4-10.043 5.375-14.952zM165.734 686.846c-3.115-6.010-5.94-12.165-8.45-18.433-5.9-14.717 1.25-31.432 15.97-37.33 3.5-1.403 7.115-2.068 10.67-2.068 11.39 0 22.165 6.82 26.66 18.038 3.97 9.905 9.015 19.435 15 28.327 7.67 11.393 6.2 26.623-3.515 36.332l-12.47 12.473 29.265 29.265c11.215 11.212 11.215 29.39 0 40.603-11.205 11.21-29.385 11.215-40.6 0.003l-49.57-49.567c-5.385-5.385-8.41-12.688-8.41-20.302s3.025-14.917 8.41-20.3l17.040-17.040zM352.689 687.778c-53.88 0-97.715-43.837-97.715-97.718s43.835-97.712 97.715-97.712 97.71 43.833 97.71 97.712-43.83 97.718-97.71 97.718zM352.689 549.771c-22.22 0-40.295 18.073-40.295 40.29 0 22.22 18.075 40.298 40.295 40.298 22.215 0 40.29-18.077 40.29-40.298 0-22.218-18.075-40.29-40.29-40.29z" />
<glyph unicode="&#xe932;" glyph-name="pro-fabrica-3" d="M390.191 514.973c0-15.855 12.855-28.71 28.71-28.71s28.71 12.855 28.71 28.71v260.413c0 15.858-12.855 28.71-28.71 28.71h-331.425c-15.855 0-28.71-12.852-28.71-28.71v-689.597c0-15.855 12.855-28.71 28.71-28.71s28.71 12.855 28.71 28.71v660.887h274.005v-231.702zM539.856 337.791c15.855 0 28.71 12.855 28.71 28.712v14.060l145.1-145.1c5.605-5.607 12.95-8.41 20.3-8.41 7.345 0 14.695 2.802 20.3 8.41 11.215 11.212 11.215 29.39 0 40.603l-194.11 194.113c-8.21 8.215-20.57 10.665-31.285 6.225-10.73-4.445-17.725-14.913-17.725-26.525v-83.375c0-15.858 12.855-28.712 28.71-28.712zM487.431 235.458c11.21-11.212 29.39-11.212 40.6 0 11.215 11.212 11.215 29.39 0 40.603l-194.12 194.12c-8.205 8.212-20.57 10.663-31.285 6.222-10.73-4.443-17.725-14.913-17.725-26.525v-202.173c-1.354 0.197-2.727 0.332-4.135 0.332h-95.88c-15.855 0-28.71-12.855-28.71-28.712v-133.537c0-15.855 12.855-28.71 28.71-28.71s28.71 12.855 28.71 28.71v104.827h67.17c1.407 0 2.781 0.135 4.135 0.332v-116.022c0-15.858 12.855-28.712 28.71-28.712h85.52c15.855 0 28.71 12.855 28.71 28.712 0 15.855-12.855 28.71-28.71 28.71h-56.81v276.93l145.11-145.108zM959.388 57.618c0.357 0.47 0.719 0.938 1.046 1.43 0.165 0.25 0.308 0.513 0.465 0.765 0.329 0.532 0.66 1.060 0.956 1.612 0.14 0.263 0.255 0.537 0.386 0.803 0.278 0.56 0.556 1.117 0.797 1.697 0.133 0.32 0.236 0.652 0.357 0.978 0.201 0.543 0.411 1.078 0.581 1.633 0.131 0.43 0.225 0.875 0.338 1.313 0.119 0.465 0.253 0.925 0.347 1.398 0.116 0.575 0.186 1.16 0.268 1.745 0.049 0.357 0.12 0.707 0.155 1.070 0.065 0.65 0.080 1.313 0.1 1.975 0.010 0.298 0.045 0.59 0.045 0.89 0 0.018-0.003 0.035-0.003 0.052-0.001 0.417-0.045 0.845-0.064 1.265-0.026 0.575-0.037 1.153-0.097 1.718-0.001 0.007 0 0.018-0.001 0.027l-13.69 127.655c-1.69 15.768-15.835 27.167-31.605 25.485-15.765-1.69-27.175-15.843-25.485-31.608l10.282-95.885h-381.162c-15.855 0-28.71-12.855-28.71-28.71 0-15.858 12.855-28.712 28.71-28.712h413.115c1.029 0 2.044 0.060 3.045 0.165 0.005 0 0.010 0 0.015 0.003 0.090 0.007 0.175 0.030 0.264 0.040 0.881 0.103 1.753 0.235 2.609 0.415 0.157 0.033 0.306 0.082 0.462 0.118 0.774 0.178 1.543 0.368 2.291 0.607 0.278 0.088 0.541 0.2 0.816 0.298 0.609 0.212 1.219 0.425 1.809 0.677 0.37 0.16 0.721 0.347 1.084 0.522 0.474 0.227 0.953 0.443 1.411 0.695 0.404 0.223 0.785 0.475 1.176 0.715 0.396 0.242 0.801 0.473 1.184 0.735 0.386 0.263 0.749 0.555 1.12 0.837 0.364 0.275 0.737 0.54 1.089 0.833 0.338 0.283 0.65 0.588 0.974 0.885 0.359 0.327 0.726 0.647 1.068 0.993 0.272 0.275 0.52 0.573 0.781 0.86 0.362 0.398 0.733 0.788 1.072 1.208 0.21 0.257 0.398 0.532 0.598 0.8zM713.856 681.096l-26.42-257.45c-1.62-15.775 9.855-29.875 25.63-31.493 15.745-1.622 29.87 9.857 31.49 25.63l23.775 231.67h77.695l35.955-335.233c1.58-14.725 14.025-25.65 28.51-25.65 1.025 0 2.055 0.055 3.095 0.165 15.77 1.69 27.18 15.843 25.485 31.61l-38.705 360.88c-1.565 14.587-13.875 25.65-28.545 25.65h-129.405c-14.72 0-27.060-11.135-28.56-25.78zM633.311 781.963c6.71 6.708 15.63 10.403 25.115 10.403s18.405-3.695 25.115-10.403c0.016-0.018 0.036-0.027 0.052-0.042 18.109-18.090 41.883-27.135 65.667-27.135 23.795 0 47.6 9.060 65.715 27.175 11.215 11.212 11.215 29.39 0.005 40.603-11.215 11.212-29.39 11.218-40.605 0.003-13.85-13.85-36.38-13.845-50.23 0-0.015 0.015-0.035 0.025-0.050 0.040-17.545 17.525-40.865 27.18-65.67 27.18-24.825 0-48.165-9.667-65.715-27.22-11.215-11.215-11.215-29.392 0-40.605 11.21-11.21 29.39-11.21 40.6 0.003zM212.711 671.696c-0.41 1.842-0.925 3.635-1.64 5.375-0.715 1.742-1.64 3.38-2.66 4.915-1.025 1.588-2.255 3.073-3.585 4.405-1.33 1.33-2.765 2.508-4.355 3.583-1.535 1.025-3.225 1.895-4.965 2.612-1.69 0.715-3.53 1.28-5.375 1.637-3.685 0.767-7.475 0.767-11.215 0-1.79-0.357-3.635-0.923-5.375-1.637-1.69-0.718-3.38-1.588-4.915-2.612-1.585-1.075-3.070-2.252-4.405-3.583-1.33-1.332-2.505-2.817-3.53-4.405-1.075-1.535-1.945-3.173-2.665-4.915-0.715-1.74-1.28-3.532-1.635-5.375-0.36-1.842-0.565-3.737-0.565-5.633 0-1.842 0.205-3.737 0.565-5.58 0.355-1.842 0.92-3.635 1.635-5.377 0.72-1.74 1.59-3.43 2.665-4.965 1.025-1.588 2.2-3.020 3.53-4.353 1.335-1.332 2.82-2.508 4.405-3.585 1.535-1.023 3.225-1.945 4.915-2.663 1.74-0.715 3.585-1.228 5.375-1.637 1.845-0.357 3.74-0.562 5.635-0.562 7.575 0 14.95 3.073 20.275 8.447 1.33 1.332 2.56 2.765 3.585 4.353 1.020 1.535 1.945 3.225 2.66 4.965 0.715 1.742 1.23 3.535 1.64 5.377 0.355 1.842 0.56 3.737 0.56 5.58 0 1.895-0.205 3.79-0.56 5.633zM212.711 562.741c-0.41 1.845-0.925 3.687-1.64 5.377-0.715 1.74-1.64 3.43-2.66 4.965-1.025 1.588-2.255 3.073-3.585 4.353-5.325 5.377-12.75 8.447-20.275 8.447-7.58 0-14.95-3.070-20.33-8.447-1.33-1.28-2.505-2.765-3.53-4.353-1.075-1.535-1.945-3.225-2.665-4.965-0.715-1.69-1.28-3.532-1.635-5.377-0.36-1.842-0.565-3.737-0.565-5.58 0-1.895 0.205-3.788 0.565-5.633 0.355-1.793 0.92-3.635 1.635-5.375 0.72-1.69 1.59-3.38 2.665-4.915 1.025-1.588 2.2-3.073 3.53-4.402 5.38-5.325 12.75-8.398 20.33-8.398 7.525 0 14.95 3.073 20.275 8.398 1.33 1.33 2.56 2.815 3.585 4.402 1.020 1.535 1.945 3.225 2.66 4.915 0.715 1.74 1.23 3.583 1.64 5.375 0.355 1.845 0.56 3.737 0.56 5.633 0 1.842-0.205 3.737-0.56 5.58zM211.071 459.216c-0.715 1.74-1.64 3.38-2.66 4.965-1.025 1.537-2.255 3.022-3.585 4.353s-2.765 2.51-4.355 3.585c-1.535 1.023-3.225 1.895-4.965 2.61-1.69 0.718-3.53 1.28-5.375 1.64-3.685 0.767-7.475 0.767-11.215 0-1.79-0.36-3.635-0.923-5.375-1.64-1.69-0.715-3.38-1.588-4.915-2.61-1.585-1.075-3.070-2.252-4.405-3.585-1.33-1.33-2.505-2.815-3.53-4.353-1.075-1.585-1.945-3.225-2.665-4.965-0.715-1.74-1.28-3.532-1.635-5.375-0.36-1.845-0.565-3.74-0.565-5.633 0-1.845 0.205-3.737 0.565-5.582 0.355-1.842 0.92-3.635 1.635-5.375 0.72-1.74 1.59-3.43 2.665-4.967 1.025-1.588 2.2-3.020 3.53-4.35 1.335-1.332 2.82-2.51 4.405-3.585 1.535-1.025 3.225-1.895 4.915-2.612 1.74-0.767 3.585-1.28 5.375-1.688 1.845-0.36 3.74-0.565 5.635-0.565 7.575 0 14.95 3.073 20.275 8.45 1.33 1.33 2.56 2.762 3.585 4.35 1.020 1.537 1.945 3.227 2.66 4.967s1.23 3.532 1.64 5.375c0.355 1.845 0.56 3.737 0.56 5.582 0 1.893-0.205 3.788-0.56 5.633-0.41 1.842-0.925 3.635-1.64 5.375zM158.026 328.296c0.72-1.688 1.59-3.378 2.665-4.915 1.025-1.585 2.2-3.070 3.53-4.402 5.38-5.325 12.75-8.398 20.33-8.398 7.525 0 14.95 3.073 20.275 8.398 1.33 1.332 2.56 2.817 3.585 4.402 1.020 1.537 1.945 3.227 2.66 4.915 0.715 1.742 1.23 3.585 1.64 5.377 0.355 1.895 0.56 3.737 0.56 5.633 0 1.842-0.205 3.737-0.56 5.63-0.41 1.793-0.925 3.635-1.64 5.325-0.715 1.742-1.64 3.43-2.66 4.967-1.025 1.588-2.255 3.020-3.585 4.353-6.655 6.708-16.54 9.78-25.91 7.885-1.79-0.36-3.635-0.923-5.375-1.64-1.69-0.715-3.38-1.637-4.915-2.66-1.585-1.025-3.070-2.255-4.405-3.585-1.33-1.332-2.505-2.765-3.53-4.353-1.075-1.537-1.945-3.225-2.665-4.967-0.715-1.69-1.28-3.532-1.635-5.325-0.36-1.893-0.565-3.735-0.565-5.63s0.205-3.737 0.565-5.633c0.355-1.793 0.92-3.635 1.635-5.377zM342.141 686.391c-1.28 1.33-2.76 2.508-4.35 3.532-1.535 1.075-3.225 1.945-4.965 2.663-1.74 0.715-3.535 1.28-5.375 1.637-3.69 0.767-7.53 0.767-11.215 0-1.845-0.357-3.635-0.923-5.375-1.637-1.74-0.718-3.38-1.588-4.965-2.663-1.54-1.025-3.025-2.203-4.355-3.532-5.325-5.377-8.395-12.75-8.395-20.327 0-7.527 3.070-14.95 8.395-20.275 1.33-1.332 2.815-2.56 4.355-3.585 1.585-1.023 3.225-1.893 4.965-2.61s3.53-1.28 5.375-1.637c1.845-0.41 3.74-0.565 5.63-0.565 1.845 0 3.74 0.155 5.585 0.565 1.84 0.357 3.635 0.92 5.375 1.637s3.43 1.588 4.965 2.61c1.59 1.025 3.070 2.252 4.35 3.585 1.335 1.332 2.56 2.765 3.585 4.353 1.025 1.535 1.945 3.225 2.665 4.965 0.715 1.742 1.23 3.535 1.635 5.377 0.36 1.842 0.565 3.737 0.565 5.58 0 7.577-3.070 14.95-8.45 20.327zM348.391 568.118c-0.72 1.74-1.64 3.43-2.665 4.965-1.025 1.588-2.25 3.073-3.585 4.353-6.655 6.708-16.585 9.727-25.905 7.885-1.845-0.41-3.635-0.92-5.375-1.637s-3.38-1.64-4.965-2.663c-1.54-1.025-3.025-2.252-4.355-3.585-5.325-5.325-8.395-12.748-8.395-20.275 0-7.577 3.070-14.95 8.395-20.325 1.33-1.332 2.815-2.51 4.355-3.535 1.585-1.075 3.225-1.945 4.965-2.66 1.74-0.718 3.53-1.28 5.375-1.64 1.845-0.357 3.74-0.562 5.63-0.562 7.53 0 14.955 3.073 20.275 8.398 1.335 1.33 2.56 2.815 3.585 4.35 1.025 1.588 1.945 3.227 2.665 4.967 0.715 1.74 1.23 3.532 1.635 5.375 0.36 1.845 0.565 3.737 0.565 5.633 0 1.842-0.205 3.737-0.565 5.58-0.405 1.845-0.92 3.687-1.635 5.377z" />
<glyph unicode="&#xe933;" glyph-name="pro-balanza" d="M515.398 87.448c15.855 0 28.71 12.852 28.71 28.71v689.653c0 15.855-12.855 28.71-28.71 28.71s-28.71-12.855-28.71-28.71v-689.652c0-15.858 12.855-28.71 28.71-28.71zM749.458 52.833h-468.115c-15.855 0-28.71-12.852-28.71-28.71 0-15.855 12.855-28.71 28.71-28.71h468.115c15.855 0 28.71 12.855 28.71 28.71 0 15.858-12.855 28.71-28.71 28.71zM664.913 463.848c4.81-3.103 10.205-4.585 15.535-4.585 9.425 0 18.665 4.64 24.155 13.153l125.055 193.917 125.18-193.927c8.595-13.322 26.365-17.147 39.69-8.55 13.32 8.6 17.15 26.37 8.55 39.692l-149.31 231.312c-5.285 8.19-14.37 13.14-24.12 13.14h-0.005c-9.755-0.003-18.84-4.955-24.125-13.15l-149.175-231.312c-8.59-13.328-4.755-31.095 8.57-39.69zM1003.648 424.466c-13.765 7.85-31.305 3.060-39.16-10.717-27.645-48.48-79.445-78.595-135.18-78.595-55.995 0-107.905 30.318-135.485 79.125-7.805 13.805-25.315 18.67-39.12 10.873-13.805-7.8-18.67-25.315-10.87-39.12 37.745-66.8 108.815-108.298 185.475-108.298 76.31 0 147.22 41.217 185.060 107.57 7.855 13.775 3.055 31.308-10.72 39.163zM30.653 616.436c13.315-8.592 31.095-4.76 39.69 8.568l125.055 193.917 125.185-193.927c5.49-8.507 14.72-13.142 24.145-13.142 5.335 0 10.73 1.485 15.545 4.592 13.32 8.598 17.15 26.37 8.55 39.69l-149.315 231.312c-5.285 8.193-14.37 13.14-24.12 13.14h-0.005c-9.755-0.003-18.84-4.955-24.125-13.15l-149.175-231.312c-8.59-13.325-4.755-31.095 8.57-39.687zM380.113 542.673c7.855 13.775 3.055 31.308-10.715 39.163-13.765 7.855-31.31 3.062-39.165-10.715-27.65-48.48-79.45-78.595-135.185-78.595-55.99 0-107.905 30.318-135.48 79.125-7.8 13.805-25.31 18.67-39.12 10.873-13.805-7.8-18.67-25.315-10.87-39.12 37.74-66.8 108.81-108.298 185.47-108.298 76.31 0 147.22 41.217 185.065 107.568z" />
<glyph unicode="&#xe934;" glyph-name="pro-camion-1" d="M951.164 764.776h-541.915c-15.855 0-28.71-12.855-28.71-28.71v-217.192c0-15.855 12.855-28.71 28.71-28.71s28.71 12.855 28.71 28.71v188.483h484.495v-507.63c0-15.858 12.855-28.712 28.71-28.712s28.71 12.855 28.71 28.712v536.34c0 15.855-12.855 28.71-28.71 28.71zM866.019 219.166c-14.575 6.265-31.455-0.465-37.72-15.030-4.045-9.41-13.28-15.49-23.52-15.49-14.095 0-25.565 11.465-25.565 25.555 0 14.102 11.47 25.575 25.565 25.575 15.855 0 28.71 12.855 28.71 28.71s-12.855 28.71-28.71 28.71c-45.76 0-82.985-37.23-82.985-82.995 0-45.753 37.225-82.977 82.985-82.977 33.21 0 63.15 19.715 76.27 50.225 6.265 14.567-0.465 31.453-15.030 37.718zM285.129 219.166c-14.585 6.265-31.46-0.465-37.72-15.030-4.045-9.41-13.275-15.49-23.515-15.49-14.1 0-25.57 11.465-25.57 25.555 0 14.102 11.47 25.575 25.57 25.575 15.855 0 28.71 12.855 28.71 28.71s-12.855 28.71-28.71 28.71c-45.76 0-82.99-37.23-82.99-82.995 0-45.753 37.23-82.977 82.99-82.977 33.21 0 63.145 19.715 76.265 50.225 6.265 14.567-0.465 31.453-15.030 37.718zM409.249 273.243c15.855 0 28.71 12.852 28.71 28.71v109.108c0 15.855-12.855 28.71-28.71 28.71s-28.71-12.855-28.71-28.71v-109.108c0-15.858 12.855-28.71 28.71-28.71zM645.149 228.743h-267.62c-15.855 0-28.71-12.852-28.71-28.71s12.855-28.71 28.71-28.71h267.62c15.855 0 28.71 12.852 28.71 28.71s-12.855 28.71-28.71 28.71zM317.354 594.131h-17.94c-51.030 0-92.55-41.52-92.55-92.558v-85.657c0-15.855 12.855-28.71 28.71-28.71s28.71 12.855 28.71 28.71v85.657c0 19.375 15.76 35.135 35.13 35.135h17.94c15.855 0 28.71 12.855 28.71 28.712 0 15.855-12.855 28.71-28.71 28.71zM174.779 421.236c0 15.855-12.855 28.71-28.71 28.71-56.215 0-101.945-45.733-101.945-101.945v-57.89c0-15.858 12.855-28.712 28.71-28.712s28.71 12.855 28.71 28.712v57.89c0 24.55 19.975 44.525 44.525 44.525 15.855 0 28.71 12.852 28.71 28.71z" />
<glyph unicode="&#xe935;" glyph-name="pro-euro" d="M530.731 644.343c22.91 0 45.455-9.81 65.19-28.37 11.555-10.862 29.725-10.307 40.585 1.245 10.86 11.55 10.305 29.72-1.245 40.583-30.585 28.763-66.73 43.965-104.53 43.965-100.145 0-181.62-109.455-181.62-243.99s81.475-243.995 181.62-243.995c38.475 0 75.135 15.695 106.015 45.385 11.43 10.99 11.785 29.165 0.795 40.595-10.99 11.425-29.16 11.79-40.595 0.795-19.975-19.205-42.87-29.355-66.215-29.355-47.212 0-89.255 42.043-110.18 102.025h110.175c15.855 0 28.71 12.855 28.71 28.71 0 15.858-12.855 28.71-28.71 28.71h-122.808c-0.905 8.88-1.388 17.938-1.388 27.13 0 10.887 0.697 21.578 1.957 32.015h122.237c15.855 0 28.71 12.855 28.71 28.71 0 15.858-12.855 28.712-28.71 28.712h-108.425c21.467 57.365 62.51 97.13 108.43 97.13zM1012.301 492.883c-11.345 126.765-69.745 243.472-164.435 328.62-89.23 80.242-204.36 125.94-324.18 128.675-118.705 2.71-234.39-36.528-326.255-110.475-12.35-9.942-14.3-28.015-4.36-40.368 9.95-12.347 28.015-14.31 40.37-4.36 81.32 65.462 183.96 100.185 288.93 97.797 106.11-2.422 208.070-42.898 287.105-113.965 83.865-75.417 135.585-178.777 145.63-291.043 9.995-111.687-21.99-221.968-90.070-310.525-9.665-12.573-7.31-30.597 5.26-40.26 5.22-4.010 11.37-5.95 17.48-5.95 8.61 0 17.125 3.858 22.78 11.212 76.895 100.022 113.025 224.55 101.745 350.64zM762.181 79.986c-169.635-115.52-394.835-100.215-547.655 37.21-78.71 70.78-129.695 167.468-143.55 272.253-13.71 103.653 9.44 209.042 65.19 296.752 8.505 13.38 4.555 31.125-8.83 39.63-13.38 8.5-31.125 4.555-39.63-8.83-62.975-99.075-89.13-218.077-73.655-335.080 15.65-118.33 73.21-227.508 162.085-307.423 95.195-85.61 215.28-129.238 335.985-129.238 98.055 0 196.52 28.795 282.38 87.265 13.105 8.925 16.495 26.785 7.57 39.89-8.92 13.108-26.79 16.495-39.89 7.57z" />
</font>
</defs>
</svg>
