<?xml version="1.0" standalone="no"?>
<!DOCTYPE svg PUBLIC "-//W3C//DTD SVG 1.1//EN" "http://www.w3.org/Graphics/SVG/1.1/DTD/svg11.dtd" >
<svg xmlns="http://www.w3.org/2000/svg">
<metadata>Generated by IcoMoon</metadata>
<defs>
<font id="icongco" horiz-adv-x="1024">
<font-face units-per-em="1024" ascent="960" descent="-64" />
<missing-glyph horiz-adv-x="1024" />
<glyph unicode="&#x20;" horiz-adv-x="512" d="" />
<glyph unicode="&#xe900;" glyph-name="icn-add" d="M906.667 475.733h-375.467v375.467c0 12.971-10.496 23.467-23.467 23.467-12.928 0-23.467-10.496-23.467-23.467v-375.467h-375.467c-12.971 0-23.467-10.496-23.467-23.467s10.496-23.467 23.467-23.467h375.467v-375.467c0-12.971 10.496-23.467 23.467-23.467s23.467 10.496 23.467 23.467v375.467h375.467c12.971 0 23.467 10.539 23.467 23.467 0 12.971-10.496 23.467-23.467 23.467z" />
<glyph unicode="&#xe901;" glyph-name="icn-menu-collapse" d="M906.667 247.509c12.971 0 23.467-10.496 23.467-23.467 0-12.928-10.496-23.467-23.467-23.467h-797.867c-12.971 0-23.467 10.539-23.467 23.467 0 12.971 10.496 23.467 23.467 23.467h797.867zM906.667 475.733c12.971 0 23.467-10.496 23.467-23.467s-10.496-23.467-23.467-23.467h-797.867c-12.971 0-23.467 10.496-23.467 23.467s10.496 23.467 23.467 23.467h797.867zM906.667 703.957c12.971 0 23.467-10.539 23.467-23.467 0-12.971-10.496-23.467-23.467-23.467h-797.867c-12.971 0-23.467 10.496-23.467 23.467 0 12.928 10.496 23.467 23.467 23.467h797.867z" />
<glyph unicode="&#xe902;" glyph-name="icn-arrow-down" d="M296.064 297.045l210.517-210.517 210.56 210.517c5.931 5.973 14.549 8.277 22.656 6.101s14.421-8.533 16.64-16.64c2.133-8.064-0.171-16.725-6.101-22.613l-227.157-227.157c-4.395-4.395-10.368-6.869-16.597-6.869s-12.16 2.475-16.555 6.869l-227.2 227.157c-9.173 9.131-9.173 23.979 0 33.152s24.021 9.173 33.195 0zM506.581 874.667c12.971 0 23.467-10.496 23.467-23.467v-566.869c0-12.928-10.496-23.467-23.467-23.467-12.928 0-23.467 10.539-23.467 23.467v566.869c0 12.971 10.539 23.467 23.467 23.467z" />
<glyph unicode="&#xe903;" glyph-name="icn-arrow-left" d="M352.512 697.131c9.173-9.173 9.173-24.021 0-33.195l-210.517-210.517 210.517-210.56c6.741-6.699 8.747-16.811 5.12-25.6-3.669-8.747-12.203-14.464-21.675-14.464-6.229 0-12.203 2.475-16.64 6.869l-227.115 227.157c-4.395 4.352-6.869 10.325-6.869 16.597 0 6.187 2.475 12.16 6.869 16.555l227.157 227.2c9.131 9.173 24.021 9.173 33.152 0zM906.667 476.885c12.971 0 23.467-10.539 23.467-23.467 0-12.971-10.496-23.467-23.467-23.467h-566.869c-12.928 0-23.467 10.496-23.467 23.467 0 12.928 10.539 23.467 23.467 23.467h566.869z" />
<glyph unicode="&#xe904;" glyph-name="icn-arrow-right" d="M696.107 697.131l227.157-227.157c4.395-4.395 6.869-10.368 6.869-16.597s-2.475-12.16-6.869-16.597l-227.157-227.115c-4.395-4.395-10.368-6.869-16.555-6.869-9.515 0-18.048 5.717-21.717 14.507-3.627 8.747-1.621 18.816 5.12 25.557l210.517 210.517-210.517 210.56c-5.973 5.931-8.277 14.592-6.101 22.656 2.176 8.107 8.533 14.421 16.64 16.64 8.064 2.133 16.725-0.171 22.613-6.101zM675.627 476.843c12.971 0 23.467-10.496 23.467-23.467 0-12.928-10.496-23.467-23.467-23.467h-566.827c-12.971 0-23.467 10.539-23.467 23.467 0 12.971 10.496 23.467 23.467 23.467h566.869z" />
<glyph unicode="&#xe905;" glyph-name="icn-arrow-right_2" d="M696.107 697.131l227.157-227.157c4.395-4.395 6.869-10.368 6.869-16.597s-2.475-12.16-6.869-16.597l-227.157-227.115c-4.395-4.395-10.368-6.869-16.555-6.869-9.515 0-18.048 5.717-21.717 14.507-3.627 8.747-1.621 18.816 5.12 25.557l210.517 210.517-210.517 210.56c-5.973 5.931-8.277 14.592-6.101 22.656 2.176 8.107 8.533 14.421 16.64 16.64 8.064 2.133 16.725-0.171 22.613-6.101zM675.627 476.843c12.971 0 23.467-10.496 23.467-23.467 0-12.928-10.496-23.467-23.467-23.467h-566.827c-12.971 0-23.467 10.539-23.467 23.467 0 12.971 10.496 23.467 23.467 23.467h566.869z" />
<glyph unicode="&#xe906;" glyph-name="icn-arrow-up" d="M506.581 643.669c12.971 0 23.467-10.539 23.467-23.467v-566.869c0-12.971-10.496-23.467-23.467-23.467-12.928 0-23.467 10.496-23.467 23.467v566.869c0 12.928 10.539 23.467 23.467 23.467zM506.581 874.667c6.229 0 12.203-2.475 16.64-6.869l227.115-227.157c6.699-6.699 8.704-16.811 5.077-25.557s-12.203-14.507-21.675-14.507c-6.229 0-12.203 2.475-16.597 6.912l-210.56 210.517-210.475-210.517c-9.173-9.173-24.021-9.173-33.195 0-9.173 9.131-9.173 24.021 0 33.152l227.157 227.157c4.395 4.395 10.368 6.869 16.555 6.869z" />
<glyph unicode="&#xe907;" glyph-name="icn-atention" d="M163.755 644.181c11.648-5.675 16.469-19.712 10.795-31.36-71.68-146.859-40.149-323.243 77.995-436.224 118.144-112.939 295.765-136.533 439.296-58.325 11.349 6.187 25.6 2.005 31.787-9.387 6.229-11.349 2.048-25.6-9.344-31.829-61.909-33.749-131.328-51.456-201.856-51.413-145.792-0.128-281.344 74.88-358.656 198.485-77.269 123.605-85.333 278.315-21.376 409.344 5.675 11.605 19.712 16.427 31.36 10.709zM512 256.64c12.971 0 23.467-10.496 23.467-23.467v-0.725c0-12.971-10.496-23.467-23.467-23.467s-23.467 10.496-23.467 23.467v0.725c0 12.971 10.496 23.467 23.467 23.467zM805.12 752.213c139.861-134.827 169.813-347.733 72.491-515.883-4.224-7.253-11.947-11.691-20.352-11.691-8.363 0-16.128 4.48-20.309 11.776-4.181 7.253-4.139 16.213 0.043 23.467 86.485 149.504 59.904 338.688-64.469 458.539s-314.453 139.392-460.629 47.403c-10.965-6.912-25.429-3.627-32.341 7.339s-3.627 25.472 7.339 32.341c164.437 103.509 378.283 81.493 518.187-53.333zM512 687.061c12.971 0 23.467-10.539 23.467-23.467v-327.509c0-12.928-10.496-23.467-23.467-23.467s-23.467 10.539-23.467 23.467v327.509c0 12.928 10.496 23.467 23.467 23.467z" />
<glyph unicode="&#xe908;" glyph-name="icn-attached" d="M681.259 687.787l7.509-0.256c39.851-2.816 75.008-27.776 90.624-64.981 16.64-39.509 7.893-85.163-22.101-115.755l-0.683-0.853-380.373-380.331c-61.867-62.336-161.024-67.2-228.693-11.179-9.984 8.235-11.392 23.040-3.157 33.024 8.235 10.027 23.040 11.435 33.024 3.2 48.981-40.533 120.875-37.035 165.675 8.107l380.288 380.416c17.024 17.067 22.101 42.667 12.885 64.896-9.216 22.272-30.933 36.779-55.040 36.779l-5.845-0.256c-13.653-1.365-26.453-7.381-36.267-17.195l-308.395-308.395c-5.931-5.973-14.549-8.235-22.613-6.101-8.107 2.176-14.464 8.533-16.64 16.64-2.133 8.107 0.171 16.725 6.101 22.613l308.309 308.48c19.968 20.053 47.061 31.275 75.349 31.189zM681.259 828.459c66.987 3.84 132.437-21.077 179.925-68.48 91.733-91.947 91.733-240.768 0.043-332.672l-321.408-321.408c-5.931-5.973-14.549-8.235-22.656-6.101-8.107 2.176-14.421 8.533-16.597 16.64-2.133 8.107 0.171 16.725 6.101 22.613l321.408 321.451c73.387 73.557 73.387 192.683 0 266.24l-7.808 7.381c-37.248 33.152-86.187 50.347-136.277 47.445-8.363-0.427-16.384 3.541-20.992 10.581-4.608 6.997-5.12 15.915-1.323 23.424 3.755 7.467 11.221 12.373 19.627 12.885zM563.541 783.104l4.096-0.725c8.107-2.133 14.421-8.533 16.597-16.597 2.133-8.107-0.171-16.725-6.101-22.656l-409.685-409.685c-23.424-23.296-36.437-55.040-36.181-88.021 0.085-12.971-10.368-23.509-23.339-23.595-13.056 0-23.509 10.453-23.595 23.381-0.341 45.525 17.621 89.301 49.92 121.387l409.685 409.728c5.973 5.931 14.592 8.235 22.699 6.059z" />
<glyph unicode="&#xe909;" glyph-name="icn-brand" d="M456.619 392.704c98.56-95.531 136.917-256.341 153.899-319.787 9.899-37.12 48.085-59.136 85.163-49.195 37.12 9.984 59.179 48.128 49.237 85.205-17.024 63.445-64.213 221.867-26.667 353.877 33.536 133.035 153.6 246.699 200.021 293.12 27.179 27.179 27.179 71.253 0 98.389s-71.253 27.136-98.389 0c-46.421-46.421-160-166.528-293.12-200.021-132.011-37.547-290.389 9.643-353.835 26.667-37.12 9.899-75.264-12.075-85.163-49.195-10.027-37.12 12.032-75.307 49.152-85.205 63.445-16.981 224.213-55.339 319.701-153.856z" />
<glyph unicode="&#xe90a;" glyph-name="icn-building-circle" d="M157.483 688.469c7.253 10.709 21.845 13.525 32.597 6.272 10.709-7.253 13.568-21.845 6.315-32.555-77.611-115.115-85.333-263.68-20.139-386.176 65.152-122.581 192.64-199.168 331.435-199.211 93.44-0.085 183.467 34.688 252.501 97.536 9.6 8.661 24.363 7.936 33.067-1.621 8.704-9.6 8.021-24.363-1.493-33.109-77.653-70.699-178.944-109.824-283.947-109.739-156.245 0-299.691 86.187-373.035 224.085-73.301 137.899-64.597 304.981 22.699 434.517zM507.733 874.667c156.16 0 299.605-86.187 372.907-224.085 73.387-137.899 64.64-304.981-22.656-434.475-4.693-6.955-12.757-10.88-21.12-10.283s-15.787 5.589-19.413 13.141c-3.669 7.509-3.029 16.469 1.664 23.381 77.568 115.115 85.291 263.68 20.096 386.176-65.152 122.581-192.64 199.211-331.435 199.211l-14.037-0.256c-88.32-3.2-172.843-37.547-238.464-97.28-6.187-5.675-14.933-7.595-22.955-5.035s-14.037 9.173-15.787 17.408c-1.792 8.192 0.939 16.725 7.168 22.357 77.653 70.699 178.944 109.824 283.947 109.739zM704.213 661.973c12.971 0 23.467-10.496 23.467-23.467v-372.48c0-12.971-10.496-23.467-23.467-23.467-12.928 0-23.467 10.496-23.467 23.467v349.013h-346.027v-348.885c0-12.971-10.539-23.467-23.467-23.467-12.971 0-23.467 10.496-23.467 23.467v372.352c0 12.971 10.496 23.467 23.467 23.467zM599.552 396.032c12.971 0 23.467-10.496 23.467-23.467v-106.539c0-12.971-10.496-23.467-23.467-23.467s-23.467 10.496-23.467 23.467v83.072h-136.235v-82.944c0-12.971-10.496-23.467-23.467-23.467s-23.467 10.496-23.467 23.467v106.411c0 12.971 10.496 23.467 23.467 23.467zM581.077 467.755c6.741 6.699 16.853 8.704 25.6 5.12 1.451-0.64 2.773-1.365 4.053-2.219s2.475-1.792 3.541-2.901c1.109-1.067 2.133-2.261 2.987-3.584 0.811-1.28 1.493-2.645 2.133-4.053 0.555-1.408 1.024-2.859 1.323-4.395 1.792-9.259-2.133-18.773-9.984-24.064-1.28-0.853-2.603-1.579-4.053-2.133-1.408-0.597-2.859-1.067-4.395-1.365-1.493-0.299-3.029-0.427-4.608-0.427-6.187 0-12.16 2.475-16.597 6.827-4.352 4.437-6.827 10.411-6.827 16.64 0 1.493 0.128 3.029 0.427 4.523 0.341 1.536 0.768 2.987 1.365 4.395 0.597 1.451 1.28 2.816 2.133 4.053 0.853 1.28 1.835 2.517 2.901 3.584zM418.731 474.581l3.029-0.427c1.536-0.256 2.987-0.725 4.395-1.28 1.451-0.64 2.773-1.365 4.053-2.219s2.475-1.792 3.541-2.901c2.219-2.133 3.925-4.736 5.12-7.637 0.555-1.408 1.024-2.859 1.323-4.395 1.92-9.301-2.048-18.816-9.984-24.064-1.28-0.853-2.603-1.579-4.053-2.133-1.408-0.597-2.859-1.067-4.395-1.365-1.493-0.299-3.029-0.427-4.608-0.427-1.536 0-3.029 0.128-4.565 0.427-1.493 0.299-2.987 0.768-4.395 1.323-1.408 0.597-2.773 1.365-4.053 2.176-1.28 0.853-2.432 1.835-3.541 2.901-5.547 5.547-7.979 13.483-6.4 21.163 0.299 1.536 0.725 2.987 1.323 4.395 1.152 2.901 2.901 5.461 5.12 7.68 1.067 1.067 2.261 2.048 3.499 2.859 1.28 0.853 2.645 1.579 4.053 2.176 1.451 0.597 2.901 1.067 4.395 1.323 3.029 0.597 6.144 0.597 9.173 0zM503.125 474.155c9.344 1.963 18.901-2.005 24.107-9.984 0.853-1.28 1.579-2.603 2.176-4.053 0.597-1.408 1.024-2.859 1.323-4.395 0.341-1.493 0.469-2.987 0.469-4.565 0-6.187-2.475-12.16-6.827-16.597-5.547-5.547-13.525-7.936-21.248-6.4-1.493 0.299-2.987 0.768-4.395 1.323-1.408 0.597-2.773 1.365-4.053 2.176-1.28 0.853-2.432 1.835-3.541 2.901-4.395 4.437-6.827 10.411-6.827 16.64 0 1.493 0.085 3.029 0.427 4.523 0.299 1.536 0.725 2.987 1.323 4.395 1.152 2.901 2.901 5.461 5.12 7.68 1.067 1.067 2.261 2.048 3.499 2.859 1.28 0.853 2.645 1.579 4.053 2.176 1.451 0.597 2.901 1.067 4.395 1.323zM593.152 571.648c9.301 1.877 18.773-2.048 24.064-9.984 0.853-1.28 1.579-2.603 2.133-4.053 0.597-1.408 1.067-2.859 1.365-4.395 0.299-1.493 0.427-2.987 0.427-4.565 0-1.536-0.128-3.072-0.427-4.608-0.299-1.493-0.768-2.944-1.365-4.352-1.152-2.859-2.859-5.461-5.077-7.637-5.547-5.547-13.483-7.936-21.163-6.4-1.493 0.299-2.987 0.768-4.395 1.323-1.408 0.597-2.773 1.365-4.053 2.176-1.28 0.853-2.475 1.835-3.584 2.901-1.067 1.109-2.048 2.304-2.901 3.584s-1.579 2.645-2.133 4.053c-0.597 1.408-1.024 2.859-1.365 4.352-0.299 1.536-0.427 3.072-0.427 4.608s0.128 3.072 0.427 4.565c0.341 1.536 0.768 2.987 1.365 4.395 0.597 1.451 1.28 2.816 2.133 4.053 1.707 2.603 3.925 4.821 6.485 6.485 1.28 0.853 2.645 1.579 4.053 2.176 1.451 0.597 2.901 1.067 4.395 1.323zM417.92 572.075l3.84-0.427c1.536-0.256 2.987-0.725 4.395-1.28 1.451-0.64 2.773-1.365 4.053-2.219s2.475-1.792 3.541-2.901c1.109-1.067 2.133-2.261 2.987-3.584 0.853-1.28 1.536-2.603 2.133-4.053 0.555-1.408 1.024-2.859 1.323-4.395 0.341-1.493 0.469-2.987 0.469-4.565 0-1.536-0.171-3.072-0.427-4.608-0.341-1.493-0.811-2.944-1.408-4.352-0.512-1.408-1.28-2.773-2.133-4.053s-1.835-2.475-2.944-3.584c-1.067-1.067-2.261-2.048-3.541-2.901s-2.603-1.579-4.053-2.133c-1.408-0.597-2.859-1.067-4.395-1.365-1.493-0.299-2.987-0.427-4.565-0.427-6.229 0-12.203 2.475-16.64 6.827-1.067 1.109-2.048 2.304-2.901 3.584s-1.579 2.645-2.133 4.053c-0.597 1.408-1.024 2.859-1.365 4.352-0.256 1.536-0.427 3.072-0.427 4.608s0.128 3.072 0.427 4.565c0.341 1.536 0.768 2.987 1.365 4.395 0.597 1.451 1.28 2.816 2.133 4.053 0.853 1.28 1.835 2.517 2.901 3.584 5.589 5.547 13.525 7.893 21.205 6.4zM509.227 572.075l3.072-0.427c1.536-0.256 2.987-0.725 4.395-1.28 1.451-0.64 2.773-1.365 4.053-2.219 2.603-1.664 4.821-3.84 6.485-6.485 0.853-1.28 1.579-2.603 2.176-4.053 0.597-1.408 1.024-2.859 1.323-4.395 0.341-1.493 0.469-2.987 0.469-4.565 0-1.536-0.171-3.072-0.427-4.608-0.341-1.451-0.768-2.944-1.365-4.352-0.555-1.408-1.28-2.773-2.133-4.053s-1.835-2.475-2.944-3.584c-1.109-1.067-2.304-2.005-3.584-2.901-1.28-0.853-2.603-1.579-4.053-2.133-1.408-0.597-2.859-1.067-4.395-1.365-1.493-0.299-2.987-0.427-4.565-0.427-1.536 0-3.072 0.128-4.608 0.427-1.493 0.299-2.987 0.768-4.395 1.323-1.408 0.597-2.773 1.365-4.053 2.176-1.28 0.853-2.432 1.835-3.541 2.901-1.109 1.109-2.091 2.304-2.944 3.584s-1.536 2.645-2.133 4.053c-0.597 1.408-1.024 2.859-1.365 4.352-0.256 1.536-0.427 3.072-0.427 4.608s0.128 3.072 0.427 4.565c0.341 1.536 0.768 2.987 1.365 4.395s1.323 2.773 2.133 4.053c0.853 1.28 1.877 2.517 2.987 3.584 1.067 1.109 2.261 2.091 3.499 2.901 1.28 0.853 2.645 1.579 4.053 2.176 1.451 0.597 2.901 1.067 4.395 1.323 3.029 0.597 6.144 0.597 9.173 0z" />
<glyph unicode="&#xe90b;" glyph-name="icn-calendar" d="M108.8 523.349c12.971 0 23.467-10.496 23.467-23.467v-375.467h750.933v46.379c0 12.971 10.496 23.467 23.467 23.467s23.467-10.496 23.467-23.467v-69.888c0-12.928-10.496-23.467-23.467-23.467h-797.867c-6.229 0-12.203 2.475-16.597 6.912-4.395 4.395-6.869 10.368-6.869 16.555v398.976c0 12.971 10.496 23.467 23.467 23.467zM705.707 288.256c12.928 0 23.467-10.496 23.467-23.467v-1.621c0-6.229-2.517-12.203-6.912-16.597s-10.368-6.827-16.597-6.827c-12.928 0-23.467 10.453-23.467 23.467v1.579c0 12.971 10.539 23.467 23.467 23.467zM505.557 288.256c12.971 0 23.467-10.496 23.467-23.467v-1.621c0-6.229-2.475-12.203-6.869-16.597s-10.368-6.827-16.64-6.827c-12.928 0-23.467 10.453-23.467 23.467v1.579c0 12.971 10.539 23.467 23.467 23.467zM306.091 288.256c12.971 0 23.467-10.496 23.467-23.467v-1.621c0-6.229-2.475-12.203-6.827-16.597-4.437-4.395-10.411-6.827-16.64-6.827-12.971 0-23.467 10.453-23.467 23.467v1.579c0 12.971 10.496 23.467 23.467 23.467zM906.667 722.475c12.971 0 23.467-10.496 23.467-23.467v-398.933c0-12.971-10.496-23.467-23.467-23.467s-23.467 10.496-23.467 23.467v375.467h-109.739c-12.928 0-23.467 10.539-23.467 23.467 0 12.971 10.539 23.467 23.467 23.467h133.205zM705.707 488.747c12.928 0 23.467-10.496 23.467-23.467v-1.621c0-12.971-10.539-23.467-23.467-23.467-12.971 0-23.467 10.496-23.467 23.467v1.621c0 12.971 10.496 23.467 23.467 23.467zM505.557 488.747c12.971 0 23.467-10.496 23.467-23.467v-1.621c0-12.971-10.496-23.467-23.467-23.467s-23.467 10.496-23.467 23.467v1.621c0 12.971 10.496 23.467 23.467 23.467zM306.091 488.747c12.971 0 23.467-10.496 23.467-23.467v-1.621c0-12.971-10.496-23.467-23.467-23.467s-23.467 10.496-23.467 23.467v1.621c0 12.971 10.496 23.467 23.467 23.467zM240.683 722.475c12.971 0 23.467-10.496 23.467-23.467 0-12.928-10.496-23.467-23.467-23.467h-108.416v-46.379c0-12.971-10.496-23.467-23.467-23.467-6.229 0-12.203 2.475-16.597 6.869s-6.869 10.368-6.869 16.64v69.76c0 12.971 10.496 23.467 23.467 23.467h131.84zM341.504 789.333c12.971 0 23.467-10.496 23.467-23.467v-136.704c0-12.971-10.496-23.467-23.467-23.467s-23.467 10.496-23.467 23.467v136.704c0 12.971 10.496 23.467 23.467 23.467zM673.963 789.333c12.971 0 23.467-10.496 23.467-23.467v-136.704c0-12.971-10.496-23.467-23.467-23.467s-23.467 10.496-23.467 23.467v136.704c0 12.971 10.496 23.467 23.467 23.467zM574.123 722.475c12.971 0 23.467-10.496 23.467-23.467 0-12.928-10.496-23.467-23.467-23.467h-134.357c-12.928 0-23.467 10.539-23.467 23.467 0 12.971 10.539 23.467 23.467 23.467h134.357z" />
<glyph unicode="&#xe90c;" glyph-name="icn-chat" d="M914.944 787.797c13.141 0 23.723-10.667 23.723-23.723v-470.187c0-13.099-10.581-23.723-23.723-23.723h-494.933c-11.307-75.947-77.013-134.4-156.032-134.4-13.099 0-23.723 10.667-23.723 23.723 0 13.099 10.624 23.723 23.723 23.723 60.885 0 110.421 49.579 110.421 110.421 0 3.285 0.683 6.4 1.877 9.259 3.541 8.661 12.032 14.72 21.931 14.72h493.099v422.784h-43.52c-13.099 0-23.723 10.581-23.723 23.68s10.624 23.723 23.723 23.723zM713.472 787.797c13.099 0 23.723-10.624 23.723-23.723s-10.624-23.68-23.723-23.68h-580.693v-422.784h110.592c13.099 0 23.723-10.581 23.723-23.68s-10.624-23.723-23.723-23.723h-134.315c-13.141 0-23.723 10.624-23.723 23.723v470.187c0 13.056 10.581 23.68 23.723 23.68zM780.629 445.824c13.099 0 23.765-10.581 23.765-23.68s-10.624-23.723-23.723-23.723h-537.301c-13.099 0-23.723 10.624-23.723 23.723s10.624 23.68 23.723 23.68zM780.672 555.776c13.099 0 23.723-10.581 23.723-23.68s-10.624-23.723-23.723-23.723h-537.301c-13.099 0-23.723 10.624-23.723 23.723s10.624 23.68 23.723 23.68zM377.728 665.771c13.099 0 23.68-10.581 23.68-23.723 0-13.099-10.581-23.68-23.68-23.68h-134.357c-13.099 0-23.723 10.581-23.723 23.68 0 13.141 10.624 23.723 23.723 23.723z" />
<glyph unicode="&#xe90d;" glyph-name="icn-check" d="M374.741 25.6c-6.229 0-12.203 2.432-16.597 6.827l-265.941 265.984c-5.931 5.973-8.235 14.592-6.059 22.699 2.133 8.107 8.491 14.421 16.597 16.597 8.107 2.133 16.725-0.171 22.613-6.101l245.76-245.76 516.011 774.187c4.693 6.997 12.672 10.965 21.035 10.411 8.405-0.555 15.829-5.504 19.541-13.013s3.157-16.469-1.493-23.467l-531.968-797.867c-3.925-5.888-10.24-9.685-17.237-10.368l-2.304-0.128z" />
<glyph unicode="&#xe90e;" glyph-name="icn-check-ko" d="M518.101 776.491c28.971 0 52.48-24.32 52.48-54.357 0-29.995-23.509-54.315-52.48-54.315h-327.893v-537.856h519.253v284.331c0 29.995 23.467 54.315 52.437 54.315s52.48-24.32 52.48-54.315v-338.645c0-14.379-5.547-28.203-15.36-38.4-9.856-10.197-23.211-15.915-37.12-15.915h-624.128c-13.909 0-27.221 5.717-37.077 15.915-9.813 10.197-15.36 24.021-15.36 38.4v646.485c0 14.421 5.547 28.245 15.36 38.4 9.813 10.24 23.168 15.957 37.12 15.957h380.288zM923.435 858.624c19.797-20.693 20.267-53.632 1.536-74.88l-1.792-1.963-380.075-390.528 121.003-125.312c20.48-21.205 20.48-55.595 0-76.8-19.883-20.608-51.712-21.205-72.277-1.877l-1.92 1.835-121.259 125.611-119.253-122.581c-20.565-21.12-53.76-20.992-74.155 0.299-19.797 20.651-20.267 53.632-1.536 74.88l1.835 1.92 118.955 122.325-116.053 120.235c-20.48 21.205-20.48 55.595 0 76.8 19.84 20.608 51.669 21.205 72.235 1.877l1.92-1.877 116.352-120.491 380.331 390.827c20.565 21.12 53.76 20.992 74.155-0.299z" />
<glyph unicode="&#xe90f;" glyph-name="icn-check-ok" d="M478.037 677.12c12.971 0 23.467-10.496 23.467-23.467s-10.496-23.467-23.467-23.467h-342.357v-553.387h553.387v139.648c0 12.971 10.496 23.467 23.467 23.467s23.467-10.496 23.467-23.467v-163.115c0-12.971-10.496-23.467-23.467-23.467h-600.32c-12.928 0-23.467 10.496-23.467 23.467v600.32c0 12.971 10.539 23.467 23.467 23.467h365.824zM887.68 874.667c8.363-0.555 15.787-5.547 19.541-13.013 3.712-7.509 3.115-16.469-1.536-23.467l-404.779-607.275c-3.925-5.845-10.24-9.643-17.237-10.325l-2.304-0.128c-6.229 0-12.203 2.475-16.597 6.912l-202.411 202.411c-9.173 9.173-9.173 24.021 0 33.195s24.021 9.173 33.195 0l182.187-182.187 388.949 583.467c4.651 6.997 12.672 10.965 21.035 10.411z" />
<glyph unicode="&#xe910;" glyph-name="icn-chevron-down" d="M507.733 215.467c-6.229 0-12.203 2.475-16.597 6.869l-398.933 398.933c-5.931 5.931-8.235 14.592-6.059 22.656 2.133 8.107 8.491 14.421 16.597 16.64 8.107 2.133 16.725-0.171 22.613-6.101l382.379-382.336 382.336 382.293c5.973 5.973 14.592 8.277 22.656 6.101 8.107-2.133 14.421-8.491 16.64-16.597 2.133-8.107-0.171-16.725-6.101-22.613l-398.933-398.933c-4.395-4.437-10.368-6.912-16.64-6.912z" />
<glyph unicode="&#xe911;" glyph-name="icn-chevron-left" d="M721.067 29.867c-6.229 0-12.203 2.475-16.64 6.869l-398.891 398.933c-4.395 4.395-6.869 10.368-6.869 16.64 0 6.187 2.475 12.16 6.869 16.555l398.933 398.933c9.173 9.173 24.021 9.173 33.195 0s9.173-24.021 0-33.195l-382.336-382.293 382.293-382.379c6.741-6.699 8.747-16.811 5.12-25.6-3.627-8.747-12.203-14.464-21.675-14.464z" />
<glyph unicode="&#xe912;" glyph-name="icn-chevron-right" d="M322.133 29.867c-9.472 0-18.048 5.717-21.675 14.507-3.627 8.747-1.621 18.859 5.12 25.557l382.293 382.293-382.293 382.379c-9.216 9.173-9.216 24.021 0 33.195 9.131 9.173 23.979 9.173 33.152 0l398.933-398.933c4.395-4.395 6.827-10.368 6.827-16.64 0-6.187-2.432-12.16-6.827-16.555l-398.933-398.933c-4.395-4.395-10.368-6.869-16.597-6.869z" />
<glyph unicode="&#xe913;" glyph-name="icn-chevron-up" d="M906.667 215.467c-6.272 0-12.245 2.475-16.64 6.869l-382.293 382.336-382.379-382.293c-9.173-9.173-23.979-9.131-33.152 0-9.131 9.173-9.173 23.979 0 33.152l398.933 398.933c9.131 9.173 23.979 9.173 33.152 0l398.933-398.933c6.699-6.699 8.747-16.811 5.12-25.6-3.669-8.747-12.203-14.464-21.717-14.464z" />
<glyph unicode="&#xe914;" glyph-name="icn-close" d="M540.928 452.267l382.293 382.336c9.173 9.173 9.173 24.021 0 33.195s-24.021 9.173-33.195 0l-382.293-382.336-382.293 382.293c-5.973 5.973-14.592 8.277-22.699 6.101-8.107-2.133-14.421-8.491-16.597-16.597-2.133-8.107 0.171-16.725 6.101-22.613l382.293-382.379-382.293-382.336c-5.973-5.973-8.235-14.592-6.101-22.656 2.176-8.107 8.533-14.421 16.64-16.64 8.107-2.133 16.725 0.171 22.613 6.101l382.336 382.336 382.293-382.293c5.973-5.973 14.592-8.277 22.699-6.101 8.107 2.133 14.421 8.491 16.597 16.597 2.133 8.107-0.171 16.725-6.101 22.613l-382.293 382.379z" />
<glyph unicode="&#xe915;" glyph-name="icn-construction" d="M591.061 619.861c8.235-1.664 14.933-7.595 17.579-15.531l130.645-391.893 120.747-79.787c7.979-5.291 11.947-14.891 10.027-24.277-1.877-9.387-9.301-16.64-18.688-18.347l-306.261-56.747c-11.733-2.389-23.68-3.541-35.627-3.413-11.648 0.085-23.296 0.811-34.901 2.219l-1.323 0.213-60.8 10.752c-8.277 1.451-15.147 7.211-18.048 15.104-2.859 7.893-1.28 16.725 4.096 23.125 5.419 6.4 13.824 9.472 22.101 7.979l60.16-10.667c18.133-2.688 36.608-2.475 54.699 0.597l0.768 0.128 249.429 46.208-79.019 52.224c-4.352 2.901-7.68 7.168-9.301 12.16l-133.291 399.573c-2.645 7.936-0.853 16.725 4.693 22.997 5.589 6.272 14.080 9.088 22.272 7.381zM499.285 874.667c10.069 0 19.029-6.4 22.229-16l46.251-137.515c4.139-12.245-2.475-25.6-14.763-29.696-12.288-4.139-25.6 2.475-29.739 14.763l-23.851 70.955-194.987-587.221c-1.707-5.12-5.12-9.429-9.557-12.373l-80.427-51.84 75.648-13.355c11.947-2.133 20.352-13.056 19.285-25.173s-11.179-21.419-23.339-21.419c-1.408 0-2.773 0.128-4.139 0.341l-134.528 23.808c-9.515 1.707-16.981 9.003-18.901 18.475s2.133 19.115 10.24 24.363l123.733 79.787 214.571 646.016c3.157 9.6 12.117 16.085 22.187 16.085h0.085zM575.915 313.685c12.971 0 23.467-10.539 23.467-23.467 0-12.971-10.496-23.467-23.467-23.467h-150.229c-12.971 0-23.467 10.496-23.467 23.467 0 12.928 10.496 23.467 23.467 23.467h150.229zM536.149 475.733c12.928 0 23.467-10.496 23.467-23.467s-10.539-23.467-23.467-23.467h-70.656c-12.971 0-23.467 10.496-23.467 23.467s10.496 23.467 23.467 23.467h70.656z" />
<glyph unicode="&#xe916;" glyph-name="icn-construction_2" d="M230.656 637.653c6.741 9.643 19.968 12.075 29.696 5.504 9.771-6.613 12.373-19.755 5.973-29.611-73.515-109.056-66.304-253.483 17.707-354.688 84.011-101.163 224.64-134.827 345.344-82.645 10.752 4.053 22.784-1.067 27.349-11.605s0.043-22.784-10.24-27.861c-138.24-59.904-299.477-21.376-395.733 94.549-96.213 115.968-104.405 281.472-20.053 406.357zM693.248 307.797c6.272 4.437 14.464 5.205 21.419 2.005 6.997-3.243 11.733-9.941 12.459-17.579l7.552-81.408 78.208 22.699c11.349 3.584 23.424-2.731 27.008-14.080 3.541-11.349-2.773-23.467-14.080-27.008l-0.896-0.256-103.339-30.037c-6.187-1.792-12.8-0.683-18.091 2.944-5.291 3.584-8.704 9.387-9.301 15.787l-9.941 107.349c-0.683 7.68 2.731 15.147 9.003 19.584zM512.043 787.2c125.611-0.128 240.725-69.376 299.52-180.053 58.88-110.72 51.84-244.907-18.219-348.843-6.699-9.813-20.053-12.416-29.952-5.803-9.856 6.656-12.544 20.011-5.973 29.909 61.184 90.795 67.328 207.915 15.915 304.597-51.413 96.64-151.893 157.056-261.419 157.099-41.131 0.085-81.579-8.363-118.955-24.789-7.040-3.115-15.232-2.219-21.419 2.347-6.229 4.565-9.515 12.075-8.661 19.755 0.853 7.637 5.717 14.251 12.8 17.323 42.88 18.859 89.259 28.587 136.107 28.459l0.469-0.043zM576.043 450.773c24.064 0.64 47.232-9.003 63.659-26.581 15.445-16.811 25.088-40.619 29.013-70.827 1.707-12.928 2.133-26.027 1.323-39.083-0.939-11.179-10.283-19.797-21.504-19.755l-106.368 0.085c-11.861 0-21.504 9.643-21.504 21.547 0 11.861 9.643 21.504 21.504 21.504h84.907c-1.237 18.603-5.888 43.093-19.115 57.429-8.277 8.661-19.925 13.269-31.915 12.629-11.904 0-21.547 9.643-21.547 21.504 0 11.904 9.643 21.547 21.547 21.547zM447.616 450.816c11.861 0 21.504-9.6 21.504-21.504s-9.643-21.547-21.504-21.547c-12.032 0.683-23.723-3.968-32-12.672-13.781-15.019-17.92-39.979-18.987-57.429h84.821c11.861 0 21.461-9.643 21.461-21.504 0-11.904-9.6-21.547-21.461-21.547h-106.411c-11.221 0-20.608 8.533-21.504 19.755-0.853 13.013-0.427 26.112 1.28 39.083 3.84 30.165 13.653 53.845 29.099 70.827 16.427 17.536 39.595 27.221 63.659 26.539zM512.341 654.635c43.947-0.299 83.285-27.435 99.115-68.437 15.829-40.96 4.992-87.509-27.307-117.291-6.315-5.76-15.403-7.253-23.211-3.84s-12.885 11.179-12.843 19.712c0 5.973 2.517 11.733 6.912 15.787 26.027 23.808 27.819 64.171 4.011 90.155-23.765 26.027-64.128 27.819-90.112 4.011-26.027-23.765-27.776-64.128-4.011-90.112 1.28-1.408 2.603-2.731 4.011-4.011 5.675-5.205 8.107-13.056 6.443-20.565-1.707-7.509-7.253-13.568-14.592-15.872-7.339-2.261-15.36-0.469-21.035 4.736-32.341 29.781-43.179 76.288-27.307 117.333 15.787 40.96 55.125 68.096 99.072 68.395zM303.061 735.445c6.144 1.792 12.8 0.768 18.091-2.859 5.333-3.584 8.747-9.387 9.344-15.787l9.941-107.392c1.109-11.819-7.595-22.315-19.456-23.424l-1.963-0.085c-11.179-0.043-20.48 8.405-21.547 19.541l-7.509 81.408-78.123-22.699c-7.339-2.304-15.36-0.512-21.035 4.693-5.632 5.205-8.107 13.056-6.4 20.523 1.621 7.509 7.168 13.568 14.507 15.872l0.896 0.256z" />
<glyph unicode="&#xe917;" glyph-name="icn-construction_3" d="M646.485 187.989c12.971 0 23.467-10.496 23.467-23.467v-111.189c0-12.971-10.496-23.467-23.467-23.467h-340.523c-12.971 0-23.467 10.496-23.467 23.467v111.189c0 12.971 10.496 23.467 23.467 23.467zM623.019 141.056h-293.589v-64.256h293.589v64.256zM219.179 132.395c12.971 0 23.467-10.496 23.467-23.467s-10.496-23.467-23.467-23.467h-84.437c-12.971 0-23.467 10.496-23.467 23.467s10.496 23.467 23.467 23.467zM866.261 132.395c12.971 0 23.467-10.496 23.467-23.467s-10.496-23.467-23.467-23.467h-135.936c-12.971 0-23.467 10.496-23.467 23.467s10.496 23.467 23.467 23.467zM567.509 306.048c12.971 0 23.467-10.453 23.467-23.467v-50.56c0-12.971-10.496-23.467-23.467-23.467s-23.467 10.496-23.467 23.467v27.136h-131.243v-32.128c0-12.971-10.496-23.467-23.467-23.467s-23.467 10.496-23.467 23.467v55.595c0 12.971 10.496 23.467 23.467 23.467zM790.827 781.909l4.096-0.725c8.107-2.133 14.421-8.533 16.597-16.597 2.133-8.107-0.171-16.725-6.101-22.656l-196.864-196.907 36.053-36.053c6.784-6.784 8.747-17.024 4.949-25.813-16.939-35.328-43.904-64.853-77.525-84.949 1.707-0.085 3.413-0.213 5.12-0.213 34.944 0 68.736 12.288 95.573 34.731 6.485 6.187 75.733 75.179 128.64 127.957l15.275 15.275 7.125 7.083 38.059 38.016c9.173 9.173 24.021 9.173 33.195 0 4.395-4.395 6.912-10.368 6.912-16.555 0-6.229-2.475-12.203-6.869-16.64-0.341-0.299-6.4-6.315-16.085-16.043l-17.152-17.067-6.656-6.699-14.507-14.507c-50.475-50.347-119.979-119.595-134.613-133.845l-2.688-2.56c-77.739-65.536-192.725-60.629-264.661 11.264-4.395 4.395-6.827 10.368-6.827 16.597s2.432 12.203 6.827 16.597l333.568 333.525c5.931 5.931 14.549 8.235 22.656 6.059zM575.36 511.829l-85.589-85.547c2.56-1.835 5.205-3.541 7.851-5.205 0.939 0.256 1.92 0.512 2.901 0.683 54.955 8.704 85.547 45.952 98.475 66.432l-23.637 23.68zM222.592 652.373c12.971 0 23.467-10.496 23.467-23.467v-87.68h64.555l0.256 17.579c0.128 8.405 4.693 16.085 12.032 20.181s16.299 3.968 23.509-0.341c7.211-4.352 11.52-12.16 11.392-20.565l-0.64-40.704c-0.171-12.8-10.667-23.083-23.467-23.083h-111.104c-12.971 0-23.467 10.496-23.467 23.467v111.104c0 12.971 10.496 23.467 23.467 23.467zM444.885 763.52c13.013 0 23.467-10.496 23.467-23.467v-111.147c0-12.971-10.453-23.467-23.467-23.467h-111.104c-12.928 0-23.467 10.496-23.467 23.467s10.539 23.467 23.467 23.467h87.723v64.171h-17.237c-12.971 0-23.467 10.539-23.467 23.467 0 12.971 10.496 23.467 23.467 23.467zM222.592 763.52c12.971 0 23.467-10.496 23.467-23.467 0-12.928-10.496-23.467-23.467-23.467h-87.765v-64.213h17.237c12.971 0 23.467-10.496 23.467-23.467s-10.496-23.467-23.467-23.467h-40.704c-12.928 0-23.467 10.496-23.467 23.467v111.104c0 12.971 10.539 23.467 23.467 23.467zM333.739 874.667c6.272 0 12.245-2.475 16.64-6.912 4.395-4.395 6.827-10.411 6.827-16.64l-0.427-111.189c-0.043-12.928-10.539-23.339-23.467-23.381-13.056 0.085-23.467 10.624-23.467 23.595l0.341 87.595h-64.128v-17.237c0-12.971-10.496-23.467-23.467-23.467s-23.467 10.496-23.467 23.467v40.704c0 12.971 10.496 23.467 23.467 23.467z" />
<glyph unicode="&#xe918;" glyph-name="icn-construction_4" d="M670.293 89.088c12.971 0 23.467-10.496 23.467-23.467 0-12.928-10.496-23.467-23.467-23.467h-328.363c-12.971 0-23.467 10.539-23.467 23.467 0 12.971 10.496 23.467 23.467 23.467zM425.045 194.304c12.971 0 23.467-10.496 23.467-23.467v-36.309c0-12.971-10.496-23.467-23.467-23.467s-23.467 10.496-23.467 23.467v36.309c0 12.971 10.496 23.467 23.467 23.467zM585.344 194.304c12.971 0 23.467-10.496 23.467-23.467v-36.309c0-12.971-10.496-23.467-23.467-23.467s-23.467 10.496-23.467 23.467v36.309c0 12.971 10.496 23.467 23.467 23.467zM743.68 870.912c12.971 0 23.467-10.539 23.467-23.467 0-12.971-10.496-23.467-23.467-23.467h-570.027c-22.869-0.043-41.387-18.56-41.387-41.387v-472.491c0-22.827 18.517-41.344 41.387-41.387 12.971 0 23.467-10.496 23.467-23.467 0-12.928-10.496-23.467-23.467-23.467-48.768 0.085-88.32 39.595-88.32 88.32v472.491c0.043 48.725 39.552 88.235 88.32 88.32zM841.813 870.912c48.768-0.085 88.277-39.595 88.32-88.32v-472.491c-0.043-48.725-39.552-88.235-88.32-88.32h-573.355c-12.971 0-23.467 10.539-23.467 23.467 0 12.971 10.496 23.467 23.467 23.467h573.355c22.869 0.043 41.387 18.56 41.387 41.387v472.491c0 22.827-18.517 41.344-41.387 41.387-12.928 0-23.467 10.496-23.467 23.467 0 12.928 10.539 23.467 23.467 23.467zM405.163 773.632c48.981 16.341 102.912 0.512 135.253-39.723s36.267-96.299 9.813-140.629l128.555-186.709c0.427-0.683 0.853-1.365 1.152-2.133 16.256-28.032 8.448-63.872-18.005-82.645s-62.848-14.293-83.968 10.283c-1.024 0.981-1.92 2.091-2.731 3.2l-1.365 2.005-97.109 141.056c-4.779 6.912-5.504 15.787-1.877 23.381 3.584 7.595 10.965 12.672 19.328 13.312 8.363 0.683 16.427-3.157 21.205-10.069l97.067-141.013 2.133-2.475c5.333-5.077 13.653-5.888 19.968-1.536 7.253 4.949 9.088 14.805 4.139 22.059l-134.827 195.797c-7.467 8.576-7.68 21.333-0.427 30.208 17.579 21.461 22.187 50.816 11.947 76.629-10.24 25.856-33.664 44.117-61.184 47.701l23.68-34.389c7.339-10.667 4.651-25.259-6.016-32.64l-58.112-39.979c-5.12-3.541-11.435-4.907-17.579-3.755-6.101 1.109-11.52 4.651-15.061 9.771l-24.747 35.968c-7.253-26.283-0.085-54.4 18.944-73.899 19.029-19.541 46.976-27.477 73.387-20.864 12.587 3.157 25.344-4.523 28.459-17.067 3.157-12.587-4.48-25.301-17.067-28.459-9.685-2.432-19.627-3.669-29.653-3.669-48.256-0.128-92.16 27.904-112.427 71.68-20.224 43.861-13.099 95.445 18.347 132.139 4.693 5.547 11.733 8.533 19.029 8.149 7.253-0.384 13.952-4.139 18.091-10.112l32.981-47.915 19.456 13.355-32.683 47.488c-4.181 6.101-5.248 13.781-2.901 20.779 2.304 6.997 7.808 12.459 14.805 14.805z" />
<glyph unicode="&#xe919;" glyph-name="icn-construction_5" d="M562.987 284.971c12.971 0 23.467-10.539 23.467-23.467 0-12.971-10.496-23.467-23.467-23.467h-211.712v-73.6c0-12.971-10.496-23.467-23.467-23.467s-23.467 10.496-23.467 23.467v97.067c0 12.928 10.496 23.467 23.467 23.467zM641.707 531.541c76.459 0 140.117-58.752 146.261-134.997s-47.317-144.427-122.795-156.629v-75.52c0-12.928-10.496-23.467-23.467-23.467s-23.467 10.539-23.467 23.467v97.152c0 12.928 10.496 23.467 23.467 23.467 55.083 0 99.755 44.715 99.755 99.84 0 55.040-44.672 99.755-99.755 99.797-12.971 0-23.467 10.496-23.467 23.467 0 12.928 10.496 23.467 23.467 23.467zM232.107 690.261c80.981-0.043 146.645-65.707 146.731-146.731 0-12.971-10.496-23.467-23.467-23.467s-23.467 10.496-23.467 23.467c-0.043 46.933-32.768 87.552-78.677 97.536-11.008-61.312-59.477-109.013-120.96-119.083v-90.197c79.019-2.773 141.653-67.627 141.739-146.645 0-12.971-10.539-23.467-23.467-23.467-12.971 0-23.467 10.496-23.467 23.467-0.085 55.083-44.715 99.755-99.84 99.797h-18.432c-12.971 0-23.467 10.496-23.467 23.467v135.125c0 12.971 10.496 23.467 23.467 23.467 55.125 0.085 99.755 44.715 99.84 99.84 0 12.971 10.496 23.467 23.467 23.467zM549.376 746.496c30.037 0 58.667-12.032 82.901-34.859 9.429-8.875 9.899-23.723 1.024-33.152s-23.723-9.899-33.152-1.024c-15.36 14.464-32.939 22.101-50.773 22.101-35.499 0-67.243-30.549-84.139-74.795h84.139c12.971 0 23.467-10.496 23.467-23.467 0-12.928-10.496-23.467-23.467-23.467h-95.488c-0.939-8.064-1.408-16.213-1.451-24.32 0-6.955 0.384-13.781 1.024-20.48h95.915c12.971 0 23.467-10.539 23.467-23.467 0-13.013-10.496-23.467-23.467-23.467h-85.547c16.469-46.336 49.067-78.677 85.547-78.677 22.955 0 40.704 12.459 51.584 22.912 9.344 8.96 24.192 8.619 33.152-0.683 8.96-9.387 8.704-24.192-0.64-33.152-24.491-23.552-53.547-36.011-84.053-36.011-79.36 0-143.915 86.613-143.915 193.024s64.555 192.981 143.872 192.981zM906.667 492.032c12.971 0 23.467-10.496 23.467-23.467-0.043-50.133-40.661-90.752-90.795-90.795-12.971 0-23.467 10.496-23.467 23.467s10.496 23.467 23.467 23.467c24.192 0 43.819 19.627 43.861 43.861 0 12.971 10.496 23.467 23.467 23.467zM266.24 540.843l3.029-0.427c1.536-0.256 2.987-0.725 4.395-1.323 1.451-0.555 2.816-1.28 4.053-2.133 1.28-0.853 2.475-1.835 3.541-2.987 7.339-7.253 8.96-18.475 4.096-27.605s-15.104-13.952-25.259-11.947c-1.493 0.299-2.987 0.768-4.395 1.365-1.408 0.555-2.773 1.28-4.053 2.133-6.528 4.352-10.411 11.691-10.411 19.541 0 7.808 3.925 15.147 10.411 19.499 1.28 0.853 2.645 1.579 4.053 2.133 1.451 0.597 2.901 1.067 4.395 1.365 3.029 0.597 6.144 0.597 9.173 0z" />
<glyph unicode="&#xe91a;" glyph-name="icn-construction_6" d="M808.533 874.667h-229.248c-12.928 0-23.467-10.496-23.467-23.467s10.539-23.467 23.467-23.467h229.205c47.275 0 72.448-42.069 72.448-72.405v-46.208h-362.923v46.208c-0.043 57.387-45.696 119.339-119.424 119.339-28.544-0.555-56.021-10.88-77.952-29.184-26.624-22.315-41.813-55.424-41.301-90.155v-606.123c0-49.408-43.179-72.405-72.363-72.405-47.275 0-72.448 42.069-72.448 72.405v67.541h59.008c12.971 0 23.467 10.539 23.467 23.467 0 12.971-10.496 23.467-23.467 23.467h-82.475c-12.971 0-23.467-10.496-23.467-23.467v-91.008c0-57.387 45.653-119.339 119.381-119.339 28.587 0.555 56.064 10.88 77.952 29.184 26.624 22.315 41.813 55.424 41.344 90.155v606.123c0 49.365 43.136 72.405 72.32 72.405 47.275 0 72.491-42.069 72.491-72.405v-69.675c0-12.971 10.496-23.467 23.467-23.467h295.808v-512.299c0-49.408-43.179-72.405-72.363-72.405h-306.944c-12.971 0-23.467-10.496-23.467-23.467s10.496-23.467 23.467-23.467h306.944c28.544 0.555 56.064 10.837 77.952 29.184 26.624 22.272 41.813 55.424 41.344 90.155v512.299h67.115c12.971 0 23.467 10.496 23.467 23.467v69.675c0 57.387-45.653 119.339-119.339 119.339z" />
<glyph unicode="&#xe91b;" glyph-name="icn-contact" d="M914.944 787.797c13.141 0 23.723-10.667 23.723-23.723v-470.187c0-13.099-10.581-23.723-23.723-23.723h-494.933c-11.307-75.947-77.013-134.4-156.032-134.4-13.099 0-23.723 10.667-23.723 23.723 0 13.099 10.624 23.723 23.723 23.723 60.885 0 110.421 49.579 110.421 110.421 0 3.285 0.683 6.4 1.877 9.259 3.541 8.661 12.032 14.72 21.931 14.72h493.099v422.784h-43.52c-13.099 0-23.723 10.581-23.723 23.68s10.624 23.723 23.723 23.723zM713.472 787.797c13.099 0 23.723-10.624 23.723-23.723s-10.624-23.68-23.723-23.68h-580.693v-422.784h110.592c13.099 0 23.723-10.581 23.723-23.68s-10.624-23.723-23.723-23.723h-134.315c-13.141 0-23.723 10.624-23.723 23.723v470.187c0 13.056 10.581 23.68 23.723 23.68zM780.629 445.824c13.099 0 23.765-10.581 23.765-23.68s-10.624-23.723-23.723-23.723h-537.301c-13.099 0-23.723 10.624-23.723 23.723s10.624 23.68 23.723 23.68zM780.672 555.776c13.099 0 23.723-10.581 23.723-23.68s-10.624-23.723-23.723-23.723h-537.301c-13.099 0-23.723 10.624-23.723 23.723s10.624 23.68 23.723 23.68zM377.728 665.771c13.099 0 23.68-10.581 23.68-23.723 0-13.099-10.581-23.68-23.68-23.68h-134.357c-13.099 0-23.723 10.581-23.723 23.68 0 13.141 10.624 23.723 23.723 23.723z" />
<glyph unicode="&#xe91c;" glyph-name="icn-correct" d="M507.733 874.667c233.301 0 422.4-189.099 422.4-422.4-0.256-233.131-189.227-422.101-422.4-422.4-233.259 0.043-422.357 189.141-422.357 422.4s189.099 422.4 422.4 422.4zM507.733 827.733c-151.851-0.043-288.725-91.52-346.88-231.808-58.027-140.288-25.941-301.781 81.493-409.173 107.349-107.349 268.8-139.435 409.131-81.323 140.288 58.112 231.723 194.987 231.723 346.88-0.256 207.232-168.235 375.168-375.467 375.381zM668.16 593.493c10.112-8.149 11.691-22.912 3.541-33.024l-198.613-245.931c-4.48-5.504-11.179-8.704-18.261-8.704h-0.811c-7.339 0.256-14.165 3.968-18.389 9.984l-92.843 132.437c-4.821 6.827-5.589 15.787-2.048 23.381s10.837 12.715 19.2 13.483c8.363 0.725 16.469-3.072 21.291-9.941l74.923-106.88 179.072 221.696c8.107 10.027 22.912 11.605 32.981 3.456z" />
<glyph unicode="&#xe91d;" glyph-name="icn-doc" d="M808.533 192.853c12.928 0 23.467-10.496 23.467-23.467v-116.053c0-12.971-10.539-23.467-23.467-23.467h-567.424c-12.971 0-23.467 10.496-23.467 23.467v110.507c0 12.928 10.496 23.467 23.467 23.467 12.928 0 23.467-10.539 23.467-23.467v-87.040h520.405v92.587c0 12.971 10.496 23.467 23.467 23.467zM546.688 561.493c61.013 0 105.813-40.96 105.813-127.061s-44.8-127.019-105.813-127.019c-61.056 0-105.856 40.96-105.856 127.019 0 86.101 44.8 127.019 105.813 127.019zM794.027 561.493c16.384 0.171 32.725-1.579 48.683-5.333v-45.141c-12.459 3.627-25.429 5.291-38.443 4.949-49.408 0-66.005-28.971-66.005-79.061 0-53.973 13.44-83.627 59.307-83.627 19.413 0 31.061 3.541 49.408 9.515v-45.525c-18.944-7.125-39.083-10.496-59.307-9.856-68.437 0-109.397 39.168-109.397 124.928 0 86.784 48 129.109 115.755 129.109zM299.307 557.952c69.547 0 116.096-38.827 116.096-121.728 0-85.077-46.549-125.269-116.053-125.269h-83.328v246.997h83.243zM546.688 516.651c-33.877 0-45.867-26.453-45.867-82.219s11.947-82.219 45.867-82.219c33.877 0 45.867 26.453 45.867 82.219s-11.989 82.219-45.867 82.219zM299.307 514.176h-26.112v-159.488h26.112c42.709 0 56.107 26.453 56.107 81.493 0 52.608-13.397 77.995-56.107 77.995zM574.379 874.667c37.717-0.64 77.952-1.067 106.837-1.109h13.44c12.373 0.043 21.291 0.213 25.088 0.469 1.749 0.427 3.541 0.64 5.333 0.64h83.413c12.971 0 23.467-10.496 23.467-23.467v-116.053c0-12.971-10.496-23.467-23.467-23.467s-23.467 10.496-23.467 23.467v92.587h-59.307c-6.955-0.853-17.579-1.28-34.603-1.365h-17.152c-23.296 0.128-55.381 0.597-99.968 1.365h-309.376v-89.813c0-12.971-10.539-23.467-23.467-23.467-12.971 0-23.467 10.496-23.467 23.467v113.28c0 12.971 10.496 23.467 23.467 23.467h333.227z" />
<glyph unicode="&#xe91e;" glyph-name="icn-doctor-circle" d="M158.293 686.549c8.107 11.989 24.363 15.147 36.395 7.040 11.947-8.107 15.147-24.405 7.040-36.395-105.771-157.013-77.653-368.256 65.493-492.117s356.267-121.301 496.384 5.973c10.709 9.685 27.307 8.875 36.992-1.835 9.728-10.709 8.96-27.307-1.707-37.035-159.787-145.152-402.816-148.053-566.059-6.827-163.285 141.312-195.285 382.208-74.581 561.195zM512 874.667c157.781 0 302.635-87.040 376.704-226.347s65.28-308.053-22.912-438.869c-5.248-7.808-14.251-12.203-23.595-11.52-9.387 0.64-17.664 6.229-21.76 14.677s-3.413 18.432 1.877 26.197c77.269 114.731 84.992 262.741 20.053 384.853-64.981 122.155-192 198.528-330.368 198.528-93.056 0.085-182.784-34.56-251.605-97.195-6.912-6.315-16.683-8.448-25.643-5.589-8.96 2.816-15.659 10.24-17.664 19.413s1.067 18.688 8.021 25.003c78.507 71.424 180.779 110.933 286.891 110.848zM525.269 669.739c12.459 0 22.571-10.069 22.571-22.528 0-12.288-9.856-22.272-22.144-22.528h-14.507v-34.133c0-47.36 37.547-85.845 84.565-87.381h1.408l1.451-0.043c47.787 0 86.656 38.357 87.467 85.931v35.627h-14.165c-12.16 0-22.059 9.643-22.485 21.675v0.853c0 12.331 9.813 22.315 22.059 22.528h37.12c5.973 0 11.691-2.347 15.915-6.571 4.096-4.096 6.485-9.643 6.613-15.403v-57.259c-0.085-63.659-45.355-117.888-107.179-129.963l-1.877-0.341-1.323-0.256v-88.832c0-75.52-57.941-138.069-132.693-144.341l-4.608-0.341c-74.667-3.925-139.691 49.493-150.869 122.667l-0.341 2.219-0.171 1.28c-25.131 9.643-40.619 35.2-37.461 62.037l0.256 1.707c4.181 28.587 28.501 49.92 57.387 50.475 28.928 0.512 54.016-19.925 59.264-48.341 4.864-26.453-8.704-52.608-32.555-64l-1.451-0.725 0.085-0.64c8.875-48.64 52.267-83.541 101.845-81.749l1.493 0.085 1.579 0.085c51.925 3.499 92.373 46.208 93.141 98.005v90.539l-1.28 0.256c-61.184 11.392-106.368 64-108.245 126.293v1.92l-0.043 58.667c0 5.973 2.389 11.733 6.613 15.957 4.096 4.096 9.6 6.4 15.36 6.571h37.205zM352.597 432.256h-0.427c-13.227-0.256-23.808-11.349-23.851-24.917 0-10.069 5.888-19.157 14.933-23.040 9.131-3.883 19.627-1.707 26.581 5.461 6.869 7.125 8.96 17.792 5.205 27.051-3.712 9.344-12.587 15.445-22.443 15.445z" />
<glyph unicode="&#xe91f;" glyph-name="icn-document" d="M804.181 874.667c12.971 0 23.467-10.496 23.467-23.467v-797.867c0-12.971-10.496-23.467-23.467-23.467h-327.253c-12.928 0-23.467 10.496-23.467 23.467s10.539 23.467 23.467 23.467h303.787v750.933h-59.947c-12.971 0-23.467 10.496-23.467 23.467s10.496 23.467 23.467 23.467h83.413zM570.027 874.667c12.971 0 23.467-10.496 23.467-23.467s-10.496-23.467-23.467-23.467h-309.76v-750.933h61.995c12.971 0 23.467-10.496 23.467-23.467s-10.496-23.467-23.467-23.467h-85.461c-12.971 0-23.467 10.496-23.467 23.467v797.867c0 12.971 10.496 23.467 23.467 23.467h333.227zM659.499 288.469c12.971 0 23.467-10.496 23.467-23.467 0-12.928-10.496-23.467-23.467-23.467h-259.413c-12.971 0-23.467 10.539-23.467 23.467 0 12.971 10.496 23.467 23.467 23.467h259.413zM659.499 413.312c12.971 0 23.467-10.496 23.467-23.467s-10.496-23.467-23.467-23.467h-259.413c-12.971 0-23.467 10.496-23.467 23.467s10.496 23.467 23.467 23.467h259.413zM659.499 538.155c12.971 0 23.467-10.496 23.467-23.467s-10.496-23.467-23.467-23.467h-259.413c-12.971 0-23.467 10.496-23.467 23.467s10.496 23.467 23.467 23.467h259.413zM486.571 662.997c12.971 0 23.467-10.539 23.467-23.467 0-12.971-10.496-23.467-23.467-23.467h-86.485c-12.971 0-23.467 10.496-23.467 23.467 0 12.928 10.496 23.467 23.467 23.467h86.485z" />
<glyph unicode="&#xe920;" glyph-name="icn-documents" d="M801.877 746.197c12.928 0 23.467-10.496 23.467-23.467v-669.397c0-12.971-10.539-23.467-23.467-23.467h-331.307c-12.971 0-23.467 10.496-23.467 23.467s10.496 23.467 23.467 23.467h307.84v645.931c0 12.971 10.496 23.467 23.467 23.467zM667.989 874.667c12.971 0 23.467-10.496 23.467-23.467v-666.368c0-12.971-10.496-23.467-23.467-23.467h-273.28c-12.971 0-23.467 10.496-23.467 23.467s10.496 23.467 23.467 23.467h249.813v619.435h-46.208c-12.971 0-23.467 10.496-23.467 23.467s10.496 23.467 23.467 23.467h69.675zM472.448 874.667c12.971 0 23.467-10.496 23.467-23.467s-10.496-23.467-23.467-23.467h-254.848v-619.435h47.915c12.971 0 23.467-10.496 23.467-23.467s-10.496-23.467-23.467-23.467h-71.381c-12.971 0-23.467 10.496-23.467 23.467v666.368c0 12.971 10.496 23.467 23.467 23.467h278.315zM540.715 385.109c12.928 0 23.467-10.496 23.467-23.467s-10.539-23.467-23.467-23.467h-216.704c-12.928 0-23.467 10.496-23.467 23.467s10.539 23.467 23.467 23.467h216.704zM540.715 489.344c12.928 0 23.467-10.496 23.467-23.467 0-12.928-10.539-23.467-23.467-23.467h-216.704c-12.928 0-23.467 10.539-23.467 23.467 0 12.971 10.539 23.467 23.467 23.467h216.704zM540.715 593.621c12.928 0 23.467-10.496 23.467-23.467s-10.539-23.467-23.467-23.467h-216.704c-12.928 0-23.467 10.496-23.467 23.467s10.539 23.467 23.467 23.467h216.704zM396.245 697.856c12.971 0 23.467-10.496 23.467-23.467 0-12.928-10.496-23.467-23.467-23.467h-72.235c-12.928 0-23.467 10.539-23.467 23.467 0 12.971 10.539 23.467 23.467 23.467h72.235z" />
<glyph unicode="&#xe921;" glyph-name="icn-document-validate" d="M681.6 796.8c12.971 0 23.467-10.496 23.467-23.467 0-12.928-10.496-23.467-23.467-23.467-85.333 0-154.581-69.205-154.581-154.581 0-85.333 69.205-154.581 154.581-154.581s154.581 69.205 154.581 154.581c0 12.971 10.496 23.467 23.467 23.467s23.467-10.496 23.467-23.467c0-58.624-25.515-114.347-69.888-152.619s-103.253-55.296-161.28-46.677v-342.656c0-12.971-10.496-23.467-23.467-23.467-12.928 0-23.467 10.496-23.467 23.467v355.627c-89.003 36.565-139.733 130.987-121.088 225.408s101.461 162.475 197.675 162.432zM490.368 100.011c12.971 0 23.467-10.496 23.467-23.467s-10.496-23.467-23.467-23.467h-242.048c-12.971 0-23.467 10.496-23.467 23.467s10.496 23.467 23.467 23.467zM183.253 582.997c12.971 0 23.467-10.539 23.467-23.467 0-12.971-10.496-23.467-23.467-23.467h-50.987v-459.52c0-12.971-10.496-23.467-23.467-23.467s-23.467 10.496-23.467 23.467v482.987c0 12.928 10.496 23.467 23.467 23.467zM490.368 185.984c12.971 0 23.467-10.496 23.467-23.467s-10.496-23.467-23.467-23.467h-242.048c-12.971 0-23.467 10.496-23.467 23.467s10.496 23.467 23.467 23.467zM490.368 271.957c12.971 0 23.467-10.496 23.467-23.467s-10.496-23.467-23.467-23.467h-242.048c-12.971 0-23.467 10.496-23.467 23.467s10.496 23.467 23.467 23.467zM329.003 357.931c12.971 0 23.467-10.496 23.467-23.467s-10.496-23.467-23.467-23.467h-80.683c-12.971 0-23.467 10.496-23.467 23.467s10.496 23.467 23.467 23.467zM443.179 585.387c12.928 0 23.467-10.496 23.467-23.467v-76.203c0-12.971-10.539-23.467-23.467-23.467h-149.035c-12.971 0-23.467 10.496-23.467 23.467v76.203c0 12.971 10.496 23.467 23.467 23.467 12.928 0 23.467-10.496 23.467-23.467v-52.736h102.101v52.736c0 12.971 10.496 23.467 23.467 23.467zM895.445 874.24c6.101 1.195 12.459-0.043 17.621-3.499 5.205-3.456 8.789-8.832 10.027-14.933 1.195-6.101-0.043-12.459-3.499-17.621l-204.288-306.475c-3.925-5.845-10.24-9.643-17.237-10.325l-2.304-0.128c-6.229 0-12.203 2.475-16.597 6.869l-102.144 102.187c-9.131 9.131-9.131 23.979 0 33.152 9.173 9.173 24.021 9.173 33.195 0l81.92-81.92 188.416 282.667c3.413 5.163 8.789 8.789 14.933 9.984z" />
<glyph unicode="&#xe922;" glyph-name="icn-document-validated1" d="M231.040 872.789c12.971 0 23.467-10.496 23.467-23.467s-10.496-23.467-23.467-23.467h-56.107v-749.056h638.464v747.52h-56.149c-12.928 0-23.467 10.496-23.467 23.467s10.539 23.467 23.467 23.467h79.616c12.971 0 23.467-10.496 23.467-23.467v-794.453c0-12.971-10.496-23.467-23.467-23.467h-685.397c-12.971 0-23.467 10.496-23.467 23.467v795.989c0 12.971 10.496 23.467 23.467 23.467h79.573zM634.581 514.731c10.752-7.211 13.653-21.76 6.528-32.512l-162.56-243.797c-3.84-5.888-10.197-9.643-17.195-10.368l-2.304-0.085c-6.229 0-12.203 2.475-16.64 6.827l-81.237 81.28c-9.131 9.173-9.131 24.064 0 33.195 9.173 9.173 24.064 9.173 33.195 0l61.013-61.013 146.688 219.989c7.168 10.752 21.76 13.653 32.512 6.485zM349.867 867.925c12.971 0 23.467-10.496 23.467-23.467v-130.347h241.664v128.811c0 12.971 10.496 23.467 23.467 23.467s23.467-10.496 23.467-23.467v-152.277c0-12.971-10.496-23.467-23.467-23.467h-288.597c-12.971 0-23.467 10.496-23.467 23.467v153.813c0 12.971 10.496 23.467 23.467 23.467zM531.029 874.667c12.928 0 23.467-10.496 23.467-23.467s-10.539-23.467-23.467-23.467h-73.728c-12.971 0-23.467 10.496-23.467 23.467s10.496 23.467 23.467 23.467h73.728z" />
<glyph unicode="&#xe923;" glyph-name="icn-download" d="M236.8 270.421c12.971 0 23.467-10.496 23.467-23.467v-169.685l528-0.427v169.387c0 12.971 10.539 23.467 23.467 23.467 12.971 0 23.467-10.496 23.467-23.467v-192.896c0-6.229-2.475-12.203-6.827-16.597-4.437-4.395-10.411-6.869-16.64-6.869l-574.933 0.512c-12.971 0-23.467 10.496-23.467 23.467v193.109c0 12.971 10.496 23.467 23.467 23.467zM721.493 458.453c8.107-2.133 14.421-8.491 16.597-16.597 2.133-8.107-0.171-16.725-6.101-22.656l-191.488-191.488c-3.499-3.499-8.021-5.803-12.885-6.571l-3.712-0.299c-6.187 0-12.16 2.475-16.597 6.869l-191.445 191.488c-5.931 5.931-8.235 14.549-6.059 22.656 2.133 8.107 8.491 14.421 16.597 16.64 8.107 2.133 16.725-0.171 22.656-6.101l174.848-174.891 174.933 174.891c5.888 5.931 14.507 8.235 22.613 6.059zM523.947 874.667c12.928 0 23.467-10.496 23.467-23.467v-382.933c0-12.971-10.539-23.467-23.467-23.467-12.971 0-23.467 10.496-23.467 23.467v382.933c0 12.971 10.496 23.467 23.467 23.467z" />
<glyph unicode="&#xe924;" glyph-name="icn-edit" d="M452.693 473.515c8.405-0.128 16.128-4.693 20.224-11.947 4.096-7.339 4.011-16.299-0.256-23.467l-149.035-251.307c-3.371-5.547-37.632-64.341-9.515-109.824 56.107-3.115 91.435 60.331 91.776 61.013l0.427 0.725 148.608 250.581c3.157 5.333 8.363 9.216 14.379 10.752s12.416 0.64 17.792-2.56c5.333-3.157 9.216-8.363 10.752-14.379s0.597-12.416-2.56-17.792l-148.48-250.283c-10.197-17.408-22.912-33.152-37.717-46.805-27.691-25.344-58.709-38.4-90.752-38.4-7.211 0-14.379 0.683-21.461 1.963-0.171 0-0.299 0.085-0.469 0.128-0.427 0.043-0.768 0.171-1.195 0.256l-1.237 0.341-1.109 0.384-1.195 0.469-1.067 0.512-0.597 0.299-0.555 0.299-0.981 0.597-1.195 0.811-0.853 0.597-1.792 1.579-0.512 0.597-1.195 1.28-0.213 0.213c-25.216 31.36-32.768 71.467-21.845 115.925 4.864 19.584 12.629 38.315 22.955 55.637l148.48 250.283c4.267 7.253 12.032 11.605 20.437 11.52zM618.667 776.235c26.709 44.928 84.821 59.776 129.835 33.152 44.928-26.709 59.776-84.736 33.195-129.749v-0.085l-123.989-209.067c-3.2-5.376-8.363-9.216-14.379-10.752-6.059-1.579-12.459-0.64-17.792 2.56l-122.667 72.704c-5.333 3.157-9.216 8.363-10.752 14.379s-0.64 12.416 2.56 17.792l123.947 208.981zM700.715 775.723c-17.067 0.213-32.981-8.747-41.685-23.467l-112.043-188.8 82.261-48.811 112 188.843c8.704 14.72 8.96 32.981 0.555 47.872-8.363 14.891-24.021 24.192-41.131 24.405zM532.565 874.667c8.363-0.085 16.043-4.693 20.139-11.947 4.139-7.339 4.011-16.299-0.256-23.467l-94.933-160.128c-3.2-5.333-8.363-9.216-14.379-10.752-6.059-1.536-12.459-0.64-17.792 2.56-5.333 3.157-9.216 8.32-10.752 14.379-1.536 6.016-0.64 12.373 2.56 17.749l94.933 160.085c4.267 7.253 12.075 11.605 20.48 11.52z" />
<glyph unicode="&#xe925;" glyph-name="icn-edit_2" d="M452.693 473.515c8.405-0.128 16.128-4.693 20.224-11.947 4.096-7.339 4.011-16.299-0.256-23.467l-149.035-251.307c-3.371-5.547-37.632-64.341-9.515-109.824 56.107-3.115 91.435 60.331 91.776 61.013l0.427 0.725 148.608 250.581c3.157 5.333 8.363 9.216 14.379 10.752s12.416 0.64 17.792-2.56c5.333-3.157 9.216-8.363 10.752-14.379s0.597-12.416-2.56-17.792l-148.48-250.283c-10.197-17.408-22.912-33.152-37.717-46.805-27.691-25.344-58.709-38.4-90.752-38.4-7.211 0-14.379 0.683-21.461 1.963-0.171 0-0.299 0.085-0.469 0.128-0.427 0.043-0.768 0.171-1.195 0.256l-1.237 0.341-1.109 0.384-1.195 0.469-1.067 0.512-0.597 0.299-0.555 0.299-0.981 0.597-1.195 0.811-0.853 0.597-1.792 1.579-0.512 0.597-1.195 1.28-0.213 0.213c-25.216 31.36-32.768 71.467-21.845 115.925 4.864 19.584 12.629 38.315 22.955 55.637l148.48 250.283c4.267 7.253 12.032 11.605 20.437 11.52zM618.667 776.235c26.709 44.928 84.821 59.776 129.835 33.152 44.928-26.709 59.776-84.736 33.195-129.749v-0.085l-123.989-209.067c-3.2-5.376-8.363-9.216-14.379-10.752-6.059-1.579-12.459-0.64-17.792 2.56l-122.667 72.704c-5.333 3.157-9.216 8.363-10.752 14.379s-0.64 12.416 2.56 17.792l123.947 208.981zM700.715 775.723c-17.067 0.213-32.981-8.747-41.685-23.467l-112.043-188.8 82.261-48.811 112 188.843c8.704 14.72 8.96 32.981 0.555 47.872-8.363 14.891-24.021 24.192-41.131 24.405zM532.565 874.667c8.363-0.085 16.043-4.693 20.139-11.947 4.139-7.339 4.011-16.299-0.256-23.467l-94.933-160.128c-3.2-5.333-8.363-9.216-14.379-10.752-6.059-1.536-12.459-0.64-17.792 2.56-5.333 3.157-9.216 8.32-10.752 14.379-1.536 6.016-0.64 12.373 2.56 17.749l94.933 160.085c4.267 7.253 12.075 11.605 20.48 11.52z" />
<glyph unicode="&#xe926;" glyph-name="icn-email" d="M188.971 651.307c6.144 11.392 20.395 15.616 31.787 9.472s15.659-20.352 9.515-31.787c-35.115-65.28-53.376-138.24-53.163-212.352v-0.256c0.085-111.701 55.040-216.192 146.944-279.552 91.947-63.403 209.152-77.525 313.515-37.888 7.851 2.987 16.64 1.579 23.168-3.712s9.685-13.653 8.363-21.931c-1.28-8.277-6.955-15.232-14.805-18.219-118.784-45.141-252.203-29.013-356.864 43.093s-167.168 191.061-167.253 318.165c-0.213 82.091 19.968 162.816 58.795 234.965zM278.443 768.768c143.957 132.949 363.179 141.653 517.248 20.608 67.712-52.907 111.445-130.731 121.429-216.064 10.453-85.333-13.653-171.221-66.944-238.635-17.835-22.741-39.253-42.411-63.488-58.155-1.237-0.768-2.56-1.451-3.883-2.005-44.288-25.259-100.48-13.397-130.859 27.563-51.115-50.688-127.744-65.664-194.176-37.973-66.475 27.733-109.781 92.587-109.824 164.608 0 82.475 40.192 159.573 107.648 206.805 67.413 47.232 153.6 58.581 230.997 30.464 12.16-4.437 18.475-17.92 14.037-30.080s-17.92-18.432-30.080-13.995c-62.976 22.869-133.12 13.611-188.032-24.789-54.869-38.4-87.595-101.205-87.637-168.192 0-54.699 33.792-103.68 84.907-123.051 51.072-19.371 108.843-5.12 145.067 35.755 2.304 2.56 5.12 4.565 8.277 5.931-0.427 2.987-0.725 6.059-0.896 9.131-0.555 1.963-0.853 4.053-0.853 6.101v171.691c0 12.928 10.539 23.467 23.467 23.467 12.971 0 23.467-10.539 23.467-23.467v-166.869c0.427-1.792 0.683-3.669 0.683-5.547 0-19.883 11.008-38.144 28.587-47.531 17.579-9.344 38.869-8.235 55.381 2.901 0.64 0.427 1.323 0.683 2.005 1.067 18.347 12.501 34.603 27.733 48.299 45.184 94.507 120.192 73.643 294.272-46.592 388.779-135.936 106.837-329.301 99.157-456.363-18.133-6.144-5.675-14.848-7.68-22.869-5.205s-14.080 9.045-15.957 17.237c-1.835 8.149 0.811 16.725 6.955 22.4z" />
<glyph unicode="&#xe927;" glyph-name="icn-face-id" d="M120.021 313.771c15.957 0 29.312-13.312 29.312-29.312v-127.147c0-39.979 32-71.979 72.021-71.979h127.104c16.896 0 30.208-13.355 30.208-30.208 0-16-13.355-29.355-29.355-29.355h-127.104c-72.875 0-131.541 58.667-131.541 131.584v127.104c0 16 13.355 29.312 29.355 29.312zM904.875 314.667c16 0 29.355-13.355 29.355-30.208v-125.355c0-72.875-58.667-131.541-131.584-131.541h-127.104c-16 0-29.312 13.312-29.312 29.312s13.312 29.355 29.312 29.355h128c40.021 0 72.021 32 72.021 71.979v127.147c0 15.957 13.312 29.312 29.312 29.312zM512 746.667c164.437 0 298.667-134.229 298.667-298.667s-134.229-298.667-298.667-298.667-298.667 134.229-298.667 298.667 134.229 298.667 298.667 298.667zM512 687.104c-131.541 0-239.104-106.667-239.104-239.104 0-131.541 106.667-239.104 239.104-239.104s239.104 106.667 239.104 239.104c0 131.541-106.667 239.104-239.104 239.104zM404.48 385.792c12.373 10.667 31.061 7.979 41.728-4.437l0.469-0.512 2.731-2.731c7.68-7.253 29.184-24.32 62.592-24.32s54.912 17.067 62.592 24.32l2.731 2.731 0.427 0.469c10.667 12.459 29.355 14.251 40.917 3.584 12.459-9.813 14.208-28.459 4.437-40.917-0.853-2.645-39.979-49.749-111.104-49.749-61.44 0-98.987 35.797-109.227 46.72l-2.773 3.072c-10.667 12.416-8.021 31.104 4.437 41.771zM415.147 560c24.491 0 44.373-19.883 44.373-44.459 0-24.533-19.883-44.416-44.373-44.416-24.576 0-44.501 19.883-44.501 44.416 0 24.576 19.925 44.459 44.459 44.459zM608.853 560c24.576 0 44.501-19.883 44.501-44.459 0-24.533-19.925-44.416-44.459-44.416s-44.459 19.883-44.459 44.416c0 24.576 19.925 44.459 44.459 44.459zM347.563 869.333c16 0 29.312-13.355 29.312-29.355 0-15.957-13.312-29.312-29.312-29.312h-127.147c-39.979 0-71.979-32-71.979-72.021v-128c0-15.957-13.312-29.312-29.312-29.312s-29.355 13.355-29.355 30.208v127.147c0 72.875 58.667 131.541 131.541 130.645zM802.645 870.187c72.917 0 131.584-58.624 129.792-131.541v-126.208c0-16-13.312-29.312-29.312-29.312s-29.355 13.312-29.355 29.312v127.147c0 39.979-32 71.979-71.979 71.979h-127.147c-15.957 0-29.312 13.312-29.312 29.312s13.355 29.355 30.208 29.355z" />
<glyph unicode="&#xe928;" glyph-name="icn-face-touch-id" d="M426.709 406.741v-30.379c-25.941-8.875-53.717-13.696-82.603-13.696-8.021 0-14.421 6.357-14.421 14.251 0 7.936 6.4 14.293 14.421 14.293 29.141 0 57.045 5.504 82.603 15.531zM98.347 618.624c7.765 0.555 13.995-5.333 14.507-13.397 4.693-92.672 64.427-174.123 149.504-203.605 7.253-2.688 10.923-10.709 8.32-17.664-2.091-5.888-7.253-9.643-12.971-9.643-1.024 0-2.56 0-4.139 0.512-95.531 32.683-163.541 124.843-168.235 228.821-0.512 8.021 5.163 14.464 12.971 14.976zM241.493 753.28c4.693-5.803 3.669-14.763-2.133-19.499-35.84-29.013-56.32-72.277-56.32-118.741 0-84.907 68.949-154.027 153.771-154.027 15.232 0 30.507 2.091 44.757 6.315 7.339 2.091 15.275-2.133 17.365-9.515 2.133-7.381-2.133-15.317-9.472-17.408-16.853-5.291-34.773-7.936-52.651-7.936-100.096 0-181.717 81.792-181.717 182.059 0 54.357 24.235 105.515 66.389 140.373 5.76 5.248 14.72 4.181 20.011-1.621zM417.28 708.48c25.515-22.4 40.363-55.125 40.363-89.472 0-64.341-50.987-116.693-113.664-116.693-7.936 0-14.336 6.528-14.336 14.72s6.4 14.72 14.336 14.72c47.275 0 85.547 39.253 85.547 87.808 0 25.6-11.179 50.176-30.293 67.072-5.845 4.907-6.4 14.165-1.579 20.181 4.779 5.973 13.781 6.528 19.627 1.621zM338.603 735.019c7.936 0 14.336-6.272 14.336-14.080 0-7.851-6.4-14.080-14.336-14.080-47.275 0-85.547-37.632-85.547-84.139 0-29.227 15.403-55.893 40.917-71.552 6.912-3.669 9.045-12.544 4.779-18.773-2.645-4.693-7.424-6.827-12.203-6.827-2.688 0-5.333 0.512-7.467 2.133-33.963 20.864-54.187 56.363-54.187 95.573 0 61.611 51.541 111.787 113.707 111.787zM497.451 716.928c19.499-30.336 30.037-64.939 30.037-101.12 0-14.976-1.835-29.739-5.333-44.075-12.501-3.157-24.149-8.235-34.773-14.805 7.68 18.603 11.648 38.741 11.648 59.392 0 30.293-8.96 59.605-25.301 85.163-4.224 6.4-2.133 15.445 4.224 19.712 6.315 4.267 15.275 2.133 19.499-4.267zM341.333 665.173c25.472 0 46.507-21.077 46.507-46.549s-20.992-46.464-46.507-46.464c-25.472 0-46.507 21.035-46.507 46.507s21.035 46.507 46.507 46.507zM585.088 690.304c7.979-24.832 12.245-50.773 12.245-76.629 0-12.8-0.981-25.429-2.859-37.76h-28.715c2.176 12.459 3.328 25.216 3.328 38.272 0 22.741-3.755 45.995-10.667 67.669-2.688 7.381 1.579 15.317 9.045 17.451 7.467 2.603 15.488-1.621 17.621-9.003zM341.333 635.861c-9.387 0-17.195-7.765-17.195-17.195 0-9.387 7.765-17.195 17.195-17.195 9.387 0 17.195 7.765 17.195 17.195 0 9.387-7.765 17.195-17.195 17.195zM344.661 874.667c73.173 0 142.635-30.891 191.232-85.888 4.821-5.76 4.267-14.123-1.579-19.371-5.888-4.693-14.421-4.181-19.797 1.579-42.709 48.213-104.704 75.947-169.856 75.947-105.813 0-196.096-70.187-219.605-170.709-1.579-6.827-7.467-11.008-13.867-11.008-1.109 0-2.133 0.512-3.243 0.512-7.467 1.579-12.288 8.917-10.667 16.768 26.709 113.067 128.213 192.171 247.381 192.171zM452.48 761.387c6.272-5.035 6.827-14.592 2.133-20.736-3.157-3.925-6.827-5.632-11.008-5.632-3.115 0-6.229 1.152-8.875 3.413-42.752 37.547-104.832 47.061-155.477 24.064-7.253-3.371-15.104 0.555-18.261 7.851-3.115 7.851 0.555 16.256 7.339 19.627 59.989 27.477 133.547 16.256 184.149-28.587zM487.68 195.968c9.685 0 17.749-8.107 17.749-17.792v-77.099c0-24.235 19.413-43.648 43.648-43.648h77.099c10.24 0 18.347-8.107 18.347-18.347 0-9.685-8.107-17.749-17.835-17.749h-77.056c-44.203 0-79.787 35.584-79.787 79.787v77.056c0 9.685 8.107 17.792 17.792 17.792zM963.541 196.48c9.728 0 17.792-8.107 17.792-18.347v-75.947c0-44.203-35.584-79.787-79.787-79.787h-77.056c-9.685 0-17.792 8.107-17.792 17.792s8.107 17.792 17.792 17.792h77.653c24.235 0 43.605 19.413 43.605 43.648v77.056c0 9.728 8.107 17.792 17.792 17.792zM725.333 458.453c99.712 0 181.077-81.408 181.077-181.12s-81.365-181.077-181.077-181.077c-99.712 0-181.077 81.365-181.077 181.077s81.365 181.077 181.077 181.077zM725.333 422.315c-79.787 0-144.981-64.683-144.981-144.981 0-79.787 64.683-144.981 144.981-144.981s144.981 64.683 144.981 144.981c0 79.787-64.683 144.981-144.981 144.981zM660.139 239.616c7.509 6.443 18.859 4.821 25.301-2.688 0.555-0.555 14.549-16.725 39.893-16.725s39.339 16.171 39.893 16.725c6.443 7.509 17.792 8.619 24.747 2.133 7.595-5.931 8.661-17.237 2.731-24.747-0.555-1.664-24.235-30.208-67.371-30.208-43.093 0-66.816 29.099-67.925 30.165-6.443 7.552-4.821 18.859 2.731 25.344zM666.581 345.259c14.891 0 26.965-12.075 26.965-26.965s-12.075-26.965-26.965-26.965c-14.891 0-26.923 12.075-26.923 26.965s12.032 26.965 26.923 26.965zM784.085 345.259c14.891 0 26.923-12.075 26.923-26.965s-12.032-26.965-26.923-26.965c-14.891 0-26.965 12.075-26.965 26.965s12.075 26.965 26.965 26.965zM625.621 532.779c9.728 0 17.792-8.107 17.792-17.749 0-9.728-8.107-17.792-17.792-17.792h-77.056c-24.277 0-43.648-19.413-43.648-43.648v-77.653c0-9.685-8.107-17.749-17.792-17.749-9.728 0-17.792 8.107-17.792 18.347v77.013c0 44.16 35.584 79.744 79.787 79.189zM901.589 533.333c44.16 0 79.744-35.584 78.677-79.787v-76.501c0-9.728-8.107-17.792-17.792-17.792s-17.792 8.107-17.792 17.792v77.056c0 24.277-19.413 43.648-43.648 43.648h-77.056c-9.728 0-17.792 8.107-17.792 17.792 0 9.728 8.107 17.792 18.347 17.792z" />
<glyph unicode="&#xe929;" glyph-name="icn-faq" d="M489.941 107.605c12.416 0 22.485-10.069 22.485-22.485v-0.683c0-12.416-10.069-22.485-22.485-22.485-12.373 0-22.443 10.069-22.443 22.485v0.683c0 12.416 10.027 22.485 22.443 22.485zM497.195 870.357c57.088 2.645 111.147-17.579 152.32-56.917 41.216-39.381 63.915-92.373 63.957-149.248 0-60.885-26.709-118.357-73.216-157.739l-94.805-83.925c-23.552-20.864-37.035-50.816-37.035-82.261v-80c0-12.373-10.027-22.443-22.443-22.443s-22.485 10.027-22.485 22.443v80c0 44.288 18.987 86.528 52.139 115.883l95.445 84.48c36.48 30.763 57.429 75.819 57.429 123.52 0 44.544-17.749 86.059-49.963 116.821-32.256 30.763-74.581 46.549-119.211 44.544-82.731-3.84-150.187-71.552-153.771-154.283-0.725-16.725 1.067-33.237 5.333-49.152 3.243-11.947-3.84-24.32-15.829-27.52-12.032-3.243-24.32 3.84-27.52 15.829-5.504 20.352-7.765 41.472-6.869 62.72 4.523 105.728 90.88 192.427 196.565 197.248z" />
<glyph unicode="&#xe92a;" glyph-name="icn-fiscal-document" d="M878.293 775.808c13.056 0 23.68-10.667 23.68-23.723v-476.629c0-13.141-10.581-23.723-23.68-23.723h-104.832v-104.789c0-13.099-10.581-23.68-23.68-23.68h-106.539v-78.208c0-13.141-10.624-23.723-23.723-23.723h-460.971c-13.099 0-23.68 10.581-23.68 23.723v64.811c0 13.099 10.581 23.68 23.68 23.68s23.723-10.581 23.723-23.68v-41.131h413.568v538.581c0 13.099 10.581 23.723 23.68 23.723s23.723-10.624 23.723-23.723v-436.651h82.816v568.064c0 13.099 10.624 23.723 23.723 23.723s23.68-10.624 23.68-23.723v-439.552h81.109v452.907c0 13.099 10.624 23.723 23.723 23.723zM218.283 225.109c13.099 0 23.723-10.624 23.723-23.723s-10.624-23.68-23.723-23.68h-64.811c-13.056 0-23.723 10.581-23.723 23.68s10.624 23.723 23.723 23.723zM153.515 318.549c6.187 0 12.331-2.517 16.768-6.912 4.395-4.437 6.955-10.539 6.955-16.768s-2.56-12.373-6.997-16.768c-4.395-4.437-10.496-6.912-16.725-6.912s-12.373 2.475-16.768 6.912c-4.437 4.395-6.955 10.539-6.955 16.768s2.517 12.331 6.955 16.768c4.395 4.395 10.539 6.955 16.768 6.955zM218.283 410.752c13.099 0 23.723-10.581 23.723-23.68s-10.624-23.723-23.723-23.723h-64.811c-13.056 0-23.723 10.624-23.723 23.723s10.624 23.68 23.723 23.68zM153.515 504.235c6.187 0 12.331-2.56 16.768-6.912 4.395-4.437 6.955-10.539 6.955-16.768 0-1.579-0.213-3.115-0.512-4.608-0.299-1.536-0.768-3.029-1.28-4.437-0.64-1.451-1.365-2.816-2.219-4.096s-1.877-2.56-2.987-3.627c-1.067-1.109-2.304-2.091-3.584-2.944s-2.688-1.579-4.096-2.219c-1.408-0.555-2.944-1.024-4.437-1.28-1.493-0.341-3.072-0.512-4.608-0.512-6.229 0-12.373 2.56-16.768 6.955-1.067 1.067-2.048 2.304-2.987 3.627-0.811 1.28-1.536 2.645-2.133 4.096-0.597 1.408-1.067 2.901-1.365 4.437-0.341 1.493-0.427 3.029-0.427 4.608 0 6.229 2.475 12.331 6.912 16.768 4.395 4.395 10.539 6.912 16.768 6.912zM218.283 596.48c13.099 0 23.723-10.624 23.723-23.723s-10.624-23.68-23.723-23.68h-64.811c-13.056 0-23.723 10.581-23.723 23.68s10.624 23.723 23.723 23.723zM751.787 874.667c13.099 0 23.723-10.581 23.723-23.723 0-13.099-10.624-23.68-23.723-23.68h-465.067v-78.592h332.8c13.099 0 23.723-10.581 23.723-23.68s-10.624-23.723-23.723-23.723h-437.248v-36.992c0-13.099-10.624-23.723-23.723-23.723s-23.68 10.624-23.68 23.723v60.715c0 13.099 10.581 23.68 23.68 23.68h80.811v102.272c0 13.141 10.624 23.723 23.723 23.723z" />
<glyph unicode="&#xe92b;" glyph-name="icn-folder" d="M906.667 76.245h-108.885c-12.971 0-23.467 10.496-23.467 23.467s10.496 23.467 23.467 23.467h85.419v479.573h-432.64c-8.96 0-17.067 5.035-21.035 13.013l-61.312 122.88h-235.947v-615.467h497.067c12.971 0 23.467-10.496 23.467-23.467s-10.496-23.467-23.467-23.467h-520.533c-12.971 0-23.467 10.496-23.467 23.467v662.443c0 12.971 10.496 23.467 23.467 23.467h273.92c8.96 0 17.067-5.035 21.035-13.013l61.312-122.923h441.6c12.971 0 23.467-10.496 23.467-23.467v-526.507c0-12.971-10.496-23.467-23.467-23.467z" />
<glyph unicode="&#xe92c;" glyph-name="icn-help" d="M669.397 842.496c157.824-65.365 260.736-219.392 260.736-390.229-0.256-233.173-189.227-422.144-422.4-422.4-170.837 0-324.864 102.912-390.229 260.736-65.408 157.867-29.269 339.541 91.563 460.373 120.789 120.747 302.507 156.928 460.331 91.52zM507.733 827.733c-151.893 0-288.768-91.477-346.88-231.765-58.112-140.331-26.027-301.824 81.408-409.173 107.349-107.392 268.843-139.52 409.173-81.408 140.288 58.112 231.765 194.987 231.765 346.88-0.256 207.275-168.192 375.211-375.467 375.467zM502.059 263.381c1.536-0.341 2.987-0.811 4.395-1.365 1.451-0.597 2.773-1.28 4.053-2.133s2.517-1.877 3.584-2.987c1.109-1.067 2.048-2.261 2.901-3.499 0.853-1.28 1.579-2.645 2.176-4.053 0.597-1.451 1.067-2.901 1.323-4.395 0.299-1.536 0.469-3.072 0.469-4.608s-0.171-3.072-0.427-4.565c-0.299-1.536-0.768-2.987-1.365-4.395-0.597-1.451-1.28-2.773-2.133-4.053-1.707-2.603-3.925-4.821-6.528-6.485-1.28-0.853-2.603-1.579-4.053-2.133-1.408-0.64-2.859-1.067-4.395-1.365-1.493-0.341-2.987-0.469-4.565-0.469-1.536 0-3.072 0.128-4.608 0.427-1.493 0.341-2.987 0.811-4.395 1.408-1.408 0.555-2.731 1.28-4.011 2.133s-2.475 1.792-3.584 2.901c-1.067 1.067-2.048 2.304-2.901 3.584s-1.579 2.603-2.133 4.053c-0.597 1.408-1.067 2.859-1.365 4.395-0.299 1.493-0.427 2.987-0.427 4.565 0 1.536 0.128 3.072 0.427 4.608 0.299 1.493 0.768 2.987 1.323 4.395 0.597 1.408 1.323 2.773 2.176 4.053s1.835 2.432 2.901 3.541c1.109 1.109 2.304 2.091 3.584 2.944s2.603 1.536 4.011 2.133c1.451 0.555 2.901 1.024 4.395 1.365 3.029 0.597 6.144 0.597 9.173 0zM622.293 586.965c19.456-49.237 5.333-105.344-35.029-139.52l-51.712-46.507c-9.813-9.216-15.147-22.187-14.592-35.669v-12.373c0-6.229-2.475-12.203-6.827-16.597-4.437-4.395-10.411-6.869-16.64-6.869-12.928 0-23.467 10.496-23.467 23.467v12.373c-0.64 27.221 10.709 53.333 31.104 71.424l50.859 45.739c18.859 16.811 27.989 36.181 27.989 59.307-0.043 20.736-8.661 40.533-23.851 54.741-15.104 14.507-35.499 22.315-56.448 21.547-38.912-1.877-70.101-32.853-72.192-71.765 0.128-6.741 1.237-13.44 3.243-19.883l1.152-4.523c3.115-12.587-4.523-25.301-17.067-28.459-12.587-3.115-25.301 4.48-28.459 17.067l-1.067 4.139c-3.115 10.453-4.693 21.333-4.779 32.213l0.043 1.195c2.987 63.275 53.632 113.92 116.907 116.907 52.821 2.56 101.419-28.757 120.832-77.952z" />
<glyph unicode="&#xe92d;" glyph-name="icn-hide" d="M667.477 785.707c8.363 2.048 17.237 0.725 24.619-3.712 15.36-9.259 20.309-29.227 11.093-44.587l-389.589-646.613c-5.973-9.941-16.853-15.957-28.459-15.787-11.605 0.256-22.187 6.656-27.861 16.811-5.589 10.155-5.376 22.571 0.64 32.512l57.131 94.848c-4.565 1.707-9.173 3.413-13.653 5.333-16.555 6.955-24.32 26.027-17.365 42.539 6.955 16.555 26.027 24.32 42.539 17.323 7.381-3.072 14.933-5.973 22.571-8.619l40.277 66.859c-40.192 49.707-44.971 119.211-12.032 173.952 32.981 54.699 96.683 82.944 159.403 70.656l22.699 37.717c-17.195 1.92-34.475 2.859-51.755 2.901-160.128 0-302.123-77.269-350.848-189.397 20.053-43.563 51.072-81.152 90.112-109.013 9.301-6.912 14.251-18.304 12.928-29.867-1.365-11.52-8.747-21.461-19.413-26.069s-22.955-3.2-32.299 3.755c-55.339 41.088-95.701 92.928-116.821 149.845-0.213 0.597-0.299 1.195-0.427 1.792-0.384 1.067-0.64 2.133-0.853 3.243-0.213 1.024-0.384 2.048-0.469 3.072-0.213 2.133-0.213 4.267 0 6.4 0.085 1.024 0.256 2.048 0.427 3.072 0.256 1.109 0.512 2.176 0.853 3.243 0.171 0.597 0.256 1.195 0.469 1.792 53.035 143.147 224.256 243.115 416.341 243.115 29.568 0 59.136-2.432 88.32-7.168l51.371 85.248c4.48 7.424 11.648 12.715 20.053 14.805zM774.912 603.349c10.667 4.608 22.955 3.157 32.299-3.755 55.296-41.088 95.701-92.928 116.821-149.845 0.213-0.597 0.256-1.152 0.427-1.749 0.384-1.109 0.64-2.219 0.853-3.371 0.213-0.981 0.384-1.963 0.427-2.944 0.171-1.109 0.213-2.219 0.213-3.328 0-1.024-0.085-2.005-0.171-3.029-0.085-1.109-0.256-2.133-0.427-3.243-0.256-1.024-0.512-2.048-0.853-3.072-0.171-0.64-0.256-1.28-0.469-1.877-53.035-143.147-224.256-243.157-416.341-243.157-20.053 0.043-40.107 1.195-60.032 3.413l37.461 62.123c7.509-0.341 15.019-0.512 22.613-0.512 160.085 0 302.080 77.269 350.805 189.355-20.053 43.605-51.072 81.195-90.069 109.056-9.387 6.912-14.293 18.304-12.971 29.867 1.365 11.52 8.747 21.461 19.413 26.069zM641.792 509.653c25.259-47.147 23.893-104.021-3.627-149.888-27.477-45.824-76.971-73.856-130.432-73.813h-0.683l47.403 78.677c23.040 14.635 37.803 39.253 40.021 66.432zM499.115 524.629c-44.501-4.437-78.421-41.899-78.507-86.613 0-11.264 2.261-22.4 6.571-32.853zM723.84 645.803c9.771-9.259 12.8-23.595 7.552-36.011-6.613-15.616-24.107-23.467-40.107-18.091z" />
<glyph unicode="&#xe92e;" glyph-name="icn-id" d="M906.667 635.819c12.971 0 23.467-10.496 23.467-23.467v-435.2c0-13.013-10.496-23.467-23.467-23.467h-797.867c-12.971 0-23.467 10.453-23.467 23.467 0 12.928 10.496 23.467 23.467 23.467h774.4v411.733c0 12.971 10.496 23.467 23.467 23.467zM906.667 746.667c12.971 0 23.467-10.496 23.467-23.467s-10.496-23.467-23.467-23.467h-774.4v-411.776c0-6.229-2.475-12.203-6.869-16.597s-10.368-6.869-16.597-6.869c-12.971 0-23.467 10.496-23.467 23.467v435.243c0 12.971 10.496 23.467 23.467 23.467zM689.067 439.552c73.045 0 132.267-59.221 132.267-132.267 0-12.971-10.496-23.467-23.467-23.467s-23.467 10.496-23.467 23.467c0 47.147-38.187 85.333-85.333 85.333s-85.333-38.187-85.333-85.333c0-12.971-10.496-23.467-23.467-23.467s-23.467 10.496-23.467 23.467c0 73.045 59.221 132.267 132.267 132.267zM471.467 492.757c12.971 0 23.467-10.496 23.467-23.467 0-12.928-10.496-23.467-23.467-23.467h-217.6c-12.971 0-23.467 10.539-23.467 23.467 0 12.971 10.496 23.467 23.467 23.467zM666.325 609.621c35.499 12.288 74.88 0.768 98.133-28.715 23.211-29.483 25.216-70.485 4.992-102.101-3.371-5.248-8.661-8.96-14.763-10.24-6.059-1.365-12.416-0.213-17.664 3.157s-8.96 8.661-10.24 14.72c-1.365 6.101-0.213 12.459 3.157 17.707 9.429 14.763 8.491 33.92-2.389 47.701-10.837 13.781-29.269 19.157-45.824 13.397-16.597-5.76-27.733-21.333-27.733-38.912 0-6.741 1.664-13.397 4.821-19.371 3.968-7.381 3.669-16.341-0.768-23.467-4.437-7.083-12.331-11.307-20.693-11.051-8.363 0.299-15.957 5.035-19.925 12.416-6.784 12.715-10.325 26.923-10.325 41.387 0 37.632 23.765 71.040 59.221 83.371zM398.933 601.6c12.971 0 23.467-10.539 23.467-23.467 0-12.971-10.496-23.467-23.467-23.467h-145.067c-12.971 0-23.467 10.496-23.467 23.467 0 12.928 10.496 23.467 23.467 23.467z" />
<glyph unicode="&#xe92f;" glyph-name="icn-incorrect" d="M507.733 874.667c233.173-0.299 422.101-189.227 422.4-422.4 0-233.259-189.056-422.357-422.357-422.4-233.259 0-422.4 189.099-422.4 422.4 0 233.259 189.099 422.357 422.357 422.4zM507.733 827.733c-207.36 0-375.424-168.107-375.424-375.467s168.107-375.424 375.424-375.467c207.275 0.256 375.211 168.235 375.467 375.467 0 207.36-168.107 375.467-375.467 375.467zM346.88 629.76c8.107 2.133 16.725-0.171 22.613-6.101l138.24-138.24 138.24 138.24c9.131 9.173 23.979 9.173 33.152 0 4.395-4.395 6.869-10.368 6.869-16.555 0-6.229-2.475-12.203-6.827-16.64l-138.24-138.24 138.24-138.197c5.888-5.931 8.192-14.549 6.059-22.656-2.176-8.107-8.533-14.421-16.64-16.597-8.107-2.133-16.725 0.171-22.613 6.059l-138.24 138.24-138.24-138.24c-5.888-5.931-14.507-8.235-22.613-6.059-8.107 2.133-14.507 8.491-16.64 16.597s0.171 16.725 6.101 22.656l138.24 138.24-138.24 138.24c-5.973 5.931-8.235 14.549-6.101 22.613 2.176 8.107 8.533 14.464 16.64 16.64z" />
<glyph unicode="&#xe930;" glyph-name="icn-info1" d="M507.733 874.667c233.301 0 422.4-189.099 422.4-422.4-0.256-233.131-189.227-422.101-422.4-422.4-233.259 0.043-422.357 189.141-422.357 422.4s189.099 422.4 422.4 422.4zM507.733 827.733c-151.851-0.043-288.725-91.52-346.88-231.808-58.027-140.288-25.941-301.781 81.493-409.173 107.349-107.349 268.8-139.435 409.131-81.323 140.288 58.112 231.723 194.987 231.723 346.88-0.256 207.232-168.235 375.168-375.467 375.381zM507.563 535.509c12.971 0 23.467-10.496 23.467-23.467v-189.995h35.413c12.928 0 23.467-10.496 23.467-23.467s-10.539-23.467-23.467-23.467h-117.376c-8.405 0-16.171 4.48-20.352 11.733s-4.181 16.213 0 23.467c4.181 7.253 11.947 11.733 20.309 11.733h35.072v166.528h-15.659c-12.971 0-23.467 10.539-23.467 23.467 0 12.971 10.496 23.467 23.467 23.467h39.125zM501.077 665.941c12.971 0 23.467-10.496 23.467-23.467v-1.493c0-12.971-10.496-23.467-23.467-23.467s-23.467 10.496-23.467 23.467v1.493c0 12.971 10.496 23.467 23.467 23.467z" />
<glyph unicode="&#xe931;" glyph-name="icn-information" d="M435.925 480.171c12.971 0 23.467-10.496 23.467-23.467v-269.909c0-12.971-10.496-23.467-23.467-23.467h-43.989v-86.528h256.939c12.971 0 23.467-10.496 23.467-23.467s-10.496-23.467-23.467-23.467h-280.405c-12.971 0-23.467 10.496-23.467 23.467v133.461c0 12.971 10.496 23.467 23.467 23.467h43.947v222.976h-43.947c-12.971 0-23.467 10.539-23.467 23.467 0 12.971 10.496 23.467 23.467 23.467h67.413zM569.045 615.125c12.928 0 23.467-10.496 23.467-23.467v-381.397h43.947c13.013 0 23.467-10.496 23.467-23.467s-10.453-23.467-23.467-23.467h-67.413c-12.971 0-23.467 10.496-23.467 23.467v381.44h-178.987c-12.971 0-23.467 10.496-23.467 23.467 0 12.928 10.496 23.467 23.467 23.467h202.453zM469.419 874.667c50.091 0 90.752-40.619 90.752-90.752-0.085-50.091-40.661-90.709-90.752-90.752-50.133 0-90.752 40.619-90.752 90.752s40.619 90.752 90.752 90.752zM469.419 827.733c-24.235 0-43.819-19.627-43.819-43.819s19.627-43.819 43.819-43.819 43.819 19.627 43.819 43.819c-0.043 24.192-19.627 43.776-43.819 43.819z" />
<glyph unicode="&#xe932;" glyph-name="icn-list" d="M108.8 266.752c12.971 0 23.467-10.496 23.467-23.467v-2.133c0-12.928-10.496-23.467-23.467-23.467s-23.467 10.539-23.467 23.467v2.133c0 12.971 10.496 23.467 23.467 23.467zM906.667 265.685c12.971 0 23.467-10.496 23.467-23.467s-10.496-23.467-23.467-23.467h-537.429c-12.971 0-23.467 10.496-23.467 23.467s10.496 23.467 23.467 23.467h537.429zM108.8 463.744c12.971 0 23.467-10.539 23.467-23.467v-2.133c0-12.971-10.496-23.467-23.467-23.467s-23.467 10.496-23.467 23.467v2.133c0 12.928 10.496 23.467 23.467 23.467zM906.667 462.677c12.971 0 23.467-10.539 23.467-23.467 0-12.971-10.496-23.467-23.467-23.467h-537.429c-12.971 0-23.467 10.496-23.467 23.467 0 12.928 10.496 23.467 23.467 23.467h537.429zM108.8 661.205c12.971 0 23.467-10.496 23.467-23.467v-2.133c0-11.648-8.533-21.333-19.627-23.125l-3.84-0.299c-12.971 0-23.467 10.496-23.467 23.467v2.133c0 12.928 10.496 23.467 23.467 23.467zM906.667 659.669c12.971 0 23.467-10.539 23.467-23.467 0-12.971-10.496-23.467-23.467-23.467h-537.429c-12.971 0-23.467 10.496-23.467 23.467 0 12.928 10.496 23.467 23.467 23.467h537.429z" />
<glyph unicode="&#xe933;" glyph-name="icn-list-arrow" d="M588.757 343.339c8.107-2.091 14.507-8.32 16.811-16.384 2.261-8.107 0.085-16.768-5.803-22.741l-260.395-267.264c-4.437-4.523-10.496-7.083-16.811-7.083-9.429 0-17.92 5.632-21.632 14.336-3.669 8.704-1.749 18.773 4.821 25.515l260.437 267.221c5.845 6.016 14.464 8.448 22.571 6.4zM339.797 867.84l395.264-392.704c6.741-6.699 8.747-16.811 5.12-25.6-3.584-8.789-12.16-14.507-21.675-14.507-6.187 0-12.16 2.432-16.555 6.827l-395.264 392.704c-5.973 5.888-8.277 14.507-6.144 22.613s8.448 14.507 16.555 16.683c8.107 2.219 16.725-0.085 22.699-5.973z" />
<glyph unicode="&#xe934;" glyph-name="icn-location-map" d="M530.304 874.667c151.467 0 274.261-122.496 274.261-273.621l-0.171-10.24 0.171-3.243c0-115.797-194.56-566.229-274.261-566.229-79.787 0-234.965 344.619-267.179 517.589-4.693 20.011-7.125 40.747-7.125 62.123 0 151.125 122.795 273.621 274.304 273.621zM530.304 722.304c-67.328 0-121.941-54.613-121.941-121.941s54.613-121.899 121.941-121.899 121.899 54.613 121.899 121.899c0 67.328-54.613 121.941-121.899 121.941z" />
<glyph unicode="&#xe935;" glyph-name="icn-logout" d="M516.267 294.4c12.971 0 23.467-10.496 23.467-23.467v-217.6c0-12.971-10.496-23.467-23.467-23.467s-23.467 10.496-23.467 23.467v217.6c0 12.971 10.496 23.467 23.467 23.467zM516.693 874.581c184.789-0.213 343.552-131.328 378.667-312.747 35.115-181.461-63.232-362.368-234.667-431.488-2.773-1.152-5.76-1.707-8.747-1.707-11.221 0-20.907 7.936-23.040 18.987-2.133 11.008 3.84 22.016 14.251 26.24 150.571 60.715 236.971 219.648 206.080 379.008-30.805 159.403-170.24 274.56-332.629 274.773-162.347 0.128-302.037-114.773-333.227-274.048-31.147-159.317 54.869-318.421 205.312-379.477 11.989-4.864 17.792-18.56 12.928-30.549-4.907-12.032-18.56-17.792-30.592-12.928-171.221 69.547-269.227 250.624-233.728 432 35.541 181.333 194.56 312.107 379.392 311.893z" />
<glyph unicode="&#xe936;" glyph-name="icn-logout_2" d="M395.093 770.944c6.571-5.163 9.941-13.483 8.747-21.76-1.152-8.32-6.656-15.36-14.464-18.517-150.571-60.715-236.971-219.605-206.123-379.008 30.805-159.403 170.283-274.603 332.629-274.773s302.080 114.731 333.227 274.048c31.232 159.317-54.827 318.421-205.269 379.477-11.989 4.864-17.792 18.56-12.928 30.549 4.907 12.032 18.603 17.792 30.592 12.928 171.179-69.547 269.141-250.496 233.728-431.787-35.413-181.333-194.219-312.192-378.965-312.235-184.875 0-343.851 131.115-379.051 312.619-35.243 181.504 63.147 362.539 234.581 431.701 7.808 3.157 16.64 1.92 23.253-3.243zM516.267 874.667c12.971 0 23.467-10.496 23.467-23.467v-344.277c0-12.928-10.496-23.467-23.467-23.467s-23.467 10.539-23.467 23.467v344.277c0 12.971 10.496 23.467 23.467 23.467z" />
<glyph unicode="&#xe937;" glyph-name="icn-message-open-header" d="M498.731 739.413c7.936 5.291 18.219 5.291 26.155 0l403.2-266.795c6.571-4.395 10.581-11.861 10.581-19.797v-403.2c0-13.099-10.581-23.723-23.723-23.723h-132.693c-13.141 0-23.723 10.624-23.723 23.723s10.581 23.68 23.68 23.68h109.056v366.763l-379.477 251.179-379.051-251.136v-366.763h513.579c13.141 0 23.723-10.581 23.723-23.68s-10.581-23.723-23.723-23.723h-537.259c-13.141 0-23.723 10.624-23.723 23.723v403.2c0 7.893 3.968 15.36 10.581 19.712zM222.080 396.629c5.973 11.648 20.309 16.213 31.957 10.24l257.707-133.035 258.304 131.285c11.691 5.973 25.984 1.28 31.915-10.368 5.973-11.691 1.28-25.984-10.368-31.915l-126.72-64.427 116.693-107.093c9.643-8.789 10.24-23.808 1.451-33.451-4.693-5.12-11.093-7.68-17.493-7.68-5.717 0-11.435 2.091-16 6.272l-129.707 119.125-97.28-49.493c-3.413-1.707-7.083-2.56-10.752-2.56-3.712 0-7.467 0.853-10.88 2.603l-97.109 50.133-120.619-119.253c-4.608-4.565-10.667-6.827-16.64-6.827-6.144 0-12.203 2.304-16.853 6.997-9.216 9.301-9.131 24.32 0.256 33.493l109.568 108.373-127.232 65.621c-11.605 5.973-16.213 20.309-10.197 31.957z" />
<glyph unicode="&#xe938;" glyph-name="icn-menu-policy-health" d="M631.381 832c12.971 0 23.467-10.496 23.467-23.467s-10.496-23.467-23.467-23.467h-31.573v-61.739c0-78.251 63.403-141.696 141.653-141.696 78.293 0 141.739 63.445 141.739 141.696v61.739h-31.573c-12.971 0-23.467 10.496-23.467 23.467s10.496 23.467 23.467 23.467h55.040c12.971 0 23.467-10.496 23.467-23.467v-85.205c-0.128-95.275-71.211-175.531-165.76-187.221v-280.491c0-110.507-86.784-201.643-197.205-207.019s-205.653 76.843-216.363 186.88c-37.12 11.093-60.587 47.573-55.339 85.973 5.333 38.4 37.845 67.115 76.587 67.712s72.107-27.179 78.592-65.365c6.443-38.187-15.915-75.392-52.693-87.595 10.24-84.139 84.267-145.792 168.875-140.629 84.651 5.12 150.613 75.264 150.613 160.043v280.704c-94.037 12.203-164.48 92.245-164.608 187.051v85.163c0 12.971 10.539 23.467 23.467 23.467zM373.248 342.272c-17.408 0-31.573-14.165-31.573-31.573 0-12.8 7.68-24.32 19.499-29.184 11.819-4.907 25.387-2.219 34.432 6.827s11.733 22.613 6.827 34.432c-4.864 11.819-16.384 19.499-29.141 19.499zM248.661 594.091c12.971 0 23.467-10.539 23.467-23.467v-93.355h65.92v19.584c0 12.928 10.496 23.467 23.467 23.467 12.928 0 23.467-10.539 23.467-23.467v-43.051c0-12.928-10.539-23.467-23.467-23.467h-112.853c-12.928 0-23.467 10.539-23.467 23.467v116.821c0 12.928 10.539 23.467 23.467 23.467zM478.293 710.827c12.971 0 23.467-10.496 23.467-23.467v-116.779c0-12.971-10.496-23.467-23.467-23.467h-116.779c-12.971 0-23.467 10.496-23.467 23.467 0 12.928 10.496 23.467 23.467 23.467h93.312v69.845h-19.285c-12.971 0-23.467 10.496-23.467 23.467s10.496 23.467 23.467 23.467zM225.579 712.448c12.971 0 23.467-10.496 23.467-23.467s-10.496-23.467-23.467-23.467h-93.312v-69.845h19.285c12.971 0 23.467-10.539 23.467-23.467 0-12.971-10.496-23.467-23.467-23.467h-42.752c-12.971 0-23.467 10.496-23.467 23.467v116.821c0 12.971 10.496 23.467 23.467 23.467zM361.515 827.605c12.928 0 23.467-10.496 23.467-23.467v-116.779c0-12.971-10.539-23.467-23.467-23.467-12.971 0-23.467 10.496-23.467 23.467v93.355h-69.888v-19.285c0-12.971-10.496-23.467-23.467-23.467l-3.669 0.299c-4.864 0.768-9.387 3.072-12.928 6.571-4.395 4.395-6.827 10.368-6.827 16.64v42.667c0 12.971 10.496 23.467 23.467 23.467z" />
<glyph unicode="&#xe939;" glyph-name="icn-message" d="M244.352 661.333c13.099 0 23.723-10.581 23.723-23.723 0-13.099-10.624-23.68-23.723-23.68h-111.616v-355.541h513.579c13.099 0 23.723-10.667 23.723-23.765s-10.581-23.723-23.723-23.723h-537.259c-13.141 0-23.723 10.624-23.723 23.765v402.944c0 13.141 10.581 23.723 23.723 23.723zM914.944 661.333c13.141 0 23.723-10.581 23.723-23.723v-402.944c0-13.099-10.581-23.723-23.723-23.723h-132.821c-13.099 0-23.68 10.624-23.68 23.723s10.581 23.723 23.68 23.723h109.141v355.541h-515.541c-13.099 0-23.68 10.581-23.68 23.68 0 13.141 10.581 23.723 23.68 23.723zM222.293 548.821c5.973 11.605 20.309 16.128 31.957 10.155l257.749-133.163 257.792 131.413c11.691 5.973 25.984 1.365 31.915-10.325 5.973-11.691 1.323-25.941-10.368-31.872l-126.464-64.469 116.736-107.008c9.643-8.875 10.325-23.893 1.493-33.493-4.693-5.12-11.093-7.68-17.493-7.765-5.717 0-11.435 2.048-16 6.229l-129.835 119.040-97.067-49.493c-3.413-1.707-7.083-2.603-10.795-2.603s-7.467 0.853-10.88 2.645l-97.28 50.261-120.576-119.211c-4.651-4.565-10.667-6.827-16.64-6.827-6.144 0-12.203 2.304-16.853 7.040-9.259 9.301-9.173 24.32 0.171 33.493l109.568 108.373-127.019 65.621c-11.605 5.973-16.128 20.309-10.155 31.957z" />
<glyph unicode="&#xe93a;" glyph-name="icn-message-open" d="M498.731 910.080c7.936 5.291 18.219 5.291 26.155 0l403.2-266.795c6.571-4.395 10.581-11.861 10.581-19.797v-403.2c0-13.099-10.581-23.723-23.723-23.723h-132.693c-13.141 0-23.723 10.624-23.723 23.723s10.581 23.68 23.68 23.68h109.056v366.763l-379.477 251.179-379.093-251.136v-366.763h513.579c13.141 0 23.723-10.581 23.723-23.68s-10.581-23.723-23.723-23.723h-537.216c-13.141 0-23.723 10.624-23.723 23.723v403.2c0 7.893 3.968 15.36 10.581 19.712zM222.080 567.296c5.973 11.648 20.309 16.213 31.957 10.24l257.707-133.035 258.304 131.285c11.691 5.973 25.984 1.28 31.915-10.368 5.973-11.691 1.28-25.984-10.368-31.915l-126.72-64.427 116.693-107.093c9.643-8.789 10.24-23.808 1.451-33.451-4.693-5.12-11.093-7.68-17.493-7.68-5.717 0-11.435 2.091-16 6.272l-129.707 119.125-97.28-49.493c-3.413-1.707-7.083-2.56-10.752-2.56-3.712 0-7.467 0.853-10.88 2.603l-97.109 50.133-120.619-119.253c-4.608-4.565-10.667-6.827-16.64-6.827-6.144 0-12.203 2.304-16.853 6.997-9.216 9.301-9.131 24.32 0.256 33.493l109.568 108.373-127.232 65.621c-11.605 5.973-16.213 20.309-10.197 31.957z" />
<glyph unicode="&#xe93b;" glyph-name="icn-message-header" d="M244.352 490.667c13.099 0 23.723-10.581 23.723-23.723 0-13.099-10.624-23.68-23.723-23.68h-111.616v-355.541h513.579c13.099 0 23.723-10.667 23.723-23.765s-10.581-23.723-23.723-23.723h-537.259c-13.141 0-23.723 10.624-23.723 23.765v402.987c0 13.141 10.581 23.723 23.723 23.723zM914.944 490.667c13.141 0 23.723-10.581 23.723-23.723v-402.944c0-13.099-10.581-23.723-23.723-23.723h-132.821c-13.099 0-23.68 10.624-23.68 23.723s10.581 23.723 23.68 23.723h109.141v355.584h-515.541c-13.099 0-23.68 10.581-23.68 23.68 0 13.141 10.581 23.723 23.68 23.723zM222.293 378.155c5.973 11.605 20.309 16.128 31.957 10.155l257.749-133.163 257.792 131.413c11.691 5.973 25.984 1.365 31.915-10.325 5.973-11.691 1.323-25.941-10.368-31.872l-126.464-64.469 116.736-107.008c9.643-8.875 10.325-23.893 1.493-33.493-4.693-5.12-11.093-7.68-17.493-7.765-5.717 0-11.435 2.048-16 6.229l-129.835 119.040-97.067-49.493c-3.413-1.707-7.083-2.603-10.795-2.603s-7.467 0.853-10.88 2.645l-97.28 50.261-120.576-119.211c-4.651-4.565-10.667-6.827-16.64-6.827-6.144 0-12.203 2.304-16.853 7.040-9.259 9.301-9.173 24.32 0.171 33.493l109.568 108.373-127.019 65.621c-11.605 5.973-16.128 20.309-10.155 31.957z" />
<glyph unicode="&#xe93c;" glyph-name="icn-profile" d="M635.605 340.181c158.379-0.171 286.72-128.469 286.891-286.848 0-12.971-10.539-23.467-23.467-23.467h-790.229c-12.971 0-23.467 10.496-23.467 23.467 0.171 158.379 128.512 286.72 286.891 286.848 12.928 0 23.467-10.496 23.467-23.467 0-12.928-10.539-23.467-23.467-23.467-123.392-0.128-226.56-93.696-238.805-216.448h740.992c-12.203 122.752-115.413 216.32-238.805 216.448-12.928 0-23.467 10.539-23.467 23.467 0 12.971 10.539 23.467 23.467 23.467zM362.112 815.616c84.011 80.555 217.216 78.421 298.667-4.693 81.408-83.2 80.725-216.405-1.579-298.667-9.173-9.173-24.021-9.173-33.195 0-9.131 9.131-9.131 23.979 0 33.152 64.085 64.128 64.64 167.893 1.195 232.661-63.403 64.768-167.168 66.389-232.619 3.669-65.408-62.805-68.139-166.485-6.101-232.619 4.267-4.565 6.571-10.581 6.4-16.811-0.213-6.229-2.901-12.117-7.424-16.384-9.429-8.875-24.32-8.405-33.152 1.067-79.701 84.821-76.203 218.027 7.808 298.581z" />
<glyph unicode="&#xe93d;" glyph-name="icn-rent" d="M777.813 293.632c48.981 22.315 87.979 24.021 115.84 5.12 32-21.632 36.139-61.312 36.48-76.715v-4.565l-0.043-1.28c-0.427-8.277-5.12-15.701-12.416-19.627l-284.757-151.723c-3.413-1.835-7.168-2.773-11.008-2.773l-295.424-0.171-3.925 0.341c-3.925 0.64-7.595 2.261-10.667 4.779l-217.728 173.483c-6.571 5.205-9.813 13.525-8.576 21.845 1.237 8.277 6.827 15.275 14.635 18.347s16.64 1.707 23.211-3.499l211.243-168.363 281.344 0.171 266.197 141.867c-1.536 9.728-5.376 22.699-14.976 29.141-13.013 8.704-37.76 5.547-69.717-8.96l-75.861-37.12c-7.552-3.669-16.469-3.072-23.467 1.621-6.912 4.693-10.837 12.715-10.24 21.077 0.555 8.363 5.547 15.787 13.056 19.456l76.8 37.547zM146.603 533.12c3.669 0.427 90.795 8.576 171.733-37.419 62.251-35.413 93.44-93.013 105.515-120.704l57.941-2.56c50.091-0.427 83.627-14.592 99.584-42.112 23.040-39.765-2.389-87.253-5.376-92.587-4.139-7.339-11.947-11.947-20.48-11.947l-245.845 0.597c-5.845 0-11.52 2.219-15.787 6.187l-87.808 80.427c-9.557 8.747-10.197 23.595-1.451 33.152s23.595 10.24 33.152 1.451l81.067-74.283 221.355-0.512c3.499 10.496 6.059 24.576 0.512 34.048-6.955 11.819-28.16 18.432-59.648 18.645h-0.896l-73.685 3.285c-9.813 0.427-18.347 6.955-21.333 16.341-0.171 0.683-23.979 72.192-90.027 109.739-67.541 38.4-143.061 31.616-143.829 31.573-12.885-1.28-24.32 8.107-25.643 20.992-1.28 12.885 8.107 24.363 20.949 25.685zM642.133 828.501c29.44 0 57.6-11.819 81.365-34.176 6.101-5.76 8.661-14.336 6.741-22.485s-8.064-14.677-16.085-17.067c-8.021-2.432-16.725-0.427-22.827 5.376-10.411 9.771-27.392 21.419-49.195 21.419-36.267 0-68.523-32.853-84.139-79.488h90.88c13.013 0 23.467-10.539 23.467-23.467 0-12.971-10.453-23.467-23.467-23.467h-100.267c-0.427-5.205-0.64-10.411-0.64-15.701 0-6.699 0.341-13.312 0.981-19.797h99.968c12.971 0 23.467-10.539 23.467-23.467 0-12.971-10.496-23.467-23.467-23.467h-89.557c16.128-44.501 47.531-75.435 82.731-75.435 22.187 0 39.467 12.075 49.963 22.187 6.059 5.845 14.763 7.979 22.827 5.675 8.021-2.347 14.251-8.789 16.213-16.939 2.048-8.107-0.427-16.725-6.485-22.571-24.021-23.040-52.565-35.285-82.517-35.285-77.824 0-141.099 84.821-141.099 189.099 0 104.235 63.275 189.056 141.099 189.056z" />
<glyph unicode="&#xe93e;" glyph-name="icn-repair" d="M918.059 728.875c-2.645 7.552-9.003 13.227-16.811 15.061-7.851 1.835-16.043-0.512-21.76-6.144l-109.696-107.947-79.915 79.957 109.525 109.525c5.632 5.632 8.021 13.781 6.315 21.632-1.707 7.808-7.296 14.208-14.805 16.981-77.44 28.587-164.437 9.813-223.275-48.128-58.795-57.941-78.891-144.64-51.456-222.507 4.267-12.245 17.664-18.645 29.867-14.336 12.245 4.267 18.688 17.664 14.379 29.867-19.029 54.144-8.832 114.219 27.008 159.019s92.288 67.84 149.248 61.099l-96.597-96.597c-4.395-4.395-6.869-10.368-6.869-16.555 0-6.229 2.475-12.203 6.827-16.64l113.024-112.896c9.088-9.131 23.893-9.173 33.067-0.128l96.171 94.677c5.845-57.728-18.859-114.347-65.152-149.333-46.293-34.901-107.52-43.179-161.408-21.76-9.984 3.968-21.333 0.64-27.648-8.064l-398.507-398.507c-22.272-22.272-58.368-22.315-80.64-0.043-22.272 22.229-22.272 58.325 0 80.597l287.36 287.403c5.973 5.931 8.277 14.549 6.101 22.656-2.133 8.107-8.491 14.464-16.597 16.64-8.107 2.133-16.725-0.171-22.656-6.101l-287.403-287.403c-40.533-40.576-40.533-106.325 0.043-146.901s106.325-40.619 146.944-0.043l390.827 390.827c76.971-24.021 160.896-2.56 216.875 55.467s74.411 142.635 47.616 218.667z" />
<glyph unicode="&#xe93f;" glyph-name="icn-search" d="M923.264 72.576l-248.107 248.107c110.933 130.304 105.515 323.285-12.416 447.232-8.96 9.387-23.765 9.728-33.152 0.811-9.387-8.96-9.813-23.765-0.853-33.152 105.003-110.379 105.728-283.52 1.579-394.709-3.755-2.048-6.827-5.205-8.747-9.003-92.757-90.965-234.965-108.544-347.051-42.837s-166.229 198.315-132.181 323.712c34.048 125.355 147.883 212.352 277.76 212.309 19.499 0 38.955-1.92 58.027-5.845 8.235-1.707 16.725 1.152 22.315 7.424 5.547 6.272 7.339 15.061 4.693 23.040-2.645 7.893-9.387 13.867-17.579 15.531-125.099 25.728-253.952-21.973-332.16-123.008-78.208-100.992-92.117-237.653-35.84-352.384 56.235-114.688 172.8-187.349 300.587-187.349 81.92-0.085 161.067 30.080 222.208 84.693l247.723-247.723c9.173-9.173 24.021-9.173 33.195 0s9.173 24.021 0 33.152z" />
<glyph unicode="&#xe940;" glyph-name="icn-security" d="M512 870.827c7.765 5.12 17.835 5.12 25.6 0l329.387-214.955c6.613-4.352 10.624-11.733 10.624-19.627 0-110.848-22.485-213.76-66.816-305.835-56.405-117.12-148.395-217.003-273.365-296.832l-0.512-0.299c-0.64-0.427-1.28-0.725-1.963-1.067l-1.024-0.469-1.835-0.683-1.195-0.384-1.877-0.384-1.195-0.213c-0.853-0.128-1.792-0.171-2.688-0.213h-0.512c-1.067 0-1.963 0.085-2.859 0.213l-1.237 0.213c-0.597 0.128-1.195 0.213-1.792 0.427l-1.28 0.341-1.792 0.683-1.024 0.469-1.963 1.067-0.512 0.299c-125.013 79.829-216.96 179.712-273.365 296.832-44.331 92.117-66.816 194.987-66.816 305.792l0.043 0.64c0 1.408 0.213 2.816 0.469 4.181l0.811 2.901c0.64 1.877 1.536 3.669 2.645 5.333 0.939 1.365 1.877 2.56 2.944 3.584 1.28 1.195 2.432 2.133 3.669 2.987h0.085zM524.8 823.168l-305.664-199.552c3.627-227.883 106.411-410.197 305.664-542.208 199.253 132.011 302.080 314.283 305.749 542.165l-305.749 199.595zM619.776 522.069c9.173 9.131 24.021 9.131 33.195 0 9.131-9.173 9.173-24.021 0-33.195l-143.915-143.915c-4.395-4.395-10.368-6.869-16.597-6.869s-12.203 2.475-16.597 6.827l-79.232 79.275c-5.973 5.931-8.277 14.549-6.101 22.656 2.133 8.107 8.533 14.464 16.64 16.64 8.107 2.133 16.725-0.171 22.613-6.101l62.677-62.677z" />
<glyph unicode="&#xe941;" glyph-name="icn-send-message" d="M449.28 614.699c13.056 0 23.68-10.581 23.68-23.68 0-13.141-10.624-23.723-23.723-23.723h-34.645v-259.285h340.608c13.056 0 23.723-10.581 23.723-23.68s-10.624-23.723-23.723-23.723h-364.288c-13.099 0-23.723 10.624-23.723 23.723v306.688c0 13.099 10.624 23.68 23.723 23.68zM914.944 614.699c13.141 0 23.723-10.581 23.723-23.68v-306.688c0-13.099-10.581-23.723-23.723-23.723h-56.448c-13.099 0-23.68 10.624-23.68 23.723s10.581 23.68 23.68 23.68h32.768v259.285h-342.016c-13.099 0-23.723 10.581-23.723 23.723 0 13.099 10.624 23.68 23.723 23.68zM807.851 515.157c11.648 5.973 25.899 1.323 31.872-10.368 5.973-11.648 1.323-25.941-10.368-31.872l-50.176-25.6 50.773-46.592c9.643-8.832 10.325-23.851 1.451-33.493-4.693-5.12-11.093-7.68-17.493-7.68-5.717 0-11.435 2.091-16 6.272l-63.872 58.496-70.4-35.84c-3.413-1.707-7.040-2.56-10.752-2.56s-7.467 0.853-10.88 2.603l-70.4 36.395-59.136-58.496c-4.608-4.565-10.667-6.827-16.64-6.827-6.144 0-12.245 2.304-16.896 6.997-9.216 9.301-9.131 24.32 0.171 33.536l48.213 47.616-42.368 21.888c-11.648 5.973-16.213 20.309-10.197 31.957 6.059 11.605 20.309 16.128 31.957 10.155l146.261-75.52zM275.2 414.507c13.056 0 23.68-10.581 23.68-23.68s-10.581-23.723-23.68-23.723h-166.144c-13.141 0-23.723 10.624-23.723 23.723s10.581 23.68 23.723 23.68zM275.2 508.203c13.056 0 23.68-10.581 23.68-23.68 0-13.141-10.581-23.723-23.68-23.723h-72.405c-13.141 0-23.723 10.581-23.723 23.723 0 13.099 10.581 23.68 23.723 23.68z" />
<glyph unicode="&#xe942;" glyph-name="icn-settings" d="M582.101 164.949c5.461-3.029 9.472-8.107 11.136-14.080l19.541-68.523 60.416 17.195-6.656 23.381c-3.541 12.459 3.669 25.429 16.128 29.013 12.459 3.541 25.472-3.712 29.013-16.171l13.056-45.952c1.707-5.973 0.981-12.373-2.048-17.835s-8.107-9.472-14.080-11.179l-105.557-30.037c-2.091-0.597-4.267-0.896-6.4-0.896-10.496 0-19.712 6.955-22.613 17.067l-19.499 68.523-37.291-10.667c-8.107-2.261-16.768-0.085-22.784 5.76-5.973 5.803-8.448 14.421-6.4 22.571 2.005 8.107 8.235 14.507 16.299 16.853l59.904 17.067c5.973 1.707 12.373 0.939 17.835-2.133zM291.584 240.896l54.4-30.293c11.349-6.315 15.36-20.608 9.088-31.957l-34.645-62.251 54.869-30.549 11.861 21.248c6.272 11.349 20.565 15.36 31.915 9.088 11.307-6.315 15.36-20.608 9.088-31.915l-23.253-41.771c-4.181-7.424-12.032-12.032-20.523-12.032-4.011 0-7.936 1.024-11.435 2.987l-95.872 53.333c-11.307 6.357-15.36 20.608-9.088 31.957l34.688 62.251-33.92 18.859c-7.339 4.096-11.947 11.776-12.075 20.139-0.128 8.405 4.267 16.213 11.435 20.523 7.211 4.309 16.171 4.437 23.467 0.341zM875.733 372.651l41.771-23.253c11.307-6.272 15.36-20.565 9.088-31.915l-53.419-95.872c-6.315-11.307-20.565-15.36-31.915-9.088l-62.251 34.645-18.859-33.877c-4.139-7.424-12.032-12.075-20.523-12.032-8.32 0-16 4.395-20.224 11.563s-4.309 16.043-0.256 23.296l30.293 54.4c6.272 11.307 20.565 15.36 31.872 9.088l62.293-34.645 30.549 54.869-21.248 11.819c-11.349 6.315-15.403 20.608-9.088 31.957 6.315 11.307 20.608 15.36 31.915 9.045zM205.44 455.68l17.067-59.904c1.707-5.973 0.939-12.373-2.133-17.835-2.987-5.461-8.064-9.472-14.080-11.136l-68.48-19.541 17.195-60.416 23.381 6.656c12.459 3.541 25.429-3.669 29.013-16.128 3.541-12.459-3.712-25.472-16.171-29.013l-45.952-13.056c-2.133-0.597-4.267-0.939-6.443-0.939-10.496 0-19.669 6.997-22.571 17.067l-30.037 105.557c-3.541 12.459 3.669 25.429 16.128 29.013l68.565 19.499-10.667 37.291c-3.541 12.501 3.712 25.472 16.171 29.013s25.429-3.669 29.013-16.128zM681.813 489.515c19.413-91.605-35.328-182.613-125.312-208.427-15.957-4.523-32.427-6.827-49.024-6.869-93.653 0-171.349 72.405-177.877 165.803-6.528 93.44 60.288 175.957 153.045 189.013 92.715 13.013 179.712-47.957 199.168-139.52zM507.947 583.424c-12.203 0-24.363-1.707-36.096-5.035-65.707-18.901-105.643-85.419-91.435-152.32 14.251-66.901 77.824-111.403 145.536-101.888 67.755 9.515 116.565 69.803 111.829 138.027-4.736 68.267-61.44 121.173-129.835 121.216zM888.021 667.264c5.461-3.029 9.472-8.107 11.179-14.080l30.037-105.557c3.541-12.459-3.669-25.429-16.128-29.013l-68.565-19.499 10.667-37.291c2.005-7.083 0.555-14.72-3.84-20.565-4.48-5.888-11.392-9.387-18.773-9.387-10.496 0.043-19.669 6.997-22.571 17.067l-17.067 59.904c-3.499 12.459 3.712 25.429 16.213 29.013l68.48 19.499-17.195 60.416-23.381-6.656c-12.459-3.541-25.429 3.669-28.971 16.128s3.669 25.429 16.128 29.013l45.952 13.056c5.973 1.707 12.373 0.981 17.835-2.048zM287.189 700.245c11.307-6.272 15.36-20.523 9.131-31.829l-30.293-54.4c-6.272-11.349-20.565-15.403-31.915-9.088l-62.251 34.645-30.549-54.869 21.248-11.861c9.387-5.163 13.995-16.043 11.307-26.411-2.688-10.325-12.032-17.536-22.741-17.536-3.968 0-7.893 1.024-11.392 2.987l-41.728 23.211c-5.461 3.029-9.472 8.107-11.179 14.080s-0.939 12.373 2.091 17.835l53.333 95.915c6.357 11.307 20.651 15.36 31.957 9.088l62.293-34.688 18.816 33.92c6.357 11.264 20.608 15.317 31.872 9.003zM642.475 871.083l95.915-53.333c11.307-6.357 15.36-20.651 9.088-31.957l-34.688-62.293 33.92-18.859c9.344-5.163 13.995-16.043 11.307-26.411-2.688-10.325-12.075-17.536-22.741-17.536-4.011 0-7.936 1.024-11.392 2.987l-54.4 30.293c-5.461 2.987-9.472 8.107-11.179 14.080s-0.939 12.373 2.091 17.835l34.645 62.251-54.869 30.549-11.819-21.248c-6.315-11.349-20.608-15.403-31.915-9.088-11.349 6.315-15.403 20.565-9.088 31.915l23.211 41.728c6.315 11.349 20.608 15.403 31.915 9.088zM441.429 857.643l19.499-68.565 37.291 10.667c8.107 2.304 16.768 0.128 22.827-5.717 5.973-5.845 8.448-14.464 6.4-22.613-2.048-8.107-8.277-14.549-16.341-16.853l-59.904-17.067c-2.091-0.555-4.267-0.853-6.4-0.853-10.496 0-19.712 6.955-22.613 17.067l-19.456 68.48-60.416-17.195 6.656-23.381c3.541-12.459-3.669-25.429-16.128-28.971s-25.429 3.669-29.013 16.128l-13.056 45.952c-1.707 5.973-0.981 12.373 2.048 17.835 2.987 5.461 8.107 9.472 14.080 11.179l105.557 30.037c12.459 3.541 25.429-3.669 29.013-16.128z" />
<glyph unicode="&#xe943;" glyph-name="icn-sinister" d="M317.483 264.363c12.971 0 23.467-10.496 23.467-23.467 0.043-12.971-10.453-23.467-23.424-23.467-22.528-0.043-41.131-17.579-42.581-40.064-1.408-22.485 14.848-42.24 37.205-45.099 22.315-2.901 43.093 12.032 47.445 34.133 1.621 8.235 7.509 14.933 15.445 17.664s16.683 0.981 23.040-4.523c6.272-5.547 9.173-13.995 7.552-22.187-8.277-41.984-45.013-72.32-87.808-72.405-49.536-0.085-89.771 39.979-89.856 89.515-0.128 49.493 39.936 89.771 89.472 89.899h0.043zM753.28 264.363c12.928 0 23.467-10.496 23.467-23.467s-10.496-23.467-23.467-23.467c-22.485-0.043-41.131-17.579-42.539-40.064-1.451-22.485 14.805-42.24 37.163-45.099 22.357-2.901 43.093 12.032 47.445 34.133 1.621 8.235 7.509 14.933 15.445 17.664s16.725 0.981 23.040-4.523c6.315-5.547 9.173-13.995 7.552-22.187-8.32-42.027-45.141-72.32-87.979-72.405-49.493 0-89.6 40.107-89.6 89.6-0.085 49.493 39.936 89.643 89.429 89.813zM191.061 532.011l174.464-126.933c18.133 20.053 37.888 38.571 59.051 55.381 60.928 48.299 124.928 73.813 185.088 73.813h116.907c58.368 0 120.448-38.187 128.341-143.36 46.208-7.125 78.976-48.939 74.88-95.488v-128.555c0-12.971-10.539-23.467-23.467-23.467-12.971 0-23.467 10.496-23.467 23.467v129.664c0 0.853 0 1.621 0.128 2.432 1.323 12.8-3.285 25.472-12.544 34.347-9.259 8.917-22.101 13.056-34.816 11.221-6.741-0.939-13.568 1.024-18.688 5.504-5.163 4.437-8.107 10.923-8.107 17.749 0 75.947-29.995 119.552-82.261 119.552h-116.907c-120.747 0-220.843-127.104-221.867-128.384-7.765-9.984-22.101-12.032-32.341-4.608l-175.189 127.445-37.547-40.405c-8.875-9.472-23.723-10.027-33.195-1.195-9.515 8.832-10.027 23.68-1.195 33.152l51.755 55.723c8.107 8.661 21.376 9.941 30.976 2.987zM247.979 357.376c6.997-4.608 11.051-12.587 10.581-20.949-0.427-8.363-5.376-15.872-12.8-19.627-41.131-20.821-79.317-46.976-113.493-77.867v-48.64h41.088c12.971 0 23.467-10.453 23.467-23.467 0-12.928-10.496-23.467-23.467-23.467h-64.555c-12.971 0-23.467 10.539-23.467 23.467v82.389c0 6.485 2.688 12.672 7.424 17.109 39.253 36.907 83.669 68.011 131.797 92.331 7.467 3.797 16.384 3.285 23.424-1.28zM587.435 196.437c12.928 0 23.467-10.496 23.467-23.467 0-12.928-10.539-23.467-23.467-23.467h-105.771c-12.971 0-23.467 10.539-23.467 23.467 0 12.971 10.496 23.467 23.467 23.467h105.771zM333.909 781.312l63.445-71.253c8.235-9.259 7.851-23.339-0.853-32.128l-47.061-47.403 46.933-46.933c6.699-6.699 8.704-16.811 5.12-25.6-3.669-8.747-12.203-14.464-21.717-14.464-6.229 0-12.203 2.475-16.597 6.869l-63.403 63.445c-9.131 9.173-9.131 23.936-0.043 33.109l47.915 48.341-48.768 54.784c-5.632 6.272-7.467 15.019-4.821 23.040 2.645 7.936 9.344 13.909 17.536 15.616 8.235 1.707 16.768-1.152 22.315-7.424zM180.907 820.181l63.445-71.765c8.235-9.301 7.808-23.381-0.981-32.171l-46.933-46.933 47.019-47.36c6.656-6.741 8.619-16.811 4.992-25.6-3.627-8.704-12.203-14.421-21.675-14.421-6.229 0-12.245 2.517-16.64 6.955l-63.445 64c-9.088 9.173-9.088 23.979 0.043 33.109l47.872 47.872-48.853 55.253c-5.547 6.272-7.339 15.061-4.693 22.997 2.688 7.936 9.387 13.867 17.621 15.531 8.192 1.707 16.683-1.152 22.229-7.467z" />
</font>
</defs>
</svg>
