<?xml version="1.0" standalone="no"?>
<!DOCTYPE svg PUBLIC "-//W3C//DTD SVG 1.1//EN" "http://www.w3.org/Graphics/SVG/1.1/DTD/svg11.dtd" >
<svg xmlns="http://www.w3.org/2000/svg">
<metadata>
Created by FontPrep 20130207 at Thu Nov 20 13:02:34 2014
 By usuario
Copyright (c) 2014 by Eduardo Manso. All rights reserved.
</metadata>
<defs>
<font id="5264557d32b4ac43718731b5912b2e1a" horiz-adv-x='1024' >
  <font-face 
    font-family="Catalana-Bold"
    font-weight="700"
    font-stretch="normal"
    units-per-em="2048"
    panose-1="2 0 0 0 0 0 0 0 0 0"
    ascent="1536"
    descent="-512"
    x-height="1085"
    cap-height="1434"
    bbox="-475 -588 2990 1974"
    underline-thickness="102"
    underline-position="-102"
    unicode-range="U+000D-FF19"
  />
<missing-glyph horiz-adv-x="1619" 
d="M670 346q0 45 30.5 76t82.5 31t83 -31t31 -76t-30.5 -76.5t-82.5 -31.5t-83 31.5t-31 76.5zM559 1042q125 82 274 82t223 -62.5t74 -146.5t-39 -134t-111 -83t-93 -48t-21 -44v-22l-37 -54h-94l-39 54v22q0 101 55.5 131.5t103.5 54.5q73 36 73 107q0 41 -29 71.5
t-81 30.5q-53 0 -128 -24l-12 -16v-99h-119v180zM223 715q0 -123 45 -229.5t125 -186.5t186.5 -126t229.5 -46t229.5 46t185.5 126t125 186.5t46 229.5t-45 230.5t-124 187t-185.5 126t-229.5 46.5t-230.5 -46.5t-186.5 -126t-125 -187t-46 -230.5zM70 714.5q0 153.5 58 289
t158.5 234.5t235.5 157.5t289 58.5t289 -58.5t234.5 -157.5t157.5 -234.5t58 -289t-58 -286.5t-159.5 -233.5t-235.5 -157.5t-288 -57t-289 57t-234.5 157.5t-157.5 233.5t-58 286.5z" />
    <glyph glyph-name="fi" unicode="fi" horiz-adv-x="1390" 
d="M877 1362q0 76 43 120t131 44t131 -44t43 -120t-43 -120t-131 -44t-131 44t-43 120zM1130 1085q61 0 78 -28q16 -29 17 -62v-794l35 -37h92v-164h-566v164h91l36 37v673l-36 37h-91v174h344zM553 1516q88 0 244 -23v-242h-183v78l-26 27h-2q-81 0 -91 -122q-3 -36 -3 -73
v-80h229v-170h-229v-710l34 -37h125v-164h-598v164h90l37 37v710h-127v170h90l37 37v25q0 253 209 341q76 32 164 32z" />
    <glyph glyph-name="fl" unicode="fl" horiz-adv-x="1437" 
d="M1180 1495q61 0 77 -29t17 -61v-1204l35 -37h92v-164h-565v164h90l37 37v1083l-37 37h-90v174h344zM553 1516q88 0 244 -23v-242h-183v78l-26 27h-2q-81 0 -91 -122q-3 -36 -3 -73v-80h229v-170h-229v-710l34 -37h125v-164h-598v164h90l37 37v710h-127v170h90l37 37v25
q0 253 209 341q76 32 164 32z" />
    <glyph glyph-name=".notdef" horiz-adv-x="1619" 
d="M670 346q0 45 30.5 76t82.5 31t83 -31t31 -76t-30.5 -76.5t-82.5 -31.5t-83 31.5t-31 76.5zM559 1042q125 82 274 82t223 -62.5t74 -146.5t-39 -134t-111 -83t-93 -48t-21 -44v-22l-37 -54h-94l-39 54v22q0 101 55.5 131.5t103.5 54.5q73 36 73 107q0 41 -29 71.5
t-81 30.5q-53 0 -128 -24l-12 -16v-99h-119v180zM223 715q0 -123 45 -229.5t125 -186.5t186.5 -126t229.5 -46t229.5 46t185.5 126t125 186.5t46 229.5t-45 230.5t-124 187t-185.5 126t-229.5 46.5t-230.5 -46.5t-186.5 -126t-125 -187t-46 -230.5zM70 714.5q0 153.5 58 289
t158.5 234.5t235.5 157.5t289 58.5t289 -58.5t234.5 -157.5t157.5 -234.5t58 -289t-58 -286.5t-159.5 -233.5t-235.5 -157.5t-288 -57t-289 57t-234.5 157.5t-157.5 233.5t-58 286.5z" />
    <glyph glyph-name=".null" horiz-adv-x="0" 
 />
    <glyph glyph-name="nonmarkingreturn" unicode="&#xd;" horiz-adv-x="0" 
 />
    <glyph glyph-name="NULL" horiz-adv-x="0" 
 />
    <glyph glyph-name="NULL" horiz-adv-x="0" 
 />
    <glyph glyph-name="space" unicode=" " horiz-adv-x="434" 
 />
    <glyph glyph-name="exclam" unicode="!" horiz-adv-x="573" 
d="M106 1434h361v-351l-49 -532l-64 -90h-133l-65 90l-50 532v351zM471 152q0 -70 -53 -121t-130 -51t-130.5 51t-53.5 121t54 122t130 52q75 0 129 -52t54 -122z" />
    <glyph glyph-name="quotedbl" unicode="&#x22;" horiz-adv-x="823" 
d="M453 1434h274v-148l-45 -381h-184l-45 381v148zM96 1434h275v-148l-45 -381h-185l-45 381v148z" />
    <glyph glyph-name="numbersign" unicode="#" horiz-adv-x="1148" 
d="M453 455h188l59 178h-188zM1004 299h-226l-98 -299h-188l98 299h-189l-98 -299h-188l98 299h-147v156h198l60 178h-177v155h228l98 297h189l-99 -297h189l98 297h188l-98 -297h145v-155h-196l-60 -178h175v-156z" />
    <glyph glyph-name="dollar" unicode="$" horiz-adv-x="1181" 
d="M797 364q0 68 -29 108t-100 71v-367q74 23 101.5 71.5t27.5 116.5zM387 1103q0 -84 30.5 -123.5t117.5 -70.5v348q-72 -20 -110 -64t-38 -90zM1061 1053h-191v170l-34 32q-37 4 -79 9.5t-89 7.5v-404h2q223 -59 333.5 -155t110.5 -273q0 -298 -173 -369t-273 -83v-197
h-133v189q-241 0 -443 55v366h191v-186l34 -35q101 -18 218 -18v424q-237 67 -340 165.5t-103 280.5q0 268 172 335t271 79v166h133v-158q239 -6 393 -53v-348z" />
    <glyph glyph-name="percent" unicode="%" horiz-adv-x="1378" 
d="M426 1107q0 105 -16 155t-68 51q-52 0 -68 -50q-16 -51 -16 -155t16 -156t68 -53q52 0 68 51q16 52 16 157zM623 1106q0 -178 -77 -260t-204 -82t-204 83t-77 261t76 259t203 81t205 -82t78 -260zM1118 333q0 105 -16 155t-68 50t-67 -50q-17 -50 -17 -154t16 -156
t68 -53q51 0 68 51q16 52 16 157zM1315 332q0 -178 -77 -260t-204 -82t-204 83t-76 261q0 178 75 259q76 81 203 81t205 -82t78 -260zM129 0l997 1434h142l-996 -1434h-143z" />
    <glyph glyph-name="ampersand" unicode="&#x26;" horiz-adv-x="1499" 
d="M858 1161q0 78 -44 112t-106 34t-104.5 -38.5t-42.5 -92.5q0 -93 103 -211l61 -76q133 122 133 272zM512 655q-127 -71 -127 -268q0 -72 51 -134.5t172 -62.5t232 72zM1008 649v174h424v-174h-105l-35 -37q-59 -139 -129 -252l127 -153l41 -33h117v-174h-297
q-68 0 -105.5 29.5t-68.5 66.5l-25 29q-189 -145 -426 -145t-353 107.5t-116 256.5q0 191 118.5 283t256.5 127l-14 18q-142 180 -142 325t115.5 251t309.5 106q195 0 294 -83.5t99 -255.5t-285 -327l238 -288l55 112l-37 37h-57z" />
    <glyph glyph-name="quotesingle" unicode="'" horiz-adv-x="473" 
d="M96 1434h281v-148l-45 -381h-191l-45 381v148z" />
    <glyph glyph-name="parenleft" unicode="(" horiz-adv-x="727" 
d="M80 543v309q0 241 147 431t410 347l63 -82q-321 -294 -321 -696v-309q0 -395 321 -693l-63 -81q-557 328 -557 774z" />
    <glyph glyph-name="parenright" unicode=")" horiz-adv-x="727" 
d="M348 543v309q0 400 -321 696l63 82q267 -161 412 -349t145 -429v-309q0 -451 -557 -774l-63 81q321 294 321 693z" />
    <glyph glyph-name="asterisk" unicode="*" horiz-adv-x="921" 
d="M350 1434h221v-117l-49 -164l125 123l107 55l100 -198l-104 -54l-199 -37l149 -108l70 -94l-176 -133l-72 94l-61 170l-62 -170l-71 -94l-176 133l69 94l150 108l-199 37l-104 54l100 198l106 -55l125 -123l-49 164v117z" />
    <glyph glyph-name="plus" unicode="+" horiz-adv-x="1015" 
d="M70 791h338v339h200v-339h338v-195h-338v-342h-200v342h-338v195z" />
    <glyph glyph-name="comma" unicode="," horiz-adv-x="526" 
d="M88 145q0 76 43 120t131 44t132 -44t44 -104t-35 -124l-161 -303l-131 69l77 148l-16 47q-84 36 -84 147z" />
    <glyph glyph-name="hyphen" unicode="-" horiz-adv-x="714" 
d="M111 686h493v-215h-493v215z" />
    <glyph glyph-name="period" unicode="." horiz-adv-x="516" 
d="M134.5 260.5q50.5 48.5 123 48.5t124.5 -48.5t52 -116.5q0 -67 -52 -115.5t-124.5 -48.5t-123 48t-50.5 116t50.5 116.5z" />
    <glyph glyph-name="slash" unicode="/" horiz-adv-x="878" 
d="M43 -209l598 1821h197l-598 -1821h-197z" />
    <glyph glyph-name="zero" unicode="0" horiz-adv-x="1302" 
d="M868 717q0 262 -46 393t-171 131t-171 -131t-46 -393t46 -393t171 -131t171 131t46 393zM1217 716.5q0 -186.5 -43.5 -324.5t-118 -230t-178 -137t-226.5 -45t-226 45t-178 137t-118 230t-43 324.5t43 326t118 230.5t178 136t226 45t226.5 -45t178 -136t118 -230.5
t43.5 -326z" />
    <glyph glyph-name="one" unicode="1" horiz-adv-x="870" 
d="M227 1333q129 0 178.5 48.5t57.5 72.5h166v-1243l35 -37h174v-174h-750v174h172l37 37v905l-37 37h-172v180h139z" />
    <glyph glyph-name="two" unicode="2" horiz-adv-x="1183" 
d="M113 1339q206 115 453 115t368 -114.5t121 -274.5t-94 -273.5t-273 -232.5t-212.5 -161t-39.5 -65.5t-6 -49.5v-33h434l37 35v164h191v-449h-998v268q0 110 82 211.5t261 223.5t227.5 187.5t48.5 153.5q0 87 -46.5 141t-144.5 54t-174 -27l-33 -32v-152h-202v311z" />
    <glyph glyph-name="three" unicode="3" horiz-adv-x="1157" 
d="M117 1352q201 102 453 102q231 0 352.5 -107.5t121.5 -263.5q0 -281 -260 -348v-8q135 -33 210 -108.5t75 -231.5q0 -275 -191.5 -343.5t-336.5 -68.5q-220 0 -445 99v327h199v-163l27 -29q86 -31 192 -31q105 0 159 62t54 176t-54.5 168.5t-152.5 54.5h-151v190h149
q80 0 134.5 51.5t54.5 166.5q0 144 -71 174t-138 30t-154 -30l-29 -29v-164h-198v324z" />
    <glyph glyph-name="four" unicode="4" horiz-adv-x="1234" 
d="M655 582v532l-403 -532h403zM987 1454v-872h168v-189h-168v-182l35 -37h133v-174h-688v174h151l37 37v182h-616v189l649 872h299z" />
    <glyph glyph-name="five" unicode="5" horiz-adv-x="1150" 
d="M96 401h203v-147l33 -35q76 -27 154 -27q134 1 194.5 67.5t60.5 177.5q0 212 -276 212h-326v785h858v-416h-194v131l-37 35h-397v-312h145q274 0 420.5 -109.5t146.5 -307.5t-137 -338t-414 -140q-233 0 -434 95v329z" />
    <glyph glyph-name="six" unicode="6" horiz-adv-x="1198" 
d="M629 674q-121 0 -217 -96q4 -217 46 -309.5t158 -92.5q115 0 158 62.5t43 189.5q0 246 -188 246zM414 750q120 120 295.5 120t299.5 -110.5t124 -326.5t-148.5 -334.5t-370.5 -118.5q-383 0 -455.5 236.5t-72.5 396.5q0 366 147 603.5t494 237.5q117 0 223 -27
q51 -10 92 -24v-336h-198v152l-35 36q-37 7 -107 7t-175 -82t-113 -430z" />
    <glyph glyph-name="seven" unicode="7" horiz-adv-x="1062" 
d="M1034 1434v-168l-469 -1266h-346l565 1184h-491l-37 -35v-139h-195v424h973z" />
    <glyph glyph-name="eight" unicode="8" horiz-adv-x="1200" 
d="M807 1042q0 107 -54.5 161t-149.5 54t-146 -42.5t-51 -111.5t48.5 -116t239.5 -119l45 -16q68 83 68 190zM360 384q0 -94 55 -151t166 -57t164.5 60t53.5 134q0 75 -49.5 123t-178.5 95l-116 41q-57 -57 -76 -129t-19 -116zM885 788q231 -122 231 -342
q0 -228 -145.5 -347t-396.5 -119t-371.5 103.5t-120.5 251.5t75 233.5t171 123.5q-203 124 -203 344q0 189 135.5 303.5t366.5 114.5t337.5 -105.5t106.5 -246.5q0 -202 -186 -314z" />
    <glyph glyph-name="nine" unicode="9" horiz-adv-x="1198" 
d="M584 1257q-203 -1 -203 -249t182 -248q123 0 223 96q-4 207 -47 304t-155 97zM471 -20q-187 0 -315 53v336h198v-152l35 -37q36 -8 107 -8t130.5 45t103.5 139.5t54 323.5q-120 -117 -296 -117t-299 111t-123 325.5t151.5 334.5t382.5 120t371.5 -157t140.5 -499
t-141 -580t-500 -238z" />
    <glyph glyph-name="colon" unicode=":" horiz-adv-x="571" 
d="M111 941q0 68 50.5 116.5t123 48.5t124.5 -50t52 -115t-52 -115t-124.5 -50t-123 48.5t-50.5 116.5zM409.5 259.5q51.5 -49.5 51.5 -115.5t-51.5 -115t-125 -49t-123.5 48t-50 116q0 69 50 117t123.5 48t125 -49.5z" />
    <glyph glyph-name="semicolon" unicode=";" horiz-adv-x="575" 
d="M113 145q0 76 43 120t131 44t132 -44t44 -120q0 -38 -35 -108l-162 -303l-131 69l78 148l-16 47q-84 36 -84 147zM113 941q0 68 50.5 116.5t123 48.5t124.5 -50t52 -115t-52 -115t-124.5 -50t-123 48.5t-50.5 116.5z" />
    <glyph glyph-name="less" unicode="&#x3c;" horiz-adv-x="1060" 
d="M66 625v137l876 354v-211l-561 -209l561 -219v-209z" />
    <glyph glyph-name="equal" unicode="=" horiz-adv-x="1110" 
d="M117 625h876v-195h-876v195zM117 963h876v-195h-876v195z" />
    <glyph glyph-name="greater" unicode="&#x3e;" horiz-adv-x="1060" 
d="M119 477l561 219l-561 209v211l876 -354v-137l-876 -357v209z" />
    <glyph glyph-name="question" unicode="?" horiz-adv-x="1075" 
d="M252 158q0 74 50 126t138 52t138.5 -52t50.5 -126t-50.5 -126t-138.5 -52t-138 52t-50 126zM536 1454q116 0 213 -30.5t183 -105t86 -212.5q0 -139 -63.5 -224t-209.5 -149q-111 -52 -138 -73.5t-27 -67.5v-41l-64 -90h-154l-65 90v41q0 124 47 172.5t91.5 72t98.5 49.5
q90 43 117 89t27 109t-46 113t-150 50t-193 -43l-29 -28v-160h-190v303q215 135 466 135z" />
    <glyph glyph-name="at" unicode="@" horiz-adv-x="1828" 
d="M915 893q-102 0 -147 -121.5t-45 -247.5q0 -125 98 -125q55 0 140 54v12q0 40 8 74l55 315q-50 39 -109 39zM78 554q0 182 66.5 349.5t253.5 359t597 191.5q357 0 553.5 -198t196.5 -491t-153.5 -439t-361.5 -146t-255 156q-62 -79 -136.5 -104t-109.5 -25
q-123 0 -200.5 77.5t-77.5 234.5t38.5 260.5t99 171t133.5 101t138.5 33.5t119.5 -35.5t77 -76.5l39 59q14 23 28.5 30t49.5 7h155l-104 -567q-6 -31 -6 -67t22.5 -67.5t76.5 -31.5q105 0 174 114t69 332t-148.5 373.5t-417.5 155.5q-164 0 -299 -58.5t-231 -161
t-149.5 -245t-53.5 -292.5t38 -245.5t157 -226.5t501 -131q163 0 361 53l31 -108q-201 -91 -459 -91t-468.5 109t-277.5 283.5t-67 356.5z" />
    <glyph glyph-name="A" unicode="A" horiz-adv-x="1357" 
d="M465 565h334l-174 500zM473 174v-174h-487v174h71l37 37l434 1227h291l455 -1231l35 -33h71v-174h-559v174h74l31 33l-58 164h-465l-51 -164l33 -33h88z" />
    <glyph glyph-name="B" unicode="B" horiz-adv-x="1337" 
d="M537 633v-432h188q106 0 155.5 54t49.5 164t-49.5 162t-155.5 52h-188zM537 1233v-399h131q106 0 158.5 47t52.5 149q0 203 -211 203h-131zM1270 389q0 -291 -204 -340t-325 -49h-659v174h90l37 37v1012l-37 37h-90v174h610q369 0 442.5 -135t73.5 -245q0 -217 -217 -302
v-9q279 -92 279 -354z" />
    <glyph glyph-name="C" unicode="C" horiz-adv-x="1230" 
d="M76 712q0 367 192.5 554.5t524.5 187.5q185 0 344 -43v-389h-199v174l-35 35q-54 8 -134 8t-212.5 -69t-132.5 -435q0 -268 87.5 -400t297.5 -132h44q44 0 73 4l37 37v188h198v-371q-176 -81 -405 -81q-499 0 -589.5 271t-90.5 461z" />
    <glyph glyph-name="D" unicode="D" horiz-adv-x="1441" 
d="M541 213h151q179 0 252.5 122.5t73.5 385.5t-73 381.5t-253 118.5h-151v-1008zM82 174h90l37 37v1012l-37 37h-90v174h610q312 0 493 -177t181 -534q0 -358 -180.5 -540.5t-493.5 -182.5h-610v174z" />
    <glyph glyph-name="E" unicode="E" horiz-adv-x="1284" 
d="M541 1229v-398h223l35 33v82h174v-428h-174v82l-33 31h-225v-426h440l37 35v163h190v-403h-1126v174h90l37 37v1012l-37 37h-90v174h1106v-404h-191v164l-36 35h-420z" />
    <glyph glyph-name="F" unicode="F" horiz-adv-x="1261" 
d="M541 1225v-414h252l34 33v82h174v-428h-174v82l-32 30h-254v-399l34 -37h134v-174h-627v174h90l37 37v1012l-37 37h-90v174h1137v-404h-193v160l-37 35h-448z" />
    <glyph glyph-name="G" unicode="G" horiz-adv-x="1316" 
d="M788 1454q211 0 373 -43v-389h-190v182l-33 31q-77 14 -166 14q-183 0 -265.5 -129t-82.5 -393t86 -405.5t299 -141.5h68v312l-37 36h-78v174h502v-174h-60l-35 -36v-431q-66 -27 -164.5 -54t-254.5 -27q-327 0 -500.5 178.5t-173.5 551.5t190.5 558.5t521.5 185.5z" />
    <glyph glyph-name="H" unicode="H" horiz-adv-x="1515" 
d="M975 625h-434v-414l34 -37h93v-174h-586v174h90l37 37v1012l-37 37h-90v174h586v-174h-93l-34 -37v-385h434v385l-37 37h-90v174h586v-174h-93l-34 -37v-1012l34 -37h93v-174h-586v174h90l37 37v414z" />
    <glyph glyph-name="I" unicode="I" horiz-adv-x="749" 
d="M82 1260v174h586v-174h-93l-34 -37v-1012l34 -37h93v-174h-586v174h90l37 37v1012l-37 37h-90z" />
    <glyph glyph-name="J" unicode="J" horiz-adv-x="1085" 
d="M451 1260v174h585v-174h-92l-35 -37v-813q0 -184 -121 -307t-352 -123q-187 0 -305 63q-55 27 -92 63v320h213v-174l31 -33q55 -25 104 -24q104 0 147.5 43t43.5 159v826l-37 37h-90z" />
    <glyph glyph-name="K" unicode="K" horiz-adv-x="1447" 
d="M1434 174v-174h-580v174h76l22 25l-313 448h-98v-436l34 -37h93v-174h-586v174h90l37 37v1012l-37 37h-90v174h586v-174h-93l-34 -37v-400h90l373 414l-21 23h-78v174h496v-174h-66l-49 -31l-395 -428l426 -596l39 -31h78z" />
    <glyph glyph-name="L" unicode="L" horiz-adv-x="1169" 
d="M541 209h356l37 35v188h190v-432h-1042v174h90l37 37v1012l-37 37h-90v174h586v-174h-93l-34 -37v-1014z" />
    <glyph glyph-name="M" unicode="M" horiz-adv-x="1718" 
d="M82 174h90l37 37v1012l-37 37h-90v174h432l350 -707l359 707h413v-174h-90l-37 -37v-1012l35 -37h92v-174h-557v174h90l37 37v725l-280 -533h-207l-254 498v-690l35 -37h92v-174h-510v174z" />
    <glyph glyph-name="N" unicode="N" horiz-adv-x="1497" 
d="M80 0v174h90l37 37v1012l-37 37h-90v174h414l565 -871v660l-37 37h-90v174h500v-174h-93l-34 -37v-1229h-234l-618 950v-733l34 -37h93v-174h-500z" />
    <glyph glyph-name="O" unicode="O" horiz-adv-x="1380" 
d="M424 717q0 -266 59.5 -392t207 -126t206.5 126t59 392t-59 392t-206.5 126t-207 -126t-59.5 -392zM1136.5 1266q168.5 -188 168.5 -549t-168.5 -549t-446 -188t-446 187t-168.5 550t168.5 550t446 187t446 -188z" />
    <glyph glyph-name="P" unicode="P" horiz-adv-x="1310" 
d="M541 1233v-520h153q131 0 178.5 63.5t47.5 194.5t-47.5 196.5t-178.5 65.5h-153zM82 1260v174h612q264 0 417 -107.5t153 -337.5q0 -358 -220.5 -417.5t-349.5 -59.5h-153v-301l34 -37h109v-174h-602v174h90l37 37v1012l-37 37h-90z" />
    <glyph glyph-name="Q" unicode="Q" horiz-adv-x="1380" 
d="M424 717q0 -266 59.5 -392t207 -126t206.5 126t59 392t-59 392t-206.5 126t-207 -126t-59.5 -392zM1136.5 1266q168.5 -188 168.5 -549q0 -258 -85 -423t-229 -243l135 -137l70 -31h107v-174h-308q-59 0 -114.5 23.5t-83.5 62.5l-146 187q-261 13 -418 199.5t-157 542.5
t168.5 543t446 187t446 -188z" />
    <glyph glyph-name="R" unicode="R" horiz-adv-x="1386" 
d="M909 1018q0 215 -217 215h-151v-459h151q117 0 167 59.5t50 184.5zM82 1260v174h618q400 0 475.5 -147t75.5 -243q0 -171 -95.5 -262t-219.5 -106v-2q84 -8 138 -53.5t93 -163.5l80 -250l41 -33h68v-174h-307q-104 0 -136 106l-96 349q-20 70 -35.5 94t-52.5 24h-188
v-362l34 -37h109v-174h-602v174h90l37 37v1012l-37 37h-90z" />
    <glyph glyph-name="S" unicode="S" horiz-adv-x="1144" 
d="M672 1454q158 0 354 -53v-379h-199v170l-34 35q-82 14 -175 14q-94 0 -155.5 -44t-61.5 -116t49.5 -119t174.5 -84q238 -70 344 -167t106 -262q0 -231 -149.5 -350t-403.5 -119t-432 55v397h199v-186l37 -37q82 -16 204 -16t173 50t51 130q0 113 -82 150.5t-169 62.5
t-167 62.5t-133 91t-80 125t-27 170t40 177t111.5 132t169 82t255.5 28.5z" />
    <glyph glyph-name="T" unicode="T" horiz-adv-x="1232" 
d="M47 1434h1139v-412h-182v162l-37 37h-185v-1010l35 -37h113v-174h-627v174h111l37 37v1010h-185l-37 -37v-162h-182v412z" />
    <glyph glyph-name="U" unicode="U" horiz-adv-x="1390" 
d="M834 1260v174h507v-174h-92l-35 -37v-750q0 -370 -195 -431.5t-313 -61.5q-245 0 -386.5 123t-141.5 370v750l-37 37h-90v174h590v-174h-92l-35 -37v-754q0 -135 49 -202.5t166 -67.5q190 0 211 101t21 169v754l-37 37h-90z" />
    <glyph glyph-name="V" unicode="V" horiz-adv-x="1331" 
d="M852 1260v174h487v-174h-71l-35 -35l-416 -1229h-291l-438 1233l-31 31h-71v174h561v-174h-74l-33 -35l271 -840l262 838l-33 37h-88z" />
    <glyph glyph-name="W" unicode="W" horiz-adv-x="1970" 
d="M1976 1260h-71l-35 -35l-365 -1229h-274l-238 838l-248 -838h-274l-381 1235l-27 29h-71v174h557v-174h-74l-35 -37l217 -791l273 1002h205l274 -988l209 777l-33 37h-88v174h479v-174z" />
    <glyph glyph-name="X" unicode="X" horiz-adv-x="1406" 
d="M39 1260v174h614v-174h-80l-24 -27l190 -293l234 301l-17 19h-71v174h471v-174h-66l-37 -29l-376 -459l399 -577l27 -21h88v-174h-619v174h78l29 31l-220 321l-241 -329l22 -23h60v-174h-473v174h65l27 19l399 520l-356 522l-31 25h-92z" />
    <glyph glyph-name="Y" unicode="Y" horiz-adv-x="1277" 
d="M-23 1260v174h578v-174h-74l-28 -31l239 -428l226 424l-31 35h-88v174h475v-174h-68l-35 -35l-352 -637v-377l35 -37h92v-174h-586v174h91l36 37v319l-405 695l-33 35h-72z" />
    <glyph glyph-name="Z" unicode="Z" horiz-adv-x="1241" 
d="M1169 0h-1099v172l680 1051h-422l-33 -33v-166h-199v410h1037v-172l-676 -1049h481l33 33v166h198v-412z" />
    <glyph glyph-name="bracketleft" unicode="[" horiz-adv-x="643" 
d="M119 -209v1819h471v-144h-182v-1534h182v-141h-471z" />
    <glyph glyph-name="backslash" unicode="\" horiz-adv-x="878" 
d="M41 1612h197l598 -1821h-197z" />
    <glyph glyph-name="bracketright" unicode="]" horiz-adv-x="643" 
d="M524 -209h-471v141h183v1534h-183v144h471v-1819z" />
    <glyph glyph-name="asciicircum" unicode="^" horiz-adv-x="888" 
d="M608 793l-168 421l-161 -421h-203l266 641h199l272 -641h-205z" />
    <glyph glyph-name="underscore" unicode="_" horiz-adv-x="1062" 
d="M0 -164h1063v-160h-1063v160z" />
    <glyph glyph-name="grave" unicode="`" horiz-adv-x="854" 
d="M573 1182h-41l-339 186l145 180h53l268 -272z" />
    <glyph glyph-name="a" unicode="a" horiz-adv-x="1099" 
d="M496 446q-142 0 -142 -118t129 -117q73 0 158 59v176h-145zM565 1106q383 0 383 -348v-557l37 -37h90v-164h-321q-61 0 -78 28.5t-17 61.5v39h-10q-67 -90 -149 -119.5t-152 -29.5q-144 0 -222.5 87t-78.5 236q0 150 98.5 234t266.5 84h229v88q0 105 -31 154.5t-151 49.5
q-41 0 -90 -6l-31 -30v-138h-199v301q231 66 426 66z" />
    <glyph glyph-name="b" unicode="b" horiz-adv-x="1208" 
d="M777 282.5q46 82.5 46 268.5t-44.5 256t-140.5 70t-165 -56v-553q70 -68 164 -68t140 82.5zM455 100v-10q0 -33 -16.5 -61.5t-78.5 -28.5h-325v164h90l37 37v1083l-37 37h-90v174h344q61 0 77.5 -28.5t16.5 -61.5v-436q112 137 284 137t281 -143t109 -406t-123 -420
t-309 -157q-146 0 -256 120h-4z" />
    <glyph glyph-name="c" unicode="c" horiz-adv-x="956" 
d="M885 61q-81 -81 -309 -81q-220 0 -369.5 140.5t-149.5 413.5t157 422.5t392 149.5q142 0 281 -45v-348h-199v166l-37 34q-8 2 -22 2q-131 0 -189.5 -96t-58.5 -367.5t287 -271.5q110 0 217 39v-158z" />
    <glyph glyph-name="d" unicode="d" horiz-adv-x="1208" 
d="M571 885q-92 0 -138 -82t-46 -269t45 -257t138 -70t167 53v557q-74 68 -166 68zM496 1106q134 0 241 -107v285l-37 37h-90v174h344q61 0 78 -28.5t17 -61.5v-1204l36 -37h91v-164h-326q-61 0 -77.5 28.5t-16.5 61.5v39h-6q-112 -152 -292 -152t-288.5 143t-108.5 409
t126 421.5t309 155.5z" />
    <glyph glyph-name="e" unicode="e" horiz-adv-x="1021" 
d="M532.5 909q-75.5 0 -109.5 -67.5t-42 -208.5h283v72q0 104 -28 154t-103.5 50zM909 55q-106 -75 -335 -75t-372 136t-143 408t130.5 427t343.5 155t323.5 -120t110.5 -320v-168l-37 -39h-549q16 -154 94.5 -216.5t180.5 -62.5t164.5 17.5t88.5 25.5v-168z" />
    <glyph glyph-name="f" unicode="f" horiz-adv-x="751" 
d="M553 1516q88 0 244 -23v-242h-183v78l-26 27h-2q-81 0 -87.5 -79t-6.5 -116v-80h229v-170h-229v-710l34 -37h125v-164h-598v164h90l37 37v710h-127v170h90l37 37v25q0 253 142.5 313t230.5 60z" />
    <glyph glyph-name="g" unicode="g" horiz-adv-x="1114" 
d="M303 -87q0 -58 54.5 -93t138.5 -35q144 0 213 36t69 100t-34.5 81.5t-100.5 17.5h-303q-37 -49 -37 -107zM666 759q0 189 -138 189t-139 -189q0 -189 137 -190q140 1 140 190zM528 1106q92 0 166 -21h367v-174h-113l-10 -10q31 -61 31 -145q0 -164 -126.5 -254
t-316.5 -90q-74 0 -137 12q-41 -35 -41 -74q0 -59 88 -59h275q255 0 308.5 -100.5t53.5 -187.5t-91.5 -229.5t-492.5 -142.5q-338 0 -397 79t-59 140q0 121 164 195q-55 27 -89 76t-34 115q0 139 178 239q-166 90 -166 285q0 167 123 256.5t319 89.5z" />
    <glyph glyph-name="h" unicode="h" horiz-adv-x="1243" 
d="M475 971q119 135 311 135q154 0 225.5 -89t71.5 -239v-577l37 -37h90v-164h-540v164h67l35 37v528q0 64 -25.5 104.5t-111.5 40.5t-160 -55v-618l35 -37h68v-164h-541v164h90l37 37v1083l-37 37h-90v174h344q61 0 77.5 -28.5t16.5 -61.5v-434z" />
    <glyph glyph-name="i" unicode="i" horiz-adv-x="653" 
d="M143 1362q0 76 43 120t131.5 44t131.5 -44t43 -120t-43 -120t-131.5 -44t-131.5 44t-43 120zM397 1085q61 0 78 -28.5t17 -61.5v-794l34 -37h92v-164h-565v164h90l37 37v673l-37 37h-90v174h344z" />
    <glyph glyph-name="j" unicode="j" horiz-adv-x="614" 
d="M68 -369q-120 0 -205 23v252h182v-92l27 -27h2q94 0 94 215v872l-37 37h-90v174h344q61 0 77.5 -28.5t16.5 -61.5v-975q0 -257 -145.5 -323t-265.5 -66zM131 1362q0 76 43 120t131 44t131 -44t43 -120t-43 -120t-131 -44t-131 44t-43 120z" />
    <glyph glyph-name="k" unicode="k" horiz-adv-x="1239" 
d="M1214 164v-164h-518v164h47l23 26l-207 320h-84v-309l35 -37h68v-164h-541v164h90l37 37v1083l-37 37h-90v174h344q61 0 77.5 -28.5t16.5 -61.5v-746h72l262 236l-14 16h-60v174h457v-174h-84l-43 -26l-268 -234l315 -458l35 -29h67z" />
    <glyph glyph-name="l" unicode="l" horiz-adv-x="638" 
d="M381 1495q61 0 77.5 -28.5t16.5 -61.5v-1204l35 -37h92v-164h-565v164h90l37 37v1083l-37 37h-90v174h344z" />
    <glyph glyph-name="m" unicode="m" horiz-adv-x="1849" 
d="M1061 942q123 164 325 164q159 0 230.5 -90t71.5 -238v-577l36 -37h91v-164h-541v164h67l35 37v528q0 145 -113 145q-99 0 -176 -57q3 -15 3 -39v-577l36 -37h82v-164h-524v164h59l35 37v528q0 63 -23 104t-107 41q-85 0 -156 -55v-618l34 -37h68v-164h-541v164h90l37 37
v673l-37 37h-90v174h326q61 0 77.5 -28.5t16.5 -61.5v-37h6q123 148 295 148q223 0 287 -164z" />
    <glyph glyph-name="n" unicode="n" horiz-adv-x="1261" 
d="M479 958q127 148 321 148q157 0 228.5 -90t71.5 -238v-577l37 -37h90v-164h-541v164h68l34 37v528q0 64 -24.5 104.5t-112.5 40.5t-159 -55v-618l34 -37h68v-164h-541v164h90l37 37v673l-37 37h-90v174h326q61 0 77.5 -28.5t16.5 -61.5v-37h6z" />
    <glyph glyph-name="o" unicode="o" horiz-adv-x="1114" 
d="M731 542.5q0 180.5 -37 271.5t-137 91t-137 -91t-37 -271.5t37 -271.5t137 -91t137 91t37 271.5zM1055 542.5q0 -143.5 -40 -250t-107.5 -176t-158 -103t-192.5 -33.5t-192.5 33.5t-158 103t-107.5 176t-40 250t40 250t107.5 176t158 103.5t192.5 34t192.5 -34
t158 -103.5t107.5 -176t40 -250z" />
    <glyph glyph-name="p" unicode="p" horiz-adv-x="1208" 
d="M777 282.5q46 82.5 46 268.5t-44.5 256t-140.5 70t-165 -56v-553q70 -68 164 -68t140 82.5zM612 -184v-164h-577v164h90l37 37v1021l-37 37h-90v174h325q61 0 78 -28.5t17 -61.5v-39h6q114 150 292 150q177 0 285.5 -143t108.5 -406t-123 -420t-309 -157q-136 0 -242 106
v-233l35 -37h104z" />
    <glyph glyph-name="q" unicode="q" horiz-adv-x="1210" 
d="M571 885q-92 0 -138 -82t-46 -269t45 -257t138 -70t167 53v557q-74 68 -166 68zM496 1106q140 0 256 -121h4v10q0 33 16 61.5t78 28.5h326v-174h-91l-36 -37v-1021l36 -37h91v-164h-578v164h104l35 37v260q-116 -136 -288 -136q-171 0 -279.5 143t-108.5 409t126 421.5
t309 155.5z" />
    <glyph glyph-name="r" unicode="r" horiz-adv-x="892" 
d="M641 164v-164h-588v164h90l37 37v673l-37 37h-90v174h326q61 0 77.5 -28.5t16.5 -61.5v-55h6q70 98 154 132t145 34l82 -6v-428h-188v143l-35 33q-72 -15 -145 -55v-592l34 -37h115z" />
    <glyph glyph-name="s" unicode="s" horiz-adv-x="956" 
d="M547 1106q119 0 307 -35v-297h-182v107l-35 32q-69 11 -127 11t-99.5 -29t-41.5 -76t32 -76t130 -57q205 -60 286.5 -134.5t81.5 -207.5q0 -170 -128.5 -267t-344.5 -97t-350 47v305h182v-121l35 -37q78 -10 151 -10q74 0 112 36t38 71t-6 55t-34 41t-139 53
q-196 55 -266.5 140.5t-70.5 221.5t122 230t347 94z" />
    <glyph glyph-name="t" unicode="t" horiz-adv-x="735" 
d="M442 -20q-141 0 -208.5 56t-67.5 197v678h-127v170h90l37 37l117 254h194v-291h230v-170h-230v-710l37 -37h199v-164q-130 -20 -271 -20z" />
    <glyph glyph-name="u" unicode="u" 
d="M612 211q61 0 146 55v608l-37 37h-90v174h344q61 0 77.5 -28.5t16.5 -61.5v-794l37 -37h90v-164h-326q-61 0 -77.5 28.5t-16.5 61.5v37h-6q-129 -147 -295 -147q-315 0 -315 327v567l-37 37h-90v174h344q61 0 77.5 -32.5t16.5 -67.5v-629q0 -63 15.5 -89.5t40 -41
t85.5 -14.5z" />
    <glyph glyph-name="v" unicode="v" horiz-adv-x="1140" 
d="M0 911v174h532v-174h-59l-35 -37l178 -509l177 509l-33 37h-74v174h440v-174h-61l-37 -37l-328 -878h-245l-351 878l-36 37h-68z" />
    <glyph glyph-name="w" unicode="w" horiz-adv-x="1619" 
d="M1184 911v174h420v-174h-64l-33 -32l-288 -883h-226l-174 563l-172 -563h-227l-320 883l-30 32h-68v174h500v-174h-60l-30 -37l157 -499l205 710h174l199 -688l143 477l-35 37h-71z" />
    <glyph glyph-name="x" unicode="x" horiz-adv-x="1226" 
d="M45 911v174h541v-174h-56l-14 -16l143 -174l166 170l-18 20h-55v174h424v-174h-58l-31 -22l-307 -295l320 -395l45 -35h59v-164h-547v164h62l16 18l-168 211l-188 -207l22 -22h48v-164h-422v164h65l27 20l330 344l-293 349l-43 34h-68z" />
    <glyph glyph-name="y" unicode="y" horiz-adv-x="1142" 
d="M764 -184v-164h-504v164h133l37 37l43 120l-367 904l-34 34h-68v174h533v-174h-60l-35 -37l174 -497l179 497l-35 37h-68v174h438v-174h-61l-37 -37l-383 -1021l35 -37h80z" />
    <glyph glyph-name="z" unicode="z" horiz-adv-x="1056" 
d="M274 733h-198v352h895v-151l-533 -754h328l33 35v137h198v-352h-938v139l541 766h-293l-33 -33v-139z" />
    <glyph glyph-name="braceleft" unicode="{" horiz-adv-x="729" 
d="M567 -219q-193 0 -280.5 79t-87.5 261v317q0 118 -19.5 146t-50.5 38.5t-82 14.5v154q100 8 126 45.5t26 152.5v289q0 182 88 261t280 79q53 0 115 -8v-113l-53 -4q-72 -10 -100.5 -40t-28.5 -116v-260q0 -197 -34 -252t-73 -74.5t-96 -33.5v-6q120 -29 161.5 -96
t41.5 -265v-289q0 -124 49 -138.5t78 -16.5l55 -4v-113q-62 -8 -115 -8z" />
    <glyph glyph-name="bar" unicode="|" horiz-adv-x="425" 
d="M119 -209v1821h188v-1821h-188z" />
    <glyph glyph-name="braceright" unicode="}" horiz-adv-x="729" 
d="M162 -219q-53 0 -115 8v113l55 4q67 5 88 28q39 43 39 127v289q0 197 44 270q24 38 63 57t96 34v6q-57 13 -96 33q-79 40 -96 160q-10 65 -11 167v260q0 125 -75 146q-25 6 -54 10l-53 4v113q62 8 115 8q192 0 280 -79t88 -261v-289q0 -116 20 -145t51 -39q30 -10 81 -14
v-154q-102 -8 -126 -43t-26 -156v-317q0 -182 -88 -261t-280 -79z" />
    <glyph glyph-name="asciitilde" unicode="~" horiz-adv-x="1327" 
d="M912 647q44 0 79 19l127 131l115 -99q-57 -104 -149.5 -169.5t-210.5 -65.5t-216 55t-147 80t-92 25t-80 -19l-127 -131l-113 96q55 104 147.5 171t211.5 67t216 -55.5t146 -80t93 -24.5z" />
    <glyph glyph-name="uni00A0" unicode="&#xa0;" horiz-adv-x="434" 
 />
    <glyph glyph-name="exclamdown" unicode="&#xa1;" horiz-adv-x="559" 
d="M459 -348h-361v350l49 533l66 90h133l64 -90l49 -533v-350zM280 1106q77 0 130 -51t53 -123t-54 -122t-130 -50q-77 0 -130 52t-53 122t54 121t130 51z" />
    <glyph glyph-name="cent" unicode="&#xa2;" horiz-adv-x="1015" 
d="M526 1069q-145 -76 -145 -347t145 -347v694zM920 901h-181v162l-34 35l-35 2h-11v-758q10 -2 13 -2h26q102 0 220 43v-145q-35 -35 -107 -56.5t-152 -25.5v-176h-133v180q-318 41 -384 227.5t-66 314.5q0 244 125 389.5t325 180.5v182h133v-172q170 -6 261 -45v-336z" />
    <glyph glyph-name="sterling" unicode="&#xa3;" horiz-adv-x="1265" 
d="M545 477q0 -134 -64 -260h465l37 35v180h182v-432h-1079v174h90l37 37v418h-127v149h127v193q0 201 128.5 342t389.5 141q216 0 416 -94v-320h-191v160l-26 25q-76 26 -148 26q-134 0 -185.5 -58.5t-51.5 -221.5v-193h278v-149h-278v-152z" />
    <glyph glyph-name="currency" unicode="&#xa4;" horiz-adv-x="1056" 
d="M391 667.5q0 -61.5 42 -104.5t97.5 -43t96.5 43t41 104.5t-41 104.5t-96.5 43t-97.5 -43t-42 -104.5zM221 665q0 67 31 136l-164 164l148 145l161 -164q57 31 131 31t131 -31l164 164l148 -145l-166 -164q33 -67 33 -135t-33 -134l164 -159l-148 -146l-162 162
q-63 -29 -133 -29t-131 31l-162 -164l-147 146l164 164q-29 61 -29 128z" />
    <glyph glyph-name="yen" unicode="&#xa5;" horiz-adv-x="1406" 
d="M217 784h201l-258 441l-33 35h-72v174h578v-174h-74l-29 -31l240 -428l225 424l-30 35h-88v174h475v-174h-68l-35 -35l-243 -441h174v-149h-258l-25 -47v-53h283v-150h-283v-174l35 -37h92v-174h-586v174h90l37 37v174h-348v150h346l-59 100h-287v149z" />
    <glyph glyph-name="brokenbar" unicode="&#xa6;" horiz-adv-x="446" 
d="M129 852v760h188v-760h-188zM129 -209v762h188v-762h-188z" />
    <glyph glyph-name="section" unicode="&#xa7;" horiz-adv-x="1191" 
d="M842 350q22 44 22 96t-12 79.5t-58.5 57.5t-199.5 70q-154 39 -244 80q-22 -45 -22 -95t12 -79t52.5 -55.5t206.5 -71.5q166 -44 243 -82zM462 -369q-165 0 -339 50v350h190v-172l33 -33q105 -12 203 -12t167.5 41t69.5 110t-48 107t-182 73q-134 36 -215 65.5t-169 95.5
t-88 241t147 260q-102 90 -102 261t156.5 278.5t385.5 107.5t398 -49v-350h-190v172l-33 33q-105 12 -203 12t-167.5 -41t-69.5 -111t50 -108.5t216 -79.5q230 -63 302.5 -117.5t103 -118t30.5 -200t-150 -217.5q105 -93 105 -264q0 -170 -117 -249t-218 -107t-266 -28z" />
    <glyph glyph-name="dieresis" unicode="&#xa8;" horiz-adv-x="698" 
d="M385 1371q0 54 37 94t96.5 40t96 -40t36.5 -94t-36.5 -92t-96 -38t-96.5 38t-37 92zM47 1371q0 54 38 94t97.5 40t95 -40t35.5 -94t-35.5 -92t-95 -38t-97.5 38t-38 92z" />
    <glyph glyph-name="copyright" unicode="&#xa9;" horiz-adv-x="1628" 
d="M197 715q0 -131 48 -246t132 -200t196.5 -134t239.5 -49t239.5 49t196.5 134t132.5 200t48.5 246t-48.5 245.5t-132.5 200.5t-196.5 135.5t-239.5 49.5t-239.5 -49.5t-196.5 -135.5t-132 -200.5t-48 -245.5zM78 714q0 153 57.5 287t157.5 234t233 158.5t286 58.5
t287 -58.5t234.5 -158.5t158.5 -234.5t58 -286.5t-58 -285.5t-158.5 -234t-234.5 -157.5t-287 -57t-286 57t-233 157.5t-157.5 233.5t-57.5 286zM831 244q-221 0 -340.5 120t-119.5 346t128 351t361 125q84 0 234 -29v-260h-140v104l-22 23q-28 4 -72 4q-119 -2 -169 -80
t-50 -226t53.5 -232t175.5 -84h30q30 0 46 2l25 24v115h139v-250q-127 -53 -279 -53z" />
    <glyph glyph-name="ordfeminine" unicode="&#xaa;" horiz-adv-x="808" 
d="M358 918q43 0 84 30v109h-77q-82 0 -82 -66q0 -39 16.5 -56t58.5 -17zM410 1454q239 0 239 -209v-321l23 -23h53v-110h-215q-57 0 -57 53v22h-4q-38 -51 -89 -69.5t-88 -18.5q-98 0 -147 58.5t-49 141.5t61.5 131t165.5 48h139v60q0 65 -19 93.5t-89 28.5h-12
q-13 0 -23 -2l-18 -20v-86h-146v188q2 0 67 17.5t208 17.5z" />
    <glyph glyph-name="guillemotleft" unicode="&#xab;" horiz-adv-x="1048" 
d="M61 475v92l340 381h158l-231 -424l231 -430h-158zM471 475v92l340 381h158l-232 -424l232 -430h-158z" />
    <glyph glyph-name="logicalnot" unicode="&#xac;" horiz-adv-x="1118" 
d="M117 791h876v-469h-194v276h-682v193z" />
    <glyph glyph-name="uni00AD" unicode="&#xad;" horiz-adv-x="714" 
d="M111 686h493v-215h-493v215z" />
    <glyph glyph-name="registered" unicode="&#xae;" horiz-adv-x="1339" 
d="M257 1281q173 173 414 173t413.5 -173.5t172.5 -419t-173 -418.5t-413 -173t-413.5 172.5t-173.5 419t173 419.5zM692 1184q266 0 266 -178q0 -109 -58 -132.5t-83 -25.5v-4q35 -6 53.5 -27.5t38.5 -68.5l37 -82l21 -15h26v-108h-174q-49 0 -59 47l-39 135
q-10 35 -16.5 44t-26.5 9h-62v-110l17 -17h47v-108h-309v108h41l16 17v393l-16 14h-41v109h321zM616 1053v-142h72q45 0 60.5 17.5t15.5 52.5t-15.5 53.5t-60.5 18.5h-72zM1014 510.5q141 150.5 141 355.5t-142.5 351.5t-340.5 146.5t-342 -146t-144 -356t144 -356
t343.5 -146t340.5 150.5z" />
    <glyph glyph-name="macron" unicode="&#xaf;" horiz-adv-x="819" 
d="M139 1446h541v-180h-541v180z" />
    <glyph glyph-name="degree" unicode="&#xb0;" horiz-adv-x="751" 
d="M236 1144.5q0 -61.5 41.5 -104.5t97 -43t96.5 43t41 104.5t-41 104.5t-96.5 43t-97 -43t-41.5 -104.5zM68 1144.5q0 63.5 24.5 120t66.5 98.5t97 66.5t118.5 24.5t120 -24.5t98.5 -66.5t66.5 -98.5t24.5 -120t-24.5 -118.5t-66.5 -97t-98.5 -66.5t-120 -24.5t-118.5 24.5
t-97 66.5t-66.5 97t-24.5 118.5z" />
    <glyph glyph-name="plusminus" unicode="&#xb1;" horiz-adv-x="1114" 
d="M119 373h876v-193h-876v193zM119 944h342v291h192v-291h342v-192h-342v-291h-192v291h-342v192z" />
    <glyph glyph-name="twosuperior" unicode="&#xb2;" horiz-adv-x="600" 
d="M266 1710q149 0 207 -53q57 -53 57 -144q0 -90 -104 -171q-37 -28 -93 -62q-55 -34 -71 -50q-16 -15 -16 -38v-18h160l16 16v70h123v-224h-490v111q0 89 31 130t119 98t108 83t21 62q0 63 -66 63q-35 0 -59 -8l-16 -16v-66h-127v164q109 53 200 53z" />
    <glyph glyph-name="threesuperior" unicode="&#xb3;" horiz-adv-x="583" 
d="M535 1225q0 -81 -64 -140t-193 -59q-128 0 -223 43v166h131v-64l13 -16q20 -10 55 -10q76 0 77 88t-69 88h-84v113h84q58 0 60 86q0 29 -16 49t-47 20q-30 0 -48 -6l-16 -16v-66h-129v166q104 43 192 43q148 0 205 -51t57 -123q0 -119 -102 -160v-6q117 -34 117 -145z
" />
    <glyph glyph-name="acute" unicode="&#xb4;" horiz-adv-x="854" 
d="M279 1182l-86 94l268 272h53l145 -180l-340 -186h-40z" />
    <glyph glyph-name="mu" unicode="&#xb5;" horiz-adv-x="1298" 
d="M645 211q61 0 146 55v608l-37 37h-90v174h344q61 0 77.5 -28.5t16.5 -61.5v-794l37 -37h90v-164h-326q-61 0 -77.5 28.5t-16.5 61.5v37h-6q-129 -147 -295 -147h-27l23 -162v-166h-311v1222l-37 37h-90v174h344q61 0 77.5 -32.5t16.5 -67.5v-629q0 -63 15.5 -89.5t40 -41
t85.5 -14.5z" />
    <glyph glyph-name="paragraph" unicode="&#xb6;" horiz-adv-x="1312" 
d="M1106 -348h-164v1782h291v-174h-90l-37 -37v-1571zM778 1434v-1782h-164v860q-401 0 -481 174t-80 349.5t152 287t418 111.5h155z" />
    <glyph glyph-name="periodcentered" unicode="&#xb7;" horiz-adv-x="530" 
d="M90 774q0 69 51 117q51 47 124 47q75 0 125 -49t50 -116q0 -66 -51 -115q-51 -48 -122 -49q-72 -1 -125 47q-52 49 -52 118z" />
    <glyph glyph-name="cedilla" unicode="&#xb8;" horiz-adv-x="819" 
d="M604 -209q0 -160 -260 -160q-56 0 -116 17.5t-95 42.5l43 86q18 -10 64.5 -26.5t81.5 -16.5t53 9t18 38q0 62 -170 84v41l107 125h164l-84 -105q194 -9 194 -135z" />
    <glyph glyph-name="onesuperior" unicode="&#xb9;" horiz-adv-x="477" 
d="M137 1649q33 0 60 17t32 40h119v-555l17 -16h79v-99h-389v99h78l17 16v383l-17 16h-78v99h82z" />
    <glyph glyph-name="ordmasculine" unicode="&#xba;" horiz-adv-x="757" 
d="M471 1116.5q0 108.5 -18.5 159.5t-74.5 51t-74.5 -51t-18.5 -159.5t18.5 -160t74.5 -51.5t74.5 51.5t18.5 160zM598.5 863.5q-83.5 -85.5 -221.5 -85.5q-210 0 -256.5 125t-46.5 252.5t83.5 213t219.5 85.5q135 0 220 -85t85 -252.5t-83.5 -253z" />
    <glyph glyph-name="guillemotright" unicode="&#xbb;" horiz-adv-x="1048" 
d="M578 475l-340 -381h-158l231 430l-231 424h158l340 -381v-92zM987 475l-340 -381h-158l232 430l-232 424h158l340 -381v-92z" />
    <glyph glyph-name="onequarter" unicode="&#xbc;" horiz-adv-x="1259" 
d="M881 285v176l-133 -176h133zM1075 670v-385h74v-107h-74v-63l17 -17h57v-98h-354v98h69l17 17v63h-279v94l291 398h182zM205 1382q33 0 59 18t33 40h119v-555l16 -17h80v-98h-389v98h78l16 17v383l-16 16h-78v98h82zM63 0l998 1434h141l-995 -1434h-144z" />
    <glyph glyph-name="onehalf" unicode="&#xbd;" horiz-adv-x="1282" 
d="M913 674q210 0 252 -119q26 -76 2 -137t-94 -112q-37 -28 -93 -62t-72 -50q-16 -15 -15 -38v-19h160l16 17v69h123v-223h-490v111q0 85 26 122q26 39 60 63q32 24 92 62t81 63q20 26 20 62q0 62 -66 64q-33 0 -59 -8l-16 -17v-65h-127v164q109 53 200 53zM201 1382
q33 0 59 18t33 40h119v-555l16 -17h80v-98h-389v98h78l16 17v383l-16 16h-78v98h82zM59 0l998 1434h141l-995 -1434h-144z" />
    <glyph glyph-name="threequarters" unicode="&#xbe;" horiz-adv-x="1290" 
d="M911 285v176l-133 -176h133zM1106 670v-385h74v-107h-74v-63l16 -17h58v-98h-355v98h70l16 17v63h-278v94l291 398h182zM94 0l998 1434h141l-995 -1434h-144zM297 1323q-23 0 -41 -6l-16 -17v-65h-129v166q104 43 192 43q207 0 250 -111q12 -31 12 -63q0 -121 -102 -160
v-6q117 -34 117 -146q0 -79 -64 -138q-64 -60 -195 -60q-132 0 -221 43v166h131v-64l13 -16q20 -10 55 -10q76 0 77 88t-69 88h-84v112h84q58 0 60 86q0 70 -70 70z" />
    <glyph glyph-name="questiondown" unicode="&#xbf;" horiz-adv-x="1064" 
d="M817 928q0 -74 -50 -126t-138 -52t-138 52q-51 52 -51 126t50 126t139 52q88 0 138 -52t50 -126zM51 -20q-1 139 63 224t210 148q49 23 97 45q67 31 69 97v41l63 90h154l65 -90v-41q0 -125 -63 -190q-31 -32 -75 -56t-98 -48q-54 -26 -95 -64t-46 -74q-4 -36 -4 -54
q0 -70 46 -120t148 -50t195 43l29 29v160h190v-303q-217 -136 -459 -136q-243 0 -376 113q-113 97 -113 236z" />
    <glyph glyph-name="Agrave" unicode="&#xc0;" horiz-adv-x="1357" 
d="M465 565h334l-174 500zM473 174v-174h-487v174h71l37 37l434 1227h291l455 -1231l35 -33h71v-174h-559v174h74l31 33l-58 164h-465l-51 -164l33 -33h88zM682 1530h-41l-340 186l145 180h54l268 -272z" />
    <glyph glyph-name="Aacute" unicode="&#xc1;" horiz-adv-x="1357" 
d="M465 565h334l-174 500zM473 174v-174h-487v174h71l37 37l434 1227h291l455 -1231l35 -33h71v-174h-559v174h74l31 33l-58 164h-465l-51 -164l33 -33h88zM639 1530l-86 94l268 272h53l146 -180l-340 -186h-41z" />
    <glyph glyph-name="Acircumflex" unicode="&#xc2;" horiz-adv-x="1357" 
d="M465 565h334l-174 500zM473 174v-174h-487v174h71l37 37l434 1227h291l455 -1231l35 -33h71v-174h-559v174h74l31 33l-58 164h-465l-51 -164l33 -33h88zM397 1530l-59 72l287 301h100l287 -301l-60 -72h-47l-229 141l-232 -141h-47z" />
    <glyph glyph-name="Atilde" unicode="&#xc3;" horiz-adv-x="1357" 
d="M465 565h334l-174 500zM473 174v-174h-487v174h71l37 37l434 1227h291l455 -1231l35 -33h71v-174h-559v174h74l31 33l-58 164h-465l-51 -164l33 -33h88zM515 1827q65 -1 134 -29q68 -28 104 -42t76 -13q40 0 50 29v67h127v-92q0 -105 -48 -151t-121 -46q-72 0 -138 26
t-99 36q-33 12 -67 12t-48 -18v-78h-131v84q0 125 48 170t113 45z" />
    <glyph glyph-name="Adieresis" unicode="&#xc4;" horiz-adv-x="1357" 
d="M465 565h334l-174 500zM473 174v-174h-487v174h71l37 37l434 1227h291l455 -1231l35 -33h71v-174h-559v174h74l31 33l-58 164h-465l-51 -164l33 -33h88zM711 1717q0 54 37 94t96 40t96 -40t37 -94t-37 -92t-96 -38t-96 38t-37 92zM373 1717q0 54 38 94t97 40t95 -40
t36 -94t-36 -92t-95 -38t-97 38t-38 92z" />
    <glyph glyph-name="Aring" unicode="&#xc5;" horiz-adv-x="1357" 
d="M465 565h334l-174 500zM473 174v-174h-487v174h71l37 37l434 1227h291l455 -1231l35 -33h71v-174h-559v174h74l31 33l-58 164h-465l-51 -164l33 -33h88zM768 1692q0 90 -89 90t-89 -90t89 -90t89 90zM936 1692q0 -92 -74 -136t-184 -45q-110 0 -182 44q-74 45 -74 137
t74 136t184 44t182 -44q74 -44 74 -136z" />
    <glyph glyph-name="AE" unicode="&#xc6;" horiz-adv-x="2009" 
d="M934 569v658h-31l-338 -658h369zM1913 1030h-191v164l-36 35h-420v-398h223l35 33v82h174v-428h-174v82l-33 31h-225v-426h440l37 35v163h190v-403h-1126v174h90l37 37v166h-465l-94 -184l18 -19h76v-174h-483v174h84l34 35l666 1225h1143v-404z" />
    <glyph glyph-name="Ccedilla" unicode="&#xc7;" horiz-adv-x="1230" 
d="M907 -209q0 -155 -250 -160q-137 0 -221 60l43 86q77 -43 152 -43q29 0 47 9t18 41q0 57 -170 81v41l73 85q-523 85 -523 724q0 361 192 550t525 189q185 0 344 -43v-389h-199v174l-35 35q-54 8 -134 8q-79 0 -151 -37q-194 -100 -194 -467q0 -271 84 -395
q91 -137 301 -137h60q28 0 57 4l37 37v188h198v-371q-179 -83 -405 -81l-43 -54q194 -9 194 -135z" />
    <glyph glyph-name="Egrave" unicode="&#xc8;" horiz-adv-x="1284" 
d="M698 1530h-41l-340 186l146 180h53l268 -272zM541 1229v-398h223l35 33v82h174v-428h-174v82l-33 31h-225v-426h440l37 35v163h190v-403h-1126v174h90l37 37v1012l-37 37h-90v174h1106v-404h-191v164l-36 35h-420z" />
    <glyph glyph-name="Eacute" unicode="&#xc9;" horiz-adv-x="1284" 
d="M541 1229v-398h223l35 33v82h174v-428h-174v82l-33 31h-225v-426h440l37 35v163h190v-403h-1126v174h90l37 37v1012l-37 37h-90v174h1106v-404h-191v164l-36 35h-420zM655 1530l-86 94l269 272h53l145 -180l-340 -186h-41z" />
    <glyph glyph-name="Ecircumflex" unicode="&#xca;" horiz-adv-x="1284" 
d="M414 1530l-60 72l287 301h100l287 -301l-59 -72h-47l-230 141l-231 -141h-47zM541 1229v-398h223l35 33v82h174v-428h-174v82l-33 31h-225v-426h440l37 35v163h190v-403h-1126v174h90l37 37v1012l-37 37h-90v174h1106v-404h-191v164l-36 35h-420z" />
    <glyph glyph-name="Edieresis" unicode="&#xcb;" horiz-adv-x="1284" 
d="M541 1229v-398h223l35 33v82h174v-428h-174v82l-33 31h-225v-426h440l37 35v163h190v-403h-1126v174h90l37 37v1012l-37 37h-90v174h1106v-404h-191v164l-36 35h-420zM727 1717q0 54 37 94t96 40t96 -40t37 -94t-37 -92t-96 -38t-96 38t-37 92zM389 1717q0 54 38 94
t97 40q60 0 96 -40t36 -94t-36 -92t-96 -38t-97 38q-38 38 -38 92z" />
    <glyph glyph-name="Igrave" unicode="&#xcc;" horiz-adv-x="749" 
d="M82 1260v174h586v-174h-93l-34 -37v-1012l34 -37h93v-174h-586v174h90l37 37v1012l-37 37h-90zM381 1530h-41l-340 186l145 180h54l268 -272z" />
    <glyph glyph-name="Iacute" unicode="&#xcd;" horiz-adv-x="749" 
d="M82 1260v174h586v-174h-93l-34 -37v-1012l34 -37h93v-174h-586v174h90l37 37v1012l-37 37h-90zM338 1530l-86 94l268 272h53l146 -180l-340 -186h-41z" />
    <glyph glyph-name="Icircumflex" unicode="&#xce;" horiz-adv-x="749" 
d="M82 1260v174h586v-174h-93l-34 -37v-1012l34 -37h93v-174h-586v174h90l37 37v1012l-37 37h-90zM96 1530l-59 72l287 301h100l287 -301l-60 -72h-47l-229 141l-232 -141h-47z" />
    <glyph glyph-name="Idieresis" unicode="&#xcf;" horiz-adv-x="749" 
d="M82 1260v174h586v-174h-93l-34 -37v-1012l34 -37h93v-174h-586v174h90l37 37v1012l-37 37h-90zM410 1717q0 54 36 94t96 40t97 -40t37 -94t-37 -92t-96 -38t-97 38q-36 38 -36 92zM72 1717q0 54 38 94t97 40t95 -40t36 -94t-36 -92t-95 -38t-97 38t-38 92z" />
    <glyph glyph-name="Eth" unicode="&#xd0;" horiz-adv-x="1441" 
d="M541 805h305v-150h-305v-440h151q179 0 252.5 123t73.5 386t-73 381t-253 118h-151v-418zM92 805h117v420l-37 37h-90v174h610q312 0 493 -177t181 -534q0 -358 -180.5 -540.5t-493.5 -182.5h-610v174h90l37 37v442h-117v150z" />
    <glyph glyph-name="Ntilde" unicode="&#xd1;" horiz-adv-x="1497" 
d="M601 1827q65 -1 134 -29q68 -28 104 -42t76 -13q40 0 50 29v67h127v-92q0 -105 -48 -151t-121 -46q-72 0 -138 26t-99 36q-33 12 -67 12t-48 -18v-78h-131v84q0 125 48 170t113 45zM80 0v174h90l37 37v1012l-37 37h-90v174h414l565 -871v660l-37 37h-90v174h500v-174h-93
l-34 -37v-1229h-234l-618 950v-733l34 -37h93v-174h-500z" />
    <glyph glyph-name="Ograve" unicode="&#xd2;" horiz-adv-x="1380" 
d="M705 1530h-41l-340 186l145 180h53l269 -272zM424 717q0 -266 59 -392t207 -126t207 126t59 392t-59 392t-207 126t-206 -126q-60 -126 -60 -392zM76 716q0 362 169 550t446 188q278 0 445 -187t168 -549q1 -363 -168 -550q-169 -188 -447 -188t-445 187
q-168 187 -168 549z" />
    <glyph glyph-name="Oacute" unicode="&#xd3;" horiz-adv-x="1380" 
d="M662 1530l-87 94l269 272h53l145 -180l-340 -186h-40zM424 717q0 -266 59 -392t207 -126t207 126t59 392t-59 392t-207 126t-206 -126q-60 -126 -60 -392zM76 716q0 362 169 550t446 188q278 0 445 -187t168 -549q1 -363 -168 -550q-169 -188 -447 -188t-445 187
q-168 187 -168 549z" />
    <glyph glyph-name="Ocircumflex" unicode="&#xd4;" horiz-adv-x="1380" 
d="M420 1530l-60 72l287 301h101l286 -301l-59 -72h-47l-230 141l-231 -141h-47zM424 717q0 -266 59 -392t207 -126t207 126t59 392t-59 392t-207 126t-206 -126q-60 -126 -60 -392zM76 716q0 362 169 550t446 188q278 0 445 -187t168 -549q1 -363 -168 -550
q-169 -188 -447 -188t-445 187q-168 187 -168 549z" />
    <glyph glyph-name="Otilde" unicode="&#xd5;" horiz-adv-x="1380" 
d="M424 717q0 -266 59 -392t207 -126t207 126t59 392t-59 392t-207 126t-206 -126q-60 -126 -60 -392zM76 716q0 362 169 550t446 188q278 0 445 -187t168 -549q1 -363 -168 -550q-169 -188 -447 -188t-445 187q-168 187 -168 549zM539 1827q66 -1 133 -29t103 -42t78 -13
q42 0 48 29v67h127v-92q0 -105 -48 -151t-119 -46t-139 26q-128 48 -166 48q-39 0 -48 -18v-78h-131v84q0 125 48 170t114 45z" />
    <glyph glyph-name="Odieresis" unicode="&#xd6;" horiz-adv-x="1380" 
d="M424 717q0 -266 59 -392t207 -126t207 126t59 392t-59 392t-207 126t-206 -126q-60 -126 -60 -392zM76 716q0 362 169 550t446 188q278 0 445 -187t168 -549q1 -363 -168 -550q-169 -188 -447 -188t-445 187q-168 187 -168 549zM733 1717q0 54 37 94t96 40q58 0 96 -40
t38 -94t-38 -92q-36 -38 -96 -38t-96 38q-37 38 -37 92zM395 1717q0 54 38 94t97 40q60 0 96 -40t36 -94t-36 -92t-96 -38t-97 38q-38 38 -38 92z" />
    <glyph glyph-name="multiply" unicode="&#xd7;" horiz-adv-x="1007" 
d="M90 422l268 266l-268 268l148 146l266 -268l266 268l148 -146l-271 -268l271 -266l-146 -148l-268 271l-268 -271z" />
    <glyph glyph-name="Oslash" unicode="&#xd8;" horiz-adv-x="1388" 
d="M958 717q0 88 -10 203l-448 -623q63 -98 201 -98t197.5 126t59.5 392zM426 717q0 -158 18 -264l461 639q-61 143 -211 143t-209 -126t-59 -392zM242 172q-164 193 -164 551q0 357 168.5 544t445.5 187q225 0 383 -127l92 127h166l-164 -229q138 -192 138 -531
q0 -338 -168.5 -526t-446.5 -188q-205 0 -348 100l-72 -100h-168z" />
    <glyph glyph-name="Ugrave" unicode="&#xd9;" horiz-adv-x="1390" 
d="M741 1530h-41l-340 186l146 180h53l268 -272zM834 1260v174h507v-174h-92l-35 -37v-750q0 -368 -298 -464q-92 -29 -210 -29q-380 2 -490 273q-38 93 -38 220v750l-37 37h-90v174h590v-174h-92l-35 -37v-754q0 -135 49 -203t166 -67q191 0 221 152q10 50 11 118v754
l-37 37h-90z" />
    <glyph glyph-name="Uacute" unicode="&#xda;" horiz-adv-x="1390" 
d="M834 1260v174h507v-174h-92l-35 -37v-750q0 -368 -298 -464q-92 -29 -210 -29q-380 2 -490 273q-38 93 -38 220v750l-37 37h-90v174h590v-174h-92l-35 -37v-754q0 -135 49 -203t166 -67q191 0 221 152q10 50 11 118v754l-37 37h-90zM698 1530l-86 94l269 272h53l145 -180
l-340 -186h-41z" />
    <glyph glyph-name="Ucircumflex" unicode="&#xdb;" horiz-adv-x="1390" 
d="M457 1530l-60 72l287 301h100l287 -301l-59 -72h-47l-230 141l-231 -141h-47zM834 1260v174h507v-174h-92l-35 -37v-750q0 -368 -298 -464q-92 -29 -210 -29q-380 2 -490 273q-38 93 -38 220v750l-37 37h-90v174h590v-174h-92l-35 -37v-754q0 -135 49 -203t166 -67
q191 0 221 152q10 50 11 118v754l-37 37h-90z" />
    <glyph glyph-name="Udieresis" unicode="&#xdc;" horiz-adv-x="1390" 
d="M834 1260v174h507v-174h-92l-35 -37v-750q0 -368 -298 -464q-92 -29 -210 -29q-380 2 -490 273q-38 93 -38 220v750l-37 37h-90v174h590v-174h-92l-35 -37v-754q0 -135 49 -203t166 -67q191 0 221 152q10 50 11 118v754l-37 37h-90zM770 1717q0 54 37 94t96 40t96 -40
t37 -94t-37 -92t-96 -38t-96 38t-37 92zM432 1717q0 54 38 94t97 40t95 -40t36 -94t-36 -92t-94 -38q-60 0 -98 38t-38 92z" />
    <glyph glyph-name="Yacute" unicode="&#xdd;" horiz-adv-x="1277" 
d="M-23 1260v174h578v-174h-74l-28 -31l239 -428l226 424l-31 35h-88v174h475v-174h-68l-35 -35l-352 -637v-377l35 -37h92v-174h-586v174h91l36 37v319l-405 695l-33 35h-72zM633 1530l-86 94l268 272h53l146 -180l-340 -186h-41z" />
    <glyph glyph-name="Thorn" unicode="&#xde;" horiz-adv-x="1308" 
d="M541 954v-454h151q131 0 178.5 55t47.5 170t-47.5 172t-178.5 57h-151zM82 0v174h90l37 37v1012l-37 37h-90v174h586v-174h-93l-34 -37v-68h151q414 0 492 -155.5t78 -319.5t-152 -272.5t-418 -108.5h-151v-88l34 -37h93v-174h-586z" />
    <glyph glyph-name="germandbls" unicode="&#xdf;" horiz-adv-x="1280" 
d="M881 137q90 0 90 107q0 49 -50.5 101t-130.5 121t-122.5 134.5t-42.5 129.5t14 92t36.5 53.5t85 84.5t62.5 188q0 140 -47 186t-98 46q-95 0 -140.5 -51t-45.5 -184v-936l34 -37h80v-172h-553v174h90l37 37v700h-127v170h90l37 37v2q0 154 128 275t351 121
q277 0 352.5 -119t75.5 -206t-30.5 -136t-68.5 -87t-68.5 -70t-30.5 -72t31.5 -71.5l83.5 -83.5q137 -135 196.5 -213.5t59.5 -197.5t-83 -199.5t-246 -80.5t-257 47v262h164v-119l32 -33h11z" />
    <glyph glyph-name="agrave" unicode="&#xe0;" horiz-adv-x="1099" 
d="M496 446q-142 0 -142 -118t129 -117q77 0 158 59v176h-145zM565 1106q383 0 383 -348v-557l37 -37h90v-164h-321q-61 0 -78 29q-16 29 -17 61v39h-10q-67 -90 -184 -132q-47 -17 -117 -17q-144 0 -221 86q-78 86 -79 236q-1 151 97 235t267 84h229v88q1 107 -21 141
q-41 64 -161 63q-41 0 -90 -6l-31 -30v-138h-199v301q231 66 426 66zM586 1182h-41l-340 186l145 180h53l269 -272z" />
    <glyph glyph-name="aacute" unicode="&#xe1;" horiz-adv-x="1099" 
d="M496 446q-142 0 -142 -118t129 -117q77 0 158 59v176h-145zM565 1106q383 0 383 -348v-557l37 -37h90v-164h-321q-61 0 -78 29q-16 29 -17 61v39h-10q-67 -90 -184 -132q-47 -17 -117 -17q-144 0 -221 86q-78 86 -79 236q-1 151 97 235t267 84h229v88q1 107 -21 141
q-41 64 -161 63q-41 0 -90 -6l-31 -30v-138h-199v301q231 66 426 66zM543 1182l-86 94l268 272h53l146 -180l-340 -186h-41z" />
    <glyph glyph-name="acircumflex" unicode="&#xe2;" horiz-adv-x="1099" 
d="M496 446q-142 0 -142 -118t129 -117q77 0 158 59v176h-145zM565 1106q383 0 383 -348v-557l37 -37h90v-164h-321q-61 0 -78 29q-16 29 -17 61v39h-10q-67 -90 -184 -132q-47 -17 -117 -17q-144 0 -221 86q-78 86 -79 236q-1 151 97 235t267 84h229v88q1 107 -21 141
q-41 64 -161 63q-41 0 -90 -6l-31 -30v-138h-199v301q231 66 426 66zM270 1182l-55 67l281 299h94l280 -299l-55 -67h-45l-227 149l-228 -149h-45z" />
    <glyph glyph-name="atilde" unicode="&#xe3;" horiz-adv-x="1099" 
d="M496 446q-142 0 -142 -118t129 -117q77 0 158 59v176h-145zM565 1106q383 0 383 -348v-557l37 -37h90v-164h-321q-61 0 -78 29q-16 29 -17 61v39h-10q-67 -90 -184 -132q-47 -17 -117 -17q-144 0 -221 86q-78 86 -79 236q-1 151 97 235t267 84h229v88q1 107 -21 141
q-41 64 -161 63q-41 0 -90 -6l-31 -30v-138h-199v301q231 66 426 66zM692 1395q42 0 49 28v68h127v-92q0 -105 -48 -151t-122 -46t-139 26q-122 48 -163 48t-48 -19v-77h-131v84q0 125 48 170q49 45 107 45q58 1 96 -13t75 -29t73 -29q34 -14 76 -13z" />
    <glyph glyph-name="adieresis" unicode="&#xe4;" horiz-adv-x="1099" 
d="M496 446q-142 0 -142 -118t129 -117q77 0 158 59v176h-145zM565 1106q383 0 383 -348v-557l37 -37h90v-164h-321q-61 0 -78 29q-16 29 -17 61v39h-10q-67 -90 -184 -132q-47 -17 -117 -17q-144 0 -221 86q-78 86 -79 236q-1 151 97 235t267 84h229v88q1 107 -21 141
q-41 64 -161 63q-41 0 -90 -6l-31 -30v-138h-199v301q231 66 426 66zM578 1369q0 54 36 94t96 40t97 -40t37 -94t-37 -92t-96 -38t-97 38q-36 38 -36 92zM240 1369q0 54 38 94t97 40t95 -40t36 -94t-36 -92t-95 -38t-97 38t-38 92z" />
    <glyph glyph-name="aring" unicode="&#xe5;" horiz-adv-x="1099" 
d="M496 446q-142 0 -142 -118t129 -117q77 0 158 59v176h-145zM565 1106q383 0 383 -348v-557l37 -37h90v-164h-321q-61 0 -78 29q-16 29 -17 61v39h-10q-67 -90 -184 -132q-47 -17 -117 -17q-144 0 -221 86q-78 86 -79 236q-1 151 97 235t267 84h229v88q1 107 -21 141
q-41 64 -161 63q-41 0 -90 -6l-31 -30v-138h-199v301q231 66 426 66zM631 1343q0 90 -90 91q-88 0 -88 -90t89 -91q89 0 89 90zM799 1343q0 -92 -74 -136q-73 -44 -183 -44t-184 44t-73 136q0 92 73 137q74 44 184 44t184 -44t73 -137z" />
    <glyph glyph-name="ae" unicode="&#xe6;" horiz-adv-x="1599" 
d="M496 446q-142 0 -142 -118t129 -117q91 0 197 65q-27 74 -37 170h-147zM1110 909q-76 0 -109.5 -67.5t-42.5 -208.5h283v72q0 104 -27.5 154t-103.5 50zM558 1106q188 0 265 -117q106 117 303 117t307.5 -120t110.5 -320v-168l-37 -39h-549q16 -154 94 -216.5t180 -62.5
t165 17.5t90 25.5v-168q-106 -75 -358 -75t-384 176q-95 -109 -203 -142.5t-186 -33.5q-152 0 -230.5 87t-78.5 236q0 150 98.5 234t266.5 84h229v88q0 105 -31 154.5t-151 49.5q-41 0 -90 -6l-31 -30v-138h-199v301q231 66 419 66z" />
    <glyph glyph-name="ccedilla" unicode="&#xe7;" horiz-adv-x="956" 
d="M381 541q0 -361 287 -361q78 0 142 18q65 18 75 21v-158q-41 -41 -126 -61t-146 -20t-91 2l-45 -56q193 -9 195 -135q0 -155 -250 -160q-137 0 -221 60l43 86q77 -43 151 -43q29 0 47 9t18 41q1 57 -169 81v41l91 106q-197 68 -282 272q-43 103 -43 246t44 252
q131 324 521 324q127 0 265 -45v-348h-199v166l-37 34q-8 2 -22 2q-131 0 -189 -96t-59 -278z" />
    <glyph glyph-name="egrave" unicode="&#xe8;" horiz-adv-x="1021" 
d="M532 909q-76 1 -110 -67t-41 -209h283v72q0 104 -28 154t-104 50zM59 520q0 276 135 435q125 151 338 151q214 0 324 -120t111 -320v-168l-37 -39h-549q16 -154 94 -216q79 -63 181 -63t164 18t89 25v-168q-109 -77 -344 -75q-345 0 -465 296q-41 102 -41 244zM590 1182
h-41l-340 186l145 180h54l268 -272z" />
    <glyph glyph-name="eacute" unicode="&#xe9;" horiz-adv-x="1021" 
d="M547 1182l-86 94l268 272h53l146 -180l-340 -186h-41zM532 909q-76 1 -110 -67t-41 -209h283v72q0 104 -28 154t-104 50zM59 520q0 276 135 435q125 151 338 151q214 0 324 -120t111 -320v-168l-37 -39h-549q16 -154 94 -216q79 -63 181 -63t164 18t89 25v-168
q-109 -77 -344 -75q-345 0 -465 296q-41 102 -41 244z" />
    <glyph glyph-name="ecircumflex" unicode="&#xea;" horiz-adv-x="1021" 
d="M274 1182l-55 67l281 299h94l280 -299l-55 -67h-45l-227 149l-228 -149h-45zM532 909q-76 1 -110 -67t-41 -209h283v72q0 104 -28 154t-104 50zM59 520q0 276 135 435q125 151 338 151q214 0 324 -120t111 -320v-168l-37 -39h-549q16 -154 94 -216q79 -63 181 -63t164 18
t89 25v-168q-109 -77 -344 -75q-345 0 -465 296q-41 102 -41 244z" />
    <glyph glyph-name="edieresis" unicode="&#xeb;" horiz-adv-x="1021" 
d="M582 1369q0 54 36 94t96 40t97 -40t37 -94t-37 -92t-96 -38t-97 38q-36 38 -36 92zM244 1369q0 54 38 94t97 40t95 -40t36 -94t-36 -92t-95 -38t-97 38t-38 92zM532 909q-76 1 -110 -67t-41 -209h283v72q0 104 -28 154t-104 50zM59 520q0 276 135 435q125 151 338 151
q214 0 324 -120t111 -320v-168l-37 -39h-549q16 -154 94 -216q79 -63 181 -63t164 18t89 25v-168q-109 -77 -344 -75q-345 0 -465 296q-41 102 -41 244z" />
    <glyph glyph-name="igrave" unicode="&#xec;" horiz-adv-x="653" 
d="M397 1085q61 0 78 -28q16 -29 17 -62v-794l34 -37h92v-164h-565v164h90l37 37v673l-37 37h-90v174h344zM375 1182h-41l-340 186l145 180h54l268 -272z" />
    <glyph glyph-name="iacute" unicode="&#xed;" horiz-adv-x="653" 
d="M330 1182l-86 94l268 272h53l146 -180l-340 -186h-41zM397 1085q61 0 78 -28q16 -29 17 -62v-794l34 -37h92v-164h-565v164h90l37 37v673l-37 37h-90v174h344z" />
    <glyph glyph-name="icircumflex" unicode="&#xee;" horiz-adv-x="653" 
d="M59 1182l-55 67l281 299h94l280 -299l-55 -67h-45l-227 149l-228 -149h-45zM397 1085q61 0 78 -28q16 -29 17 -62v-794l34 -37h92v-164h-565v164h90l37 37v673l-37 37h-90v174h344z" />
    <glyph glyph-name="idieresis" unicode="&#xef;" horiz-adv-x="653" 
d="M367 1369q0 54 36 94q37 40 97 40t96 -40q37 -40 37 -94t-37 -92t-96 -38t-97 38q-36 38 -36 92zM29 1369q0 54 38 94t97 40t95 -40t36 -94t-36 -92t-95 -38t-97 38t-38 92zM397 1085q61 0 78 -28q16 -29 17 -62v-794l34 -37h92v-164h-565v164h90l37 37v673l-37 37h-90
v174h344z" />
    <glyph glyph-name="eth" unicode="&#xf0;" horiz-adv-x="1118" 
d="M731 542.5q0 180.5 -37 271.5t-137 91t-137 -91t-37 -271.5t37 -271.5t137 -91t137 91t37 271.5zM731 1317q324 -309 324 -791q0 -258 -140 -402t-358 -144t-358 144t-140 418.5t140.5 419t357.5 144.5q33 0 64 -6q-48 68 -97 125l-133 -60l-49 109l96 43q-53 53 -102 96
l96 105q100 -47 197 -115l145 65l51 -110z" />
    <glyph glyph-name="ntilde" unicode="&#xf1;" horiz-adv-x="1261" 
d="M479 958q127 148 321 148q155 0 226 -88q72 -88 74 -240v-577l37 -37h90v-164h-541v164h68l34 37v528q0 64 -16 91q-33 54 -121 54t-159 -55v-618l34 -37h68v-164h-541v164h90l37 37v673l-37 37h-90v174h326q61 0 78 -28q16 -29 16 -62v-37h6zM784 1395q40 0 50 28v68
h127v-92q-1 -105 -49 -151t-123 -46t-166 37t-132 37q-40 0 -51 -19v-77h-131v84q0 125 48 170q49 45 107 45q58 1 96 -13t75 -29t73 -29t76 -13z" />
    <glyph glyph-name="ograve" unicode="&#xf2;" horiz-adv-x="1114" 
d="M731 543q0 180 -37 271t-137 91t-137 -91t-37 -271q0 -179 37 -271t137 -92t137 92t37 271zM1055 543q0 -143 -40 -249q-79 -209 -265 -281q-90 -33 -192 -33q-218 1 -359 145q-140 144 -140 418t141 418q141 145 357 145q217 0 357 -145q141 -144 141 -418zM618 1182
h-40l-340 186l145 180h53l269 -272z" />
    <glyph glyph-name="oacute" unicode="&#xf3;" horiz-adv-x="1114" 
d="M575 1182l-86 94l269 272h53l145 -180l-340 -186h-41zM731 543q0 180 -37 271t-137 91t-137 -91t-37 -271q0 -179 37 -271t137 -92t137 92t37 271zM1055 543q0 -143 -40 -249q-79 -209 -265 -281q-90 -33 -192 -33q-218 1 -359 145q-140 144 -140 418t141 418
q141 145 357 145q217 0 357 -145q141 -144 141 -418z" />
    <glyph glyph-name="ocircumflex" unicode="&#xf4;" horiz-adv-x="1114" 
d="M303 1182l-55 67l280 299h95l280 -299l-55 -67h-45l-228 149l-227 -149h-45zM731 543q0 180 -37 271t-137 91t-137 -91t-37 -271q0 -179 37 -271t137 -92t137 92t37 271zM1055 543q0 -143 -40 -249q-79 -209 -265 -281q-90 -33 -192 -33q-218 1 -359 145
q-140 144 -140 418t141 418q141 145 357 145q217 0 357 -145q141 -144 141 -418z" />
    <glyph glyph-name="otilde" unicode="&#xf5;" horiz-adv-x="1114" 
d="M731 543q0 180 -37 271t-137 91t-137 -91t-37 -271q0 -179 37 -271t137 -92t137 92t37 271zM1055 543q0 -143 -40 -249q-79 -209 -265 -281q-90 -33 -192 -33q-218 1 -359 145q-140 144 -140 418t141 418q141 145 357 145q217 0 357 -145q141 -144 141 -418zM410 1479
q64 -1 133 -29t105 -42t78 -13q42 0 48 28v68h127v-92q0 -105 -48 -151t-122 -46t-139 26q-122 48 -163 48t-48 -19v-77h-131v84q0 125 48 170t112 45z" />
    <glyph glyph-name="odieresis" unicode="&#xf6;" horiz-adv-x="1114" 
d="M610 1369q0 54 37 94t96 40t97 -40t37 -94q0 -54 -37 -92q-36 -38 -96 -38t-97 38t-37 92zM272 1369q0 54 38 94t98 40t95 -40q36 -40 36 -94t-36 -92t-95 -38t-98 38q-38 38 -38 92zM731 543q0 180 -37 271t-137 91t-137 -91t-37 -271q0 -179 37 -271t137 -92t137 92
t37 271zM1055 543q0 -143 -40 -249q-79 -209 -265 -281q-90 -33 -192 -33q-218 1 -359 145q-140 144 -140 418t141 418q141 145 357 145q217 0 357 -145q141 -144 141 -418z" />
    <glyph glyph-name="divide" unicode="&#xf7;" horiz-adv-x="1048" 
d="M389 1028q0 55 41 94t94.5 39t94 -39t40.5 -94t-40.5 -95t-94 -40t-94.5 40t-41 95zM389 360q0 55 41 94.5t94.5 39.5t94 -39t40.5 -95t-40.5 -95.5t-94 -39.5t-94.5 40t-41 95zM86 791h877v-195h-877v195z" />
    <glyph glyph-name="oslash" unicode="&#xf8;" horiz-adv-x="1126" 
d="M735 543q0 56 -4 100l-293 -399q43 -64 133 -64t127 91.5t37 271.5zM387 592q0 -131 6 -193l305 414q-41 92 -139 92t-135 -91t-37 -222zM197 131q-134 154 -134 420t141.5 410.5t356.5 144.5q165 0 289 -86l61 86h158l-127 -174q117 -155 117 -409q0 -255 -140 -399
t-358 -144q-152 0 -264 69l-51 -69h-160z" />
    <glyph glyph-name="ugrave" unicode="&#xf9;" 
d="M614 211q63 0 144 55v608l-37 37h-90v174h344q61 0 78 -28q16 -29 16 -62v-794l37 -37h90v-164h-326q-61 0 -77 29t-17 61v37h-6q-129 -147 -295 -147q-315 0 -315 327v567l-37 37h-90v174h344q61 0 78 -32q16 -33 16 -68v-629q0 -64 15 -90q15 -27 40 -41t88 -14z
M610 1182h-41l-340 186l146 180h53l268 -272z" />
    <glyph glyph-name="uacute" unicode="&#xfa;" 
d="M567 1182l-86 94l269 272h53l145 -180l-340 -186h-41zM614 211q63 0 144 55v608l-37 37h-90v174h344q61 0 78 -28q16 -29 16 -62v-794l37 -37h90v-164h-326q-61 0 -77 29t-17 61v37h-6q-129 -147 -295 -147q-315 0 -315 327v567l-37 37h-90v174h344q61 0 78 -32
q16 -33 16 -68v-629q0 -64 15 -90q15 -27 40 -41t88 -14z" />
    <glyph glyph-name="ucircumflex" unicode="&#xfb;" 
d="M295 1182l-55 67l280 299h94l281 -299l-55 -67h-45l-228 149l-227 -149h-45zM614 211q63 0 144 55v608l-37 37h-90v174h344q61 0 78 -28q16 -29 16 -62v-794l37 -37h90v-164h-326q-61 0 -77 29t-17 61v37h-6q-129 -147 -295 -147q-315 0 -315 327v567l-37 37h-90v174h344
q61 0 78 -32q16 -33 16 -68v-629q0 -64 15 -90q15 -27 40 -41t88 -14z" />
    <glyph glyph-name="udieresis" unicode="&#xfc;" 
d="M602 1369q0 54 37 94t96 40t96 -40t37 -94t-37 -92t-96 -38t-96 38t-37 92zM264 1369q0 54 38 94t97 40t95 -40t36 -94t-36 -92t-94 -38q-60 0 -98 38t-38 92zM614 211q63 0 144 55v608l-37 37h-90v174h344q61 0 78 -28q16 -29 16 -62v-794l37 -37h90v-164h-326
q-61 0 -77 29t-17 61v37h-6q-129 -147 -295 -147q-315 0 -315 327v567l-37 37h-90v174h344q61 0 78 -32q16 -33 16 -68v-629q0 -64 15 -90q15 -27 40 -41t88 -14z" />
    <glyph glyph-name="yacute" unicode="&#xfd;" horiz-adv-x="1142" 
d="M764 -184v-164h-504v164h133l37 37l43 120l-367 904l-34 34h-68v174h533v-174h-60l-35 -37l174 -497l179 497l-35 37h-68v174h438v-174h-61l-37 -37l-383 -1021l35 -37h80zM604 1182l-86 94l268 272h54l145 -180l-340 -186h-41z" />
    <glyph glyph-name="thorn" unicode="&#xfe;" horiz-adv-x="1183" 
d="M610 877q-93 0 -161 -56v-553q69 -68 163 -68t140.5 82.5t46.5 270.5q0 263 -71 293.5t-118 30.5zM588 -184v-164h-578v164h90l37 37v1431l-37 37h-90v174h344q61 0 78 -28.5t17 -61.5v-436q112 137 284 137t280.5 -142t108.5 -407t-123.5 -421t-308.5 -156
q-135 0 -241 106v-233l34 -37h105z" />
    <glyph glyph-name="ydieresis" unicode="&#xff;" horiz-adv-x="1142" 
d="M764 -184v-164h-504v164h133l37 37l43 120l-367 904l-34 34h-68v174h533v-174h-60l-35 -37l174 -497l179 497l-35 37h-68v174h438v-174h-61l-37 -37l-383 -1021l35 -37h80zM639 1369q0 54 37 94t96 40t96 -40t37 -94t-37 -92t-96 -38t-96 38t-37 92zM301 1369q0 54 38 94
t97 40t95 -40t36 -94t-36 -92t-95 -38t-97 38t-38 92z" />
    <glyph glyph-name="Amacron" unicode="&#x100;" horiz-adv-x="1357" 
d="M465 565h334l-174 500zM473 174v-174h-487v174h71l37 37l434 1227h291l455 -1231l35 -33h71v-174h-559v174h74l31 33l-58 164h-465l-51 -164l33 -33h88zM410 1794h540v-180h-540v180z" />
    <glyph glyph-name="amacron" unicode="&#x101;" horiz-adv-x="1099" 
d="M496 446q-142 0 -142 -118t129 -117q77 0 158 59v176h-145zM565 1106q383 0 383 -348v-557l37 -37h90v-164h-321q-61 0 -78 29q-16 29 -17 61v39h-10q-67 -90 -184 -132q-47 -17 -117 -17q-144 0 -221 86q-78 86 -79 236q-1 151 97 235t267 84h229v88q1 107 -21 141
q-41 64 -161 63q-41 0 -90 -6l-31 -30v-138h-199v301q231 66 426 66zM272 1446h541v-180h-541v180z" />
    <glyph glyph-name="Abreve" unicode="&#x102;" horiz-adv-x="1357" 
d="M465 565h334l-174 500zM473 174v-174h-487v174h71l37 37l434 1227h291l455 -1231l35 -33h71v-174h-559v174h74l31 33l-58 164h-465l-51 -164l33 -33h88zM686 1724q57 0 92 31t47 70l127 -31q-35 -164 -165 -218q-46 -20 -105 -20q-112 -1 -184 72q-72 72 -86 166l143 39
q12 -41 43 -75t88 -34z" />
    <glyph glyph-name="abreve" unicode="&#x103;" horiz-adv-x="1099" 
d="M496 446q-142 0 -142 -118t129 -117q77 0 158 59v176h-145zM565 1106q383 0 383 -348v-557l37 -37h90v-164h-321q-61 0 -78 29q-16 29 -17 61v39h-10q-67 -90 -184 -132q-47 -17 -117 -17q-144 0 -221 86q-78 86 -79 236q-1 151 97 235t267 84h229v88q1 107 -21 141
q-41 64 -161 63q-41 0 -90 -6l-31 -30v-138h-199v301q231 66 426 66zM545 1376q57 0 92 31t47 70l127 -31q-35 -164 -165 -218q-46 -20 -105 -20t-105 20q-90 38 -136 129q-22 42 -30 89l144 39q12 -41 43 -75t88 -34z" />
    <glyph glyph-name="Aogonek" unicode="&#x104;" horiz-adv-x="1355" 
d="M463 565h334l-174 500zM893 -199q0 120 143 199h-217v174h74l31 33l-58 164h-465l-51 -164l33 -33h88v-174h-487v174h71l37 37l434 1227h291l455 -1231l35 -33h71v-174h-71q-203 -39 -203 -128t29.5 -109.5t67.5 -20.5t73 12.5t47 22.5l43 -86q-35 -25 -95.5 -42.5
t-125.5 -17.5q-250 0 -250 170z" />
    <glyph glyph-name="aogonek" unicode="&#x105;" horiz-adv-x="1099" 
d="M496 446q-142 0 -142 -118t129 -117q73 0 158 59v176h-145zM565 1106q383 0 383 -348v-557l37 -37h90v-164h-80q-202 -39 -202 -128t29.5 -109.5t67.5 -20.5t72.5 12.5t47.5 22.5l43 -86q-84 -60 -222 -60q-249 0 -249 170q0 124 147 199q-47 6 -58.5 33.5t-11.5 56.5v39
h-10q-67 -90 -149 -119.5t-152 -29.5q-144 0 -222.5 87t-78.5 236q0 150 98.5 234t266.5 84h229v88q0 105 -31 154.5t-151 49.5q-41 0 -90 -6l-31 -30v-138h-199v301q231 66 426 66z" />
    <glyph glyph-name="Cacute" unicode="&#x106;" horiz-adv-x="1230" 
d="M76 712q0 365 192 553q192 189 525 189q185 0 344 -43v-389h-199v174l-35 35q-54 8 -134 8q-79 0 -151 -37q-194 -100 -194 -467q0 -271 84 -395q91 -137 301 -137h60q28 0 57 4l37 37v188h198v-371q-179 -83 -405 -81q-499 0 -634 404q-46 138 -46 328zM733 1530l-86 94
l268 272h54l145 -180l-340 -186h-41z" />
    <glyph glyph-name="cacute" unicode="&#x107;" horiz-adv-x="956" 
d="M604 1182l-86 94l268 272h54l145 -180l-340 -186h-41zM885 61q-81 -81 -309 -81q-220 0 -370 141q-149 141 -149 413t156 422t393 150q142 0 281 -45v-348h-199v166l-37 34q-8 2 -22 2q-131 0 -189 -96t-59 -278q0 -361 287 -361q78 0 142 18q65 18 75 21v-158z" />
    <glyph glyph-name="Ccircumflex" unicode="&#x108;" horiz-adv-x="1230" 
d="M76 712q0 365 192 553q192 189 525 189q185 0 344 -43v-389h-199v174l-35 35q-54 8 -134 8q-79 0 -151 -37q-194 -100 -194 -467q0 -271 84 -395q91 -137 301 -137h60q28 0 57 4l37 37v188h198v-371q-179 -83 -405 -81q-499 0 -634 404q-46 138 -46 328zM492 1530l-60 72
l287 301h100l287 -301l-59 -72h-48l-229 141l-231 -141h-47z" />
    <glyph glyph-name="ccircumflex" unicode="&#x109;" horiz-adv-x="956" 
d="M332 1182l-56 67l281 299h94l281 -299l-55 -67h-46l-227 149l-227 -149h-45zM885 61q-81 -81 -309 -81q-220 0 -370 141q-149 141 -149 413t156 422t393 150q142 0 281 -45v-348h-199v166l-37 34q-8 2 -22 2q-131 0 -189 -96t-59 -278q0 -361 287 -361q78 0 142 18
q65 18 75 21v-158z" />
    <glyph glyph-name="Cdotaccent" unicode="&#x10a;" horiz-adv-x="1230" 
d="M598 1699q0 68 50 116q50 47 105 48q133 2 181 -101q14 -30 14 -64q0 -68 -52 -116t-125 -48t-123 48q-50 49 -50 117zM76 712q0 365 192 553q192 189 525 189q185 0 344 -43v-389h-199v174l-35 35q-54 8 -134 8q-79 0 -151 -37q-194 -100 -194 -467q0 -271 84 -395
q91 -137 301 -137h60q28 0 57 4l37 37v188h198v-371q-179 -83 -405 -81q-499 0 -634 404q-46 138 -46 328z" />
    <glyph glyph-name="cdotaccent" unicode="&#x10b;" horiz-adv-x="956" 
d="M885 61q-81 -81 -309 -81q-220 0 -370 141q-149 141 -149 413t156 422t393 150q142 0 281 -45v-348h-199v166l-37 34q-8 2 -22 2q-131 0 -189 -96t-59 -278q0 -361 287 -361q78 0 142 18q65 18 75 21v-158zM428 1351q0 69 50 116t106 48q131 2 180 -101q14 -30 14 -64
q0 -68 -52 -116t-124 -48q-37 0 -68 13q-66 27 -93 89q-13 30 -13 63z" />
    <glyph glyph-name="Ccaron" unicode="&#x10c;" horiz-adv-x="1230" 
d="M76 712q0 365 192 553q192 189 525 189q185 0 344 -43v-389h-199v174l-35 35q-54 8 -134 8q-79 0 -151 -37q-194 -100 -194 -467q0 -271 84 -395q91 -137 301 -137h60q28 0 57 4l37 37v188h198v-371q-179 -83 -405 -81q-499 0 -634 404q-46 138 -46 328zM1053 1903
l59 -72l-287 -301h-100l-289 301l60 72h47l231 -142l232 142h47z" />
    <glyph glyph-name="ccaron" unicode="&#x10d;" horiz-adv-x="956" 
d="M883 1554l59 -71l-287 -301h-100l-287 301l60 71h47l229 -141l232 141h47zM885 61q-81 -81 -309 -81q-220 0 -370 141q-149 141 -149 413t156 422t393 150q142 0 281 -45v-348h-199v166l-37 34q-8 2 -22 2q-131 0 -189 -96t-59 -278q0 -361 287 -361q78 0 142 18
q65 18 75 21v-158z" />
    <glyph glyph-name="Dcaron" unicode="&#x10e;" horiz-adv-x="1441" 
d="M541 213h151q178 0 251 121t74 385q1 265 -72 384q-73 118 -253 118h-151v-1008zM82 174h90l37 37v1012l-37 37h-90v174h610q312 0 493 -177t181 -533q0 -357 -181 -540q-181 -184 -493 -184h-610v174zM971 1903l59 -72l-287 -301h-100l-289 301l60 72h47l231 -142
l232 142h47z" />
    <glyph glyph-name="dcaron" unicode="&#x10f;" horiz-adv-x="1269" 
d="M1237 1192v405h223v-124l-39 -281h-184zM571 885q-92 0 -138 -82t-46 -269t45 -257t138 -70q94 0 167 53v557q-74 68 -166 68zM496 1106q134 0 241 -107v285l-37 37h-90v174h344q62 0 78 -29t17 -61v-1204l36 -37h91v-164h-326q-61 0 -78 29q-16 29 -16 61v39h-6
q-111 -150 -292 -151t-289 143t-108 409t125 420q125 156 310 156z" />
    <glyph glyph-name="Dcroat" unicode="&#x110;" horiz-adv-x="1441" 
d="M541 805h305v-150h-305v-440h151q179 0 252.5 123t73.5 386t-73 381t-253 118h-151v-418zM92 805h117v420l-37 37h-90v174h610q312 0 493 -177t181 -534q0 -358 -180.5 -540.5t-493.5 -182.5h-610v174h90l37 37v442h-117v150z" />
    <glyph glyph-name="dcroat" unicode="&#x111;" horiz-adv-x="1208" 
d="M571 885q-92 0 -138 -82t-46 -269t45 -257t138 -70t167 53v557q-74 68 -166 68zM496 1106q134 0 241 -107v148h-235v123h235v14l-37 37h-90v174h344q61 0 78 -28.5t17 -61.5v-135h137v-123h-137v-946l36 -37h91v-164h-326q-61 0 -77.5 28.5t-16.5 61.5v39h-6
q-112 -152 -292 -152t-288.5 143t-108.5 409t126 421.5t309 155.5z" />
    <glyph glyph-name="Emacron" unicode="&#x112;" horiz-adv-x="1284" 
d="M541 1229v-398h223l35 33v82h174v-428h-174v82l-33 31h-225v-426h440l37 35v163h190v-403h-1126v174h90l37 37v1012l-37 37h-90v174h1106v-404h-191v164l-36 35h-420zM426 1794h541v-180h-541v180z" />
    <glyph glyph-name="emacron" unicode="&#x113;" horiz-adv-x="1021" 
d="M532 909q-76 1 -110 -67t-41 -209h283v72q0 104 -28 154t-104 50zM59 520q0 276 135 435q125 151 338 151q214 0 324 -120t111 -320v-168l-37 -39h-549q16 -154 94 -216q79 -63 181 -63t164 18t89 25v-168q-109 -77 -344 -75q-345 0 -465 296q-41 102 -41 244zM276 1446
h541v-180h-541v180z" />
    <glyph glyph-name="Ebreve" unicode="&#x114;" horiz-adv-x="1284" 
d="M541 1229v-398h223l35 33v82h174v-428h-174v82l-33 31h-225v-426h440l37 35v163h190v-403h-1126v174h90l37 37v1012l-37 37h-90v174h1106v-404h-191v164l-36 35h-420zM702 1724q57 0 93 31q35 31 47 70l127 -31q-35 -164 -165 -218q-46 -20 -106 -20q-166 -1 -240 149
q-22 42 -30 89l143 39q12 -41 43 -75t88 -34z" />
    <glyph glyph-name="ebreve" unicode="&#x115;" horiz-adv-x="1021" 
d="M532 909q-76 1 -110 -67t-41 -209h283v72q0 104 -28 154t-104 50zM59 520q0 276 135 435q125 151 338 151q214 0 324 -120t111 -320v-168l-37 -39h-549q16 -154 94 -216q79 -63 181 -63t164 18t89 25v-168q-109 -77 -344 -75q-345 0 -465 296q-41 102 -41 244zM549 1376
q57 0 92 31t47 70l127 -31q-35 -164 -165 -218q-46 -20 -105 -20t-105 20q-90 38 -136 129q-22 42 -30 89l144 39q12 -41 43 -75t88 -34z" />
    <glyph glyph-name="Edotaccent" unicode="&#x116;" horiz-adv-x="1284" 
d="M520 1699q0 66 49 114t106 50q133 2 181 -101q14 -30 14 -64q0 -68 -52 -116t-124 -48q-37 0 -68 13q-66 27 -93 89q-13 30 -13 63zM541 1229v-398h223l35 33v82h174v-428h-174v82l-33 31h-225v-426h440l37 35v163h190v-403h-1126v174h90l37 37v1012l-37 37h-90v174h1106
v-404h-191v164l-36 35h-420z" />
    <glyph glyph-name="edotaccent" unicode="&#x117;" horiz-adv-x="1021" 
d="M532 909q-76 1 -110 -67t-41 -209h283v72q0 104 -28 154t-104 50zM59 520q0 276 135 435q125 151 338 151q214 0 324 -120t111 -320v-168l-37 -39h-549q16 -154 94 -216q79 -63 181 -63t164 18t89 25v-168q-109 -77 -344 -75q-345 0 -465 296q-41 102 -41 244zM721 1350
q0 -68 -52 -116t-125 -48q-74 0 -124 48t-49 118q0 69 50 115q50 47 106 48q131 2 180 -101q14 -30 14 -64z" />
    <glyph glyph-name="Eogonek" unicode="&#x118;" horiz-adv-x="1282" 
d="M682 -199q0 120 143 199h-743v174h90l37 37v1012l-37 37h-90v174h1106v-404h-191v164l-36 35h-420v-398h223l35 33v82h174v-428h-174v82l-33 31h-225v-426h440l37 35v163h190v-403h-112q-203 -39 -203 -128t29.5 -109.5t67.5 -20.5t73 12.5t47 22.5l43 -86
q-35 -25 -95.5 -42.5t-125.5 -17.5q-250 0 -250 170z" />
    <glyph glyph-name="eogonek" unicode="&#x119;" horiz-adv-x="1015" 
d="M526.5 909q-75.5 0 -109.5 -67.5t-42 -208.5h282v72q0 104 -27.5 154t-103 50zM618 -369q-249 0 -249 170q0 111 116 183q-188 21 -310 155.5t-122 395.5t130.5 416t342.5 155q213 0 324 -120t111 -320v-168l-37 -39h-547q16 -154 93.5 -216.5t179.5 -62.5t164.5 17.5
t88.5 25.5v-168q-49 -34 -121 -51q-92 -29 -147 -66.5t-55 -95.5t29.5 -79t67.5 -21t72.5 12.5t47.5 22.5l43 -86q-84 -60 -222 -60z" />
    <glyph glyph-name="Ecaron" unicode="&#x11a;" horiz-adv-x="1284" 
d="M541 1229v-398h223l35 33v82h174v-428h-174v82l-33 31h-225v-426h440l37 35v163h190v-403h-1126v174h90l37 37v1012l-37 37h-90v174h1106v-404h-191v164l-36 35h-420zM975 1903l59 -72l-286 -301h-101l-289 301l60 72h47l231 -142l232 142h47z" />
    <glyph glyph-name="ecaron" unicode="&#x11b;" horiz-adv-x="1021" 
d="M825 1554l60 -71l-287 -301h-100l-287 301l59 71h47l230 -141l231 141h47zM532 909q-76 1 -110 -67t-41 -209h283v72q0 104 -28 154t-104 50zM59 520q0 276 135 435q125 151 338 151q214 0 324 -120t111 -320v-168l-37 -39h-549q16 -154 94 -216q79 -63 181 -63t164 18
t89 25v-168q-109 -77 -344 -75q-345 0 -465 296q-41 102 -41 244z" />
    <glyph glyph-name="Gcircumflex" unicode="&#x11c;" horiz-adv-x="1316" 
d="M485 1530l-59 72l287 301h100l287 -301l-60 -72h-47l-229 141l-232 -141h-47zM788 1454q211 0 373 -43v-389h-190v182l-33 31q-77 14 -166 14q-270 0 -330 -294q-18 -93 -18 -219q0 -418 201 -519q74 -37 184 -37h68v312l-37 36h-78v174h502v-174h-60l-35 -36v-431
q-67 -27 -165 -55t-252 -26q-676 0 -676 737q0 363 190 550t522 187z" />
    <glyph glyph-name="gcircumflex" unicode="&#x11d;" horiz-adv-x="1114" 
d="M250 1182l-55 67l280 299h94l281 -299l-55 -67h-45l-228 149l-227 -149h-45zM303 -87q0 -58 54 -93t169 -35t177 34q75 38 75 102q0 63 -35 81t-100 18h-303q-37 -49 -37 -107zM666 759q0 189 -138 189t-139 -189q0 -189 137 -190q140 1 140 190zM1061 1085v-174h-113
l-10 -10q31 -61 31 -145q0 -166 -127 -256t-316 -88q-74 0 -137 12q-41 -35 -41 -74q0 -59 88 -59h275q255 0 333 -148q29 -53 29 -140t-46 -159q-136 -213 -538 -213q-336 0 -424 116q-32 42 -32 103q0 116 164 195q-55 27 -89 76t-34 115q0 137 178 239q-166 90 -166 285
q0 167 122 255q122 89 320 91q92 0 166 -21h367z" />
    <glyph glyph-name="Gbreve" unicode="&#x11e;" horiz-adv-x="1316" 
d="M788 1454q211 0 373 -43v-389h-190v182l-33 31q-77 14 -166 14q-270 0 -330 -294q-18 -93 -18 -219q0 -418 201 -519q74 -37 184 -37h68v312l-37 36h-78v174h502v-174h-60l-35 -36v-431q-67 -27 -165 -55t-252 -26q-676 0 -676 737q0 363 190 550t522 187zM774 1724
q57 0 92 31t47 70l127 -31q-35 -163 -164 -218q-46 -20 -106 -20q-112 -1 -184 72q-72 72 -86 166l143 39q12 -41 43 -75t88 -34z" />
    <glyph glyph-name="gbreve" unicode="&#x11f;" horiz-adv-x="1114" 
d="M303 -87q0 -58 54 -93t169 -35t177 34q75 38 75 102q0 63 -35 81t-100 18h-303q-37 -49 -37 -107zM666 759q0 189 -138 189t-139 -189q0 -189 137 -190q140 1 140 190zM1061 1085v-174h-113l-10 -10q31 -61 31 -145q0 -166 -127 -256t-316 -88q-74 0 -137 12
q-41 -35 -41 -74q0 -59 88 -59h275q255 0 333 -148q29 -53 29 -140t-46 -159q-136 -213 -538 -213q-336 0 -424 116q-32 42 -32 103q0 116 164 195q-55 27 -89 76t-34 115q0 137 178 239q-166 90 -166 285q0 167 122 255q122 89 320 91q92 0 166 -21h367zM524 1376
q57 0 92 31t48 70l127 -31q-35 -164 -165 -218q-46 -20 -106 -20q-166 -1 -240 149q-22 42 -30 89l143 39q12 -41 43 -75t88 -34z" />
    <glyph glyph-name="Gdotaccent" unicode="&#x120;" horiz-adv-x="1316" 
d="M592 1699q0 68 50 116q50 47 105 48q133 2 181 -101q14 -30 14 -64q0 -68 -52 -116t-125 -48t-123 48q-50 49 -50 117zM788 1454q211 0 373 -43v-389h-190v182l-33 31q-77 14 -166 14q-270 0 -330 -294q-18 -93 -18 -219q0 -418 201 -519q74 -37 184 -37h68v312l-37 36
h-78v174h502v-174h-60l-35 -36v-431q-67 -27 -165 -55t-252 -26q-676 0 -676 737q0 363 190 550t522 187z" />
    <glyph glyph-name="gdotaccent" unicode="&#x121;" horiz-adv-x="1114" 
d="M303 -87q0 -58 54 -93t169 -35t177 34q75 38 75 102q0 63 -35 81t-100 18h-303q-37 -49 -37 -107zM666 759q0 189 -138 189t-139 -189q0 -189 137 -190q140 1 140 190zM1061 1085v-174h-113l-10 -10q31 -61 31 -145q0 -166 -127 -256t-316 -88q-74 0 -137 12
q-41 -35 -41 -74q0 -59 88 -59h275q255 0 333 -148q29 -53 29 -140t-46 -159q-136 -213 -538 -213q-336 0 -424 116q-32 42 -32 103q0 116 164 195q-55 27 -89 76t-34 115q0 137 178 239q-166 90 -166 285q0 167 122 255q122 89 320 91q92 0 166 -21h367zM346 1351
q0 69 50 116t106 48q131 2 180 -101q14 -30 14 -64q0 -68 -52 -116t-124 -48q-37 0 -68 13q-66 27 -93 89q-13 30 -13 63z" />
    <glyph glyph-name="uni0122" unicode="&#x122;" horiz-adv-x="1316" 
d="M602 -270q0 151 150 151q76 0 114 -38t37 -91q0 -53 -31 -110l-124 -230l-115 60l57 98l-18 41q-70 33 -70 119zM788 1454q211 0 373 -43v-389h-190v182l-33 31q-77 14 -166 14q-270 0 -330 -294q-18 -93 -18 -219q0 -418 201 -519q74 -37 184 -37h68v312l-37 36h-78v174
h502v-174h-60l-35 -36v-431q-67 -27 -165 -55t-252 -26q-676 0 -676 737q0 363 190 550t522 187z" />
    <glyph glyph-name="uni0123" unicode="&#x123;" horiz-adv-x="1114" 
d="M547 1186q-76 0 -114 38t-38 91t31 110l125 230l115 -60l-58 -98l19 -41q70 -33 69 -119q0 -151 -149 -151zM303 -87q0 -58 54 -93t169 -35t177 34q75 38 75 102q0 63 -35 81t-100 18h-303q-37 -49 -37 -107zM666 759q0 189 -138 189t-139 -189q0 -189 137 -190
q140 1 140 190zM1061 1085v-174h-113l-10 -10q31 -61 31 -145q0 -166 -127 -256t-316 -88q-74 0 -137 12q-41 -35 -41 -74q0 -59 88 -59h275q255 0 333 -148q29 -53 29 -140t-46 -159q-136 -213 -538 -213q-336 0 -424 116q-32 42 -32 103q0 116 164 195q-55 27 -89 76
t-34 115q0 137 178 239q-166 90 -166 285q0 167 122 255q122 89 320 91q92 0 166 -21h367z" />
    <glyph glyph-name="Hcircumflex" unicode="&#x124;" horiz-adv-x="1515" 
d="M975 625h-434v-414l34 -37h93v-174h-586v174h90l37 37v1012l-37 37h-90v174h586v-174h-93l-34 -37v-385h434v385l-37 37h-90v174h586v-174h-93l-34 -37v-1012l34 -37h93v-174h-586v174h90l37 37v414zM475 1530l-59 72l286 301h101l287 -301l-60 -72h-47l-229 141
l-232 -141h-47z" />
    <glyph glyph-name="hcircumflex" unicode="&#x125;" horiz-adv-x="1243" 
d="M43 1591l-55 68l280 299h94l281 -299l-55 -68h-45l-228 150l-227 -150h-45zM768 1106q315 0 315 -328v-577l37 -37h90v-164h-540v164h67l35 37v528q0 64 -16 91q-33 54 -120 54t-161 -55v-618l35 -37h68v-164h-541v164h90l37 37v1083l-37 37h-90v174h344q61 0 77 -29
t17 -61v-434q120 135 293 135z" />
    <glyph glyph-name="Hbar" unicode="&#x126;" horiz-adv-x="1515" 
d="M975 838v129h-434v-129h434zM82 1116h127v107l-37 37h-90v174h586v-174h-93l-34 -37v-107h434v107l-37 37h-90v174h586v-174h-93l-34 -37v-107h127v-149h-127v-756l34 -37h93v-174h-586v174h90l37 37v414h-434v-414l34 -37h93v-174h-586v174h90l37 37v756h-127v149z" />
    <glyph glyph-name="hbar" unicode="&#x127;" horiz-adv-x="1243" 
d="M475 973q119 135 311 135q154 0 225.5 -89t71.5 -239v-577l37 -37h90v-164h-540v164h67l35 37v528q0 64 -16.5 90.5t-43 41t-94.5 14.5t-143 -56v-618l35 -37h68v-164h-541v164h90l37 37v944h-129v123h129v16l-37 37h-90v174h344q61 0 77.5 -28.5t16.5 -61.5v-137h244
v-123h-244v-174z" />
    <glyph glyph-name="Itilde" unicode="&#x128;" horiz-adv-x="749" 
d="M82 1260v174h586v-174h-93l-34 -37v-1012l34 -37h93v-174h-586v174h90l37 37v1012l-37 37h-90zM214 1827q65 -1 134 -29q68 -28 104 -42t76 -13q40 0 50 29v67h127v-92q-1 -105 -49 -151t-120 -46t-138 26t-99 36q-33 12 -67 12t-48 -18v-78h-131v84q0 125 48 170t113 45
z" />
    <glyph glyph-name="itilde" unicode="&#x129;" horiz-adv-x="653" 
d="M397 1085q61 0 78 -28q16 -29 17 -62v-794l34 -37h92v-164h-565v164h90l37 37v673l-37 37h-90v174h344zM482 1395q42 0 48 28v68h127v-92q0 -105 -48 -151t-123 -46t-166 37t-134 37q-42 0 -49 -19v-77h-131v84q0 125 48 170t106 45q58 1 97 -13q38 -14 75 -29
q36 -15 72 -29t78 -13z" />
    <glyph glyph-name="Imacron" unicode="&#x12a;" horiz-adv-x="749" 
d="M82 1260v174h586v-174h-93l-34 -37v-1012l34 -37h93v-174h-586v174h90l37 37v1012l-37 37h-90zM109 1794h540v-180h-540v180z" />
    <glyph glyph-name="imacron" unicode="&#x12b;" horiz-adv-x="653" 
d="M397 1085q61 0 78 -28q16 -29 17 -62v-794l34 -37h92v-164h-565v164h90l37 37v673l-37 37h-90v174h344zM61 1446h541v-180h-541v180z" />
    <glyph glyph-name="Iogonek" unicode="&#x12e;" horiz-adv-x="745" 
d="M166 -199q0 120 143 199h-229v174h90l37 37v1012l-37 37h-90v174h586v-174h-93l-34 -37v-1012l34 -37h93v-174h-86q-203 -39 -203 -128t29.5 -109.5t67.5 -20.5t73 12.5t47 22.5l43 -86q-35 -25 -95.5 -42.5t-125.5 -17.5q-250 0 -250 170z" />
    <glyph glyph-name="iogonek" unicode="&#x12f;" horiz-adv-x="653" 
d="M143 1362q0 76 43 120t131.5 44t131.5 -44t43 -120t-43 -120t-131.5 -44t-131.5 44t-43 120zM123 -199q0 120 143 199h-213v164h90l37 37v673l-37 37h-90v174h344q61 0 78 -28.5t17 -61.5v-794l34 -37h92v-164h-81q-203 -39 -203 -128t29.5 -109.5t67.5 -20.5t73 12.5
t47 22.5l43 -86q-35 -25 -95.5 -42.5t-125.5 -17.5q-250 0 -250 170z" />
    <glyph glyph-name="Idotaccent" unicode="&#x130;" horiz-adv-x="749" 
d="M82 1260v174h586v-174h-93l-34 -37v-1012l34 -37h93v-174h-586v174h90l37 37v1012l-37 37h-90zM203 1699q0 68 50 116q50 47 105 48q133 2 181 -101q14 -30 14 -64q0 -68 -52 -116t-125 -48q-74 0 -124 48q-50 49 -49 117z" />
    <glyph glyph-name="dotlessi" unicode="&#x131;" horiz-adv-x="653" 
d="M397 1085q61 0 78 -28.5t17 -61.5v-794l34 -37h92v-164h-565v164h90l37 37v673l-37 37h-90v174h344z" />
    <glyph glyph-name="IJ" unicode="&#x132;" horiz-adv-x="1382" 
d="M752 1260v174h585v-174h-92l-35 -37v-820q0 -180 -134 -301.5t-394 -121.5q-195 0 -326 63q-59 27 -98 63v320h213v-174l31 -33q50 -24 156 -24t163.5 39.5t57.5 140.5v848l-37 37h-90zM72 1260v174h585v-174h-92l-35 -37v-527l35 -37h92v-174h-585v174h90l37 37v527
l-37 37h-90z" />
    <glyph glyph-name="ij" unicode="&#x133;" horiz-adv-x="1333" 
d="M143 1362q0 76 43 120t131 44q87 0 131 -44t44 -120t-43 -120t-131 -44t-132 44q-43 44 -43 120zM397 1085q61 0 78 -28q16 -29 17 -62v-794l34 -37h92v-164h-565v164h90l37 37v673l-37 37h-90v174h344zM793 -213q94 0 94 215v872l-37 37h-90v174h344q61 0 78 -28
q16 -29 16 -62v-975q0 -164 -89 -264q-109 -125 -322 -125q-120 0 -205 23v252h182v-92l27 -27h2zM850 1362q0 76 43 120t131 44t131 -44t43 -120t-43 -120t-131 -44t-131 44t-43 120z" />
    <glyph glyph-name="Jcircumflex" unicode="&#x134;" horiz-adv-x="1085" 
d="M451 1260v174h585v-174h-92l-35 -37v-813q0 -288 -261 -395q-89 -35 -205 -35q-194 1 -312 63q-55 27 -92 63v320h213v-174l31 -33q55 -25 104 -24q104 0 148 43q43 43 43 159v826l-37 37h-90zM467 1534l-59 72l286 301h101l286 -301l-59 -72h-47l-230 141l-231 -141h-47
z" />
    <glyph glyph-name="jcircumflex" unicode="&#x135;" horiz-adv-x="614" 
d="M0 1182l-55 67l280 299h94l281 -299l-55 -67h-45l-228 149l-227 -149h-45zM68 -369q-120 0 -205 23v252h182v-92l27 -27h2q94 0 94 215v872l-37 37h-90v174h344q61 0 77.5 -28.5t16.5 -61.5v-975q0 -257 -145.5 -323t-265.5 -66z" />
    <glyph glyph-name="uni0136" unicode="&#x136;" horiz-adv-x="1447" 
d="M600 -270q0 151 150 151q76 0 114 -38t37 -91q0 -53 -31 -110l-125 -230l-114 60l57 98l-18 41q-70 33 -70 119zM1434 174v-174h-580v174h76l22 25l-313 448h-98v-436l34 -37h93v-174h-586v174h90l37 37v1012l-37 37h-90v174h586v-174h-93l-34 -37v-400h90l373 414
l-21 23h-78v174h496v-174h-66l-49 -31l-395 -428l426 -596l39 -31h78z" />
    <glyph glyph-name="uni0137" unicode="&#x137;" horiz-adv-x="1239" 
d="M473 -270q0 151 150 151q75 0 113 -38t38 -91t-31 -110l-125 -230l-114 60l57 98l-18 41q-70 33 -70 119zM1214 164v-164h-518v164h47l23 26l-207 320h-84v-309l35 -37h68v-164h-541v164h90l37 37v1083l-37 37h-90v174h344q61 0 77 -29t17 -61v-746h72l262 236l-14 16
h-60v174h457v-174h-84l-43 -26l-268 -234l315 -458l35 -29h67z" />
    <glyph glyph-name="kgreenlandic" unicode="&#x138;" horiz-adv-x="1255" 
d="M594 0h-541v164h90l37 37v673l-37 37h-90v174h344q61 0 78 -28.5t17 -61.5v-336h71l262 236l-14 16h-59v174h456v-174h-84l-43 -26l-268 -232l315 -460l35 -29h68v-164h-518v164h47l22 26l-207 320h-83v-309l34 -37h68v-164z" />
    <glyph glyph-name="Lacute" unicode="&#x139;" horiz-adv-x="1169" 
d="M342 1530l-86 94l268 272h54l145 -180l-340 -186h-41zM541 209h356l37 35v188h190v-432h-1042v174h90l37 37v1012l-37 37h-90v174h586v-174h-93l-34 -37v-1014z" />
    <glyph glyph-name="lacute" unicode="&#x13a;" horiz-adv-x="638" 
d="M319 1591l-86 95l269 272h53l145 -180l-340 -187h-41zM381 1495q61 0 77 -29t17 -61v-1204l35 -37h92v-164h-565v164h90l37 37v1083l-37 37h-90v174h344z" />
    <glyph glyph-name="uni013B" unicode="&#x13b;" horiz-adv-x="1169" 
d="M688 -119q76 0 114 -38q38 -39 38 -89t-31 -112l-125 -230l-115 60l58 98l-19 41q-70 33 -69 119q0 151 149 151zM541 209h356l37 35v188h190v-432h-1042v174h90l37 37v1012l-37 37h-90v174h586v-174h-93l-34 -37v-1014z" />
    <glyph glyph-name="uni013C" unicode="&#x13c;" horiz-adv-x="638" 
d="M172 -270q0 151 150 151q76 0 114 -38t37 -91q0 -53 -31 -110l-125 -230l-114 60l57 98l-18 41q-70 33 -70 119zM381 1495q61 0 77 -29t17 -61v-1204l35 -37h92v-164h-565v164h90l37 37v1083l-37 37h-90v174h344z" />
    <glyph glyph-name="Lcaron" unicode="&#x13d;" horiz-adv-x="1183" 
d="M899 1192v405h223v-124l-39 -281h-184zM539 209h356l37 35v188h190v-432h-1042v174h90l37 37v1012l-37 37h-90v174h586v-174h-93l-34 -37v-1014z" />
    <glyph glyph-name="lcaron" unicode="&#x13e;" horiz-adv-x="700" 
d="M666 1192v405h223v-124l-39 -281h-184zM381 1495q61 0 77 -29t17 -61v-1204l35 -37h92v-164h-565v164h90l37 37v1083l-37 37h-90v174h344z" />
    <glyph glyph-name="Ldot" unicode="&#x13f;" 
d="M541 209h356l37 35v188h190v-432h-1042v174h90l37 37v1012l-37 37h-90v174h586v-174h-93l-34 -37v-1014zM817 774q0 69 51 117q51 47 124 47q74 0 124 -49t51 -116q0 -66 -51 -115q-51 -48 -122 -49q-72 -1 -125 47q-52 49 -52 118z" />
    <glyph glyph-name="ldot" unicode="&#x140;" horiz-adv-x="993" 
d="M989 752q0 -68 -52 -116t-125 -48q-74 0 -124 48t-49 118q0 69 50 115q50 47 106 48q131 2 180 -101q14 -30 14 -64zM381 1495q61 0 77 -29t17 -61v-1204l35 -37h92v-164h-565v164h90l37 37v1083l-37 37h-90v174h344z" />
    <glyph glyph-name="Lslash" unicode="&#x141;" horiz-adv-x="1171" 
d="M543 209h356l37 35v188h190v-432h-1042v174h90l37 37v336l-150 -70v172l150 70v504l-37 37h-90v174h586v-174h-92l-35 -37v-351l225 107v-172l-225 -107v-491z" />
    <glyph glyph-name="lslash" unicode="&#x142;" horiz-adv-x="659" 
d="M383 1495q61 0 77.5 -28.5t16.5 -61.5v-506l162 84v-172l-162 -84v-526l35 -37h92v-164h-565v164h90l37 37v364l-164 -84v172l164 84v547l-37 37h-90v174h344z" />
    <glyph glyph-name="Nacute" unicode="&#x143;" horiz-adv-x="1497" 
d="M725 1530l-86 94l268 272h54l145 -180l-340 -186h-41zM80 0v174h90l37 37v1012l-37 37h-90v174h414l565 -871v660l-37 37h-90v174h500v-174h-93l-34 -37v-1229h-234l-618 950v-733l34 -37h93v-174h-500z" />
    <glyph glyph-name="nacute" unicode="&#x144;" horiz-adv-x="1261" 
d="M635 1182l-86 94l268 272h53l146 -180l-340 -186h-41zM479 958q127 148 321 148q155 0 226 -88q72 -88 74 -240v-577l37 -37h90v-164h-541v164h68l34 37v528q0 64 -16 91q-33 54 -121 54t-159 -55v-618l34 -37h68v-164h-541v164h90l37 37v673l-37 37h-90v174h326
q61 0 78 -28q16 -29 16 -62v-37h6z" />
    <glyph glyph-name="uni0145" unicode="&#x145;" horiz-adv-x="1497" 
d="M608 -270q0 151 150 151q76 0 114 -38q38 -37 37 -89q0 -52 -30 -112l-125 -230l-115 60l57 98l-18 41q-70 33 -70 119zM80 0v174h90l37 37v1012l-37 37h-90v174h414l565 -871v660l-37 37h-90v174h500v-174h-93l-34 -37v-1229h-234l-618 950v-733l34 -37h93v-174h-500z
" />
    <glyph glyph-name="uni0146" unicode="&#x146;" horiz-adv-x="1261" 
d="M487 -270q0 151 150 151q76 0 114 -38q72 -72 7 -201l-125 -230l-115 60l57 98l-18 41q-70 33 -70 119zM479 958q127 148 321 148q155 0 226 -88q72 -88 74 -240v-577l37 -37h90v-164h-541v164h68l34 37v528q0 64 -16 91q-33 54 -121 54t-159 -55v-618l34 -37h68v-164
h-541v164h90l37 37v673l-37 37h-90v174h326q61 0 78 -28q16 -29 16 -62v-37h6z" />
    <glyph glyph-name="Ncaron" unicode="&#x147;" horiz-adv-x="1497" 
d="M80 0v174h90l37 37v1012l-37 37h-90v174h414l565 -871v660l-37 37h-90v174h500v-174h-93l-34 -37v-1229h-234l-618 950v-733l34 -37h93v-174h-500zM1044 1903l60 -72l-287 -301h-100l-289 301l59 72h48l231 -142l231 142h47z" />
    <glyph glyph-name="ncaron" unicode="&#x148;" horiz-adv-x="1261" 
d="M913 1554l60 -71l-287 -301h-100l-287 301l59 71h48l229 -141l231 141h47zM479 958q127 148 321 148q155 0 226 -88q72 -88 74 -240v-577l37 -37h90v-164h-541v164h68l34 37v528q0 64 -16 91q-33 54 -121 54t-159 -55v-618l34 -37h68v-164h-541v164h90l37 37v673l-37 37
h-90v174h326q61 0 78 -28q16 -29 16 -62v-37h6z" />
    <glyph glyph-name="napostrophe" unicode="&#x149;" horiz-adv-x="1261" 
d="M57 1485q0 151 150 151q76 0 114 -38q72 -72 7 -201l-125 -230l-115 60l57 98l-18 41q-70 33 -70 119zM479 958q127 148 321 148q155 0 226 -88q72 -88 74 -240v-577l37 -37h90v-164h-541v164h68l34 37v528q0 64 -16 91q-33 54 -121 54t-159 -55v-618l34 -37h68v-164
h-541v164h90l37 37v673l-37 37h-90v174h326q61 0 78 -28q16 -29 16 -62v-37h6z" />
    <glyph glyph-name="Omacron" unicode="&#x14c;" horiz-adv-x="1380" 
d="M424 717q0 -266 59 -392t207 -126t207 126t59 392t-59 392t-207 126t-206 -126q-60 -126 -60 -392zM76 716q0 362 169 550t446 188q278 0 445 -187t168 -549q1 -363 -168 -550q-169 -188 -447 -188t-445 187q-168 187 -168 549zM432 1794h541v-180h-541v180z" />
    <glyph glyph-name="omacron" unicode="&#x14d;" horiz-adv-x="1114" 
d="M305 1446h541v-180h-541v180zM731 543q0 180 -37 271t-137 91t-137 -91t-37 -271q0 -179 37 -271t137 -92t137 92t37 271zM1055 543q0 -143 -40 -249q-79 -209 -265 -281q-90 -33 -192 -33q-218 1 -359 145q-140 144 -140 418t141 418q141 145 357 145q217 0 357 -145
q141 -144 141 -418z" />
    <glyph glyph-name="Obreve" unicode="&#x14e;" horiz-adv-x="1380" 
d="M424 717q0 -266 59 -392t207 -126t207 126t59 392t-59 392t-207 126t-206 -126q-60 -126 -60 -392zM76 716q0 362 169 550t446 188q278 0 445 -187t168 -549q1 -363 -168 -550q-169 -188 -447 -188t-445 187q-168 187 -168 549zM709 1724q57 0 92 31t47 70l127 -31
q-35 -164 -165 -218q-46 -20 -105 -20t-105 20q-90 38 -136 129q-22 42 -30 89l144 39q12 -41 43 -75t88 -34z" />
    <glyph glyph-name="obreve" unicode="&#x14f;" horiz-adv-x="1114" 
d="M731 543q0 180 -37 271t-137 91t-137 -91t-37 -271q0 -179 37 -271t137 -92t137 92t37 271zM1055 543q0 -143 -40 -249q-79 -209 -265 -281q-90 -33 -192 -33q-218 1 -359 145q-140 144 -140 418t141 418q141 145 357 145q217 0 357 -145q141 -144 141 -418zM577 1376
q57 0 93 31q35 31 47 70l127 -31q-35 -164 -165 -218q-45 -20 -105 -20q-166 -1 -241 149q-22 42 -30 89l143 39q12 -41 43 -75t88 -34z" />
    <glyph glyph-name="Ohungarumlaut" unicode="&#x150;" horiz-adv-x="1380" 
d="M817 1530l-53 76l248 239h53l123 -139l-330 -176h-41zM539 1530l-74 82l244 284h53l115 -120l-297 -246h-41zM424 717q0 -266 59 -392t207 -126t207 126t59 392t-59 392t-207 126t-206 -126q-60 -126 -60 -392zM76 716q0 362 169 550t446 188q278 0 445 -187t168 -549
q1 -363 -168 -550q-169 -188 -447 -188t-445 187q-168 187 -168 549z" />
    <glyph glyph-name="ohungarumlaut" unicode="&#x151;" horiz-adv-x="1114" 
d="M692 1182l-53 75l248 240h53l123 -139l-330 -176h-41zM414 1182l-74 82l244 284h53l115 -121l-297 -245h-41zM731 543q0 180 -37 271t-137 91t-137 -91t-37 -271q0 -179 37 -271t137 -92t137 92t37 271zM1055 543q0 -143 -40 -249q-79 -209 -265 -281q-90 -33 -192 -33
q-218 1 -359 145q-140 144 -140 418t141 418q141 145 357 145q217 0 357 -145q141 -144 141 -418z" />
    <glyph glyph-name="OE" unicode="&#x152;" horiz-adv-x="2027" 
d="M755 199q118 0 199 34v961q-82 41 -200 41t-177 -32t-93.5 -96.5t-49 -161.5t-14.5 -228t14.5 -228.5t49 -162t94 -96t177.5 -31.5zM248.5 1271.5q172.5 182.5 478.5 182.5q148 0 266 -20h940v-404h-190v164l-37 35h-420v-398h223l35 33v82h174v-428h-174v82l-33 31h-225
v-426h440l37 35v163h191v-403h-967q-119 -20 -263 -20t-265 44t-252 182.5t-131 510.5t172.5 554.5z" />
    <glyph glyph-name="oe" unicode="&#x153;" horiz-adv-x="1671" 
d="M1182 909q-131 0 -150 -276h281v72q0 104 -27.5 154t-103.5 50zM383 542.5q0 -180.5 37 -271.5t137 -91t137 91t37 271.5t-37 271.5t-137 91t-137 -91t-37 -271.5zM59 542.5q0 274.5 140.5 419t360.5 144.5t323 -158q104 158 308 158t314.5 -120t110.5 -320v-168l-37 -39
h-549q16 -154 94 -216.5t180 -62.5t165 17.5t90 25.5v-168q-106 -75 -340 -75t-340 151q-102 -151 -321 -151t-359 144t-140 418.5z" />
    <glyph glyph-name="Racute" unicode="&#x154;" horiz-adv-x="1386" 
d="M541 1233v-459h151q117 0 167 60t50 172q0 114 -50 170t-167 57h-151zM82 1260v174h618q401 0 512 -219q39 -75 39 -171q1 -96 -29 -162q-58 -128 -179 -176q-56 -24 -107 -30v-2q84 -8 138 -53t93 -164l80 -250l41 -33h68v-174h-307q-105 0 -136 106l-96 349
q-19 71 -35 95t-53 23h-188v-362l34 -37h109v-174h-602v174h90l37 37v1012l-37 37h-90zM655 1530l-86 94l269 272h53l145 -180l-340 -186h-41z" />
    <glyph glyph-name="racute" unicode="&#x155;" horiz-adv-x="892" 
d="M451 1182l-86 94l268 272h53l145 -180l-339 -186h-41zM641 164v-164h-588v164h90l37 37v673l-37 37h-90v174h326q61 0 78 -28q16 -29 16 -62v-55h6q70 98 188 145q50 20 111 21l82 -6v-428h-188v143l-35 33q-72 -15 -145 -55v-592l34 -37h115z" />
    <glyph glyph-name="uni0156" unicode="&#x156;" horiz-adv-x="1386" 
d="M635 -270q0 151 149 151q76 0 114 -38t38 -91t-31 -110l-125 -230l-114 60l57 98l-18 41q-70 33 -70 119zM541 1233v-459h151q117 0 167 60t50 172q0 114 -50 170t-167 57h-151zM82 1260v174h618q401 0 512 -219q39 -75 39 -171q1 -96 -29 -162q-58 -128 -179 -176
q-56 -24 -107 -30v-2q84 -8 138 -53t93 -164l80 -250l41 -33h68v-174h-307q-105 0 -136 106l-96 349q-19 71 -35 95t-53 23h-188v-362l34 -37h109v-174h-602v174h90l37 37v1012l-37 37h-90z" />
    <glyph glyph-name="uni0157" unicode="&#x157;" horiz-adv-x="892" 
d="M186 -270q0 151 150 151q76 0 114 -38q72 -72 7 -201l-125 -230l-115 60l57 98l-18 41q-70 33 -70 119zM641 164v-164h-588v164h90l37 37v673l-37 37h-90v174h326q61 0 78 -28q16 -29 16 -62v-55h6q70 98 188 145q50 20 111 21l82 -6v-428h-188v143l-35 33
q-72 -15 -145 -55v-592l34 -37h115z" />
    <glyph glyph-name="Rcaron" unicode="&#x158;" horiz-adv-x="1386" 
d="M541 1233v-459h151q117 0 167 60t50 172q0 114 -50 170t-167 57h-151zM82 1260v174h618q401 0 512 -219q39 -75 39 -171q1 -96 -29 -162q-58 -128 -179 -176q-56 -24 -107 -30v-2q84 -8 138 -53t93 -164l80 -250l41 -33h68v-174h-307q-105 0 -136 106l-96 349
q-19 71 -35 95t-53 23h-188v-362l34 -37h109v-174h-602v174h90l37 37v1012l-37 37h-90zM975 1903l59 -72l-286 -301h-101l-289 301l60 72h47l231 -142l232 142h47z" />
    <glyph glyph-name="rcaron" unicode="&#x159;" horiz-adv-x="892" 
d="M750 1554l59 -71l-287 -301h-100l-287 301l60 71h47l229 -141l231 141h48zM641 164v-164h-588v164h90l37 37v673l-37 37h-90v174h326q61 0 78 -28q16 -29 16 -62v-55h6q70 98 188 145q50 20 111 21l82 -6v-428h-188v143l-35 33q-72 -15 -145 -55v-592l34 -37h115z" />
    <glyph glyph-name="Sacute" unicode="&#x15a;" horiz-adv-x="1144" 
d="M672 1454q158 0 354 -53v-379h-199v170l-34 35q-82 14 -175 14q-94 0 -155 -44t-61 -116t33 -104q65 -62 190 -99q237 -69 344 -167q106 -98 106 -262q0 -230 -151 -351q-151 -120 -404 -119q-252 1 -430 56v397h199v-186l37 -37q82 -16 204 -16t172 50q51 50 52 130
q0 115 -119 168q-45 20 -132 45q-87 24 -167 62t-133 91t-80 125t-27 170t40 177t112 132t169 82t255 29zM600 1530l-86 94l268 272h54l145 -180l-340 -186h-41z" />
    <glyph glyph-name="sacute" unicode="&#x15b;" horiz-adv-x="956" 
d="M504 1182l-86 94l268 272h53l146 -180l-340 -186h-41zM547 1106q119 0 307 -35v-297h-182v107l-35 32q-69 11 -127 11t-100 -29t-41 -76q0 -47 21 -66q41 -36 139 -66q99 -31 169 -61q136 -59 180 -161q21 -51 21 -130t-35 -147t-96 -114q-129 -97 -343 -95
q-214 1 -349 48v305h182v-121l35 -37q78 -10 151 -10q74 0 112 36t38 71t-6 55q-11 36 -68 58q-57 21 -137 44q-247 71 -291 237q-14 53 -14 117t32 124q107 200 437 200z" />
    <glyph glyph-name="Scircumflex" unicode="&#x15c;" horiz-adv-x="1144" 
d="M672 1454q158 0 354 -53v-379h-199v170l-34 35q-82 14 -175 14q-94 0 -155 -44t-61 -116t33 -104q65 -62 190 -99q237 -69 344 -167q106 -98 106 -262q0 -230 -151 -351q-151 -120 -404 -119q-252 1 -430 56v397h199v-186l37 -37q82 -16 204 -16t172 50q51 50 52 130
q0 115 -119 168q-45 20 -132 45q-87 24 -167 62t-133 91t-80 125t-27 170t40 177t112 132t169 82t255 29zM358 1530l-59 72l287 301h100l287 -301l-60 -72h-47l-229 141l-231 -141h-48z" />
    <glyph glyph-name="scircumflex" unicode="&#x15d;" horiz-adv-x="956" 
d="M240 1182l-56 67l281 299h94l281 -299l-56 -67h-45l-227 149l-227 -149h-45zM547 1106q119 0 307 -35v-297h-182v107l-35 32q-69 11 -127 11t-100 -29t-41 -76q0 -47 21 -66q41 -36 139 -66q99 -31 169 -61q136 -59 180 -161q21 -51 21 -130t-35 -147t-96 -114
q-129 -97 -343 -95q-214 1 -349 48v305h182v-121l35 -37q78 -10 151 -10q74 0 112 36t38 71t-6 55q-11 36 -68 58q-57 21 -137 44q-247 71 -291 237q-14 53 -14 117t32 124q107 200 437 200z" />
    <glyph glyph-name="Scedilla" unicode="&#x15e;" horiz-adv-x="1144" 
d="M672 1454q158 0 354 -53v-379h-199v170l-34 35q-82 14 -175 14q-94 0 -155 -44t-61 -116t33 -104q65 -62 190 -99q237 -69 344 -167q106 -98 106 -262q0 -230 -153 -354q-130 -102 -348 -114l-44 -55q195 -9 195 -135q0 -155 -250 -160q-137 0 -221 60l43 86
q77 -43 152 -43q29 0 47 9t18 41q0 57 -170 81v41l66 77q-192 12 -320 52v397h199v-186l37 -37q82 -16 204 -16t172 50q51 50 52 130q0 115 -119 168q-45 20 -132 45q-87 24 -167 62t-133 91t-80 125t-27 170t40 177t112 132t169 82t255 29z" />
    <glyph glyph-name="scedilla" unicode="&#x15f;" horiz-adv-x="956" 
d="M547 1106q119 0 307 -35v-297h-182v107l-35 32q-69 11 -127 11t-100 -29t-41 -76q0 -47 21 -66q41 -36 139 -66q99 -31 169 -61q136 -59 180 -161q21 -51 21 -130t-35 -147q-68 -133 -242 -184q-65 -19 -138 -23l-44 -55q195 -9 195 -135q0 -155 -250 -160
q-137 0 -221 60l43 86q77 -43 151 -43q29 0 48 9q18 9 18 41q0 57 -170 81v41l66 77q-142 8 -244 44v305h182v-121l35 -37q78 -10 151 -10q74 0 112 36t38 71t-6 55q-11 36 -68 58q-57 21 -137 44q-247 71 -291 237q-14 53 -14 117t32 124q107 200 437 200z" />
    <glyph glyph-name="Scaron" unicode="&#x160;" horiz-adv-x="1144" 
d="M672 1454q158 0 354 -53v-379h-199v170l-34 35q-82 14 -175 14q-94 0 -155 -44t-61 -116t33 -104q65 -62 190 -99q237 -69 344 -167q106 -98 106 -262q0 -230 -151 -351q-151 -120 -404 -119q-252 1 -430 56v397h199v-186l37 -37q82 -16 204 -16t172 50q51 50 52 130
q0 115 -119 168q-45 20 -132 45q-87 24 -167 62t-133 91t-80 125t-27 170t40 177t112 132t169 82t255 29zM920 1903l59 -72l-287 -301h-100l-289 301l59 72h48l231 -142l231 142h48z" />
    <glyph glyph-name="scaron" unicode="&#x161;" horiz-adv-x="956" 
d="M815 1554l59 -71l-286 -301h-101l-286 301l59 71h47l230 -141l231 141h47zM547 1106q119 0 307 -35v-297h-182v107l-35 32q-69 11 -127 11t-100 -29t-41 -76q0 -47 21 -66q41 -36 139 -66q99 -31 169 -61q136 -59 180 -161q21 -51 21 -130t-35 -147t-96 -114
q-129 -97 -343 -95q-214 1 -349 48v305h182v-121l35 -37q78 -10 151 -10q74 0 112 36t38 71t-6 55q-11 36 -68 58q-57 21 -137 44q-247 71 -291 237q-14 53 -14 117t32 124q107 200 437 200z" />
    <glyph glyph-name="uni0162" unicode="&#x162;" horiz-adv-x="1232" 
d="M555 -266q29 0 47 9t18 41q1 57 -169 81v41l80 94h-228v174h111l37 37v1010h-185l-37 -37v-162h-182v412h1139v-412h-182v162l-37 37h-185v-1010l35 -37h113v-174h-234l-59 -74q194 -9 194 -135q0 -155 -249 -160q-136 0 -222 60l43 86q77 -43 152 -43z" />
    <glyph glyph-name="uni0163" unicode="&#x163;" horiz-adv-x="735" 
d="M352 -266q29 0 47 9q19 9 19 41q1 57 -170 81v41l74 87q-53 14 -89 43q-68 56 -67 197v678h-127v170h90l37 37l117 254h194v-291h230v-170h-230v-710l37 -37h199v-164q-103 -16 -236 -20l-43 -54q193 -9 195 -135q0 -155 -250 -160q-137 0 -221 60l43 86q77 -43 151 -43z
" />
    <glyph glyph-name="Tcaron" unicode="&#x164;" horiz-adv-x="1232" 
d="M47 1434h1139v-412h-182v162l-37 37h-185v-1010l35 -37h113v-174h-627v174h111l37 37v1010h-185l-37 -37v-162h-182v412zM895 1905l59 -72l-286 -301h-101l-288 301l59 72h47l231 -142l232 142h47z" />
    <glyph glyph-name="tcaron" unicode="&#x165;" horiz-adv-x="733" 
d="M610 1192v405h224v-124l-39 -281h-185zM442 -20q-141 0 -209 56t-67 197v678h-127v170h90l37 37l117 254h194v-291h230v-170h-230v-710l37 -37h199v-164q-130 -20 -271 -20z" />
    <glyph glyph-name="Tbar" unicode="&#x166;" horiz-adv-x="1232" 
d="M47 1434h1139v-412h-182v162l-37 37h-185v-433h205v-149h-205v-428l35 -37h113v-174h-627v174h111l37 37v428h-205v149h205v433h-185l-37 -37v-162h-182v412z" />
    <glyph glyph-name="tbar" unicode="&#x167;" horiz-adv-x="739" 
d="M442 -20q-141 0 -208.5 56t-67.5 197v304h-117v149h117v225h-127v170h90l37 37l117 254h194v-291h230v-170h-230v-225h230v-149h-230v-336l37 -37h199v-164q-130 -20 -271 -20z" />
    <glyph glyph-name="Utilde" unicode="&#x168;" horiz-adv-x="1390" 
d="M834 1260v174h507v-174h-92l-35 -37v-750q0 -368 -298 -464q-92 -29 -210 -29q-380 2 -490 273q-38 93 -38 220v750l-37 37h-90v174h590v-174h-92l-35 -37v-754q0 -135 49 -203t166 -67q191 0 221 152q10 50 11 118v754l-37 37h-90zM576 1827q66 -1 133 -29t103 -42
t78 -13q42 0 48 29v67h127v-92q0 -105 -48 -151t-119 -46t-139 26q-128 48 -166 48q-39 0 -48 -18v-78h-131v84q0 125 48 170t114 45z" />
    <glyph glyph-name="utilde" unicode="&#x169;" 
d="M614 211q63 0 144 55v608l-37 37h-90v174h344q61 0 78 -28q16 -29 16 -62v-794l37 -37h90v-164h-326q-61 0 -77 29t-17 61v37h-6q-129 -147 -295 -147q-315 0 -315 327v567l-37 37h-90v174h344q61 0 78 -32q16 -33 16 -68v-629q0 -64 15 -90q15 -27 40 -41t88 -14z
M402 1479q64 -1 133 -29t105 -42t78 -13q42 0 48 28v68h127v-92q0 -105 -48 -151t-122 -46t-168 37q-93 37 -134 37t-48 -19v-77h-131v84q0 125 48 170t112 45z" />
    <glyph glyph-name="Umacron" unicode="&#x16a;" horiz-adv-x="1390" 
d="M834 1260v174h507v-174h-92l-35 -37v-750q0 -368 -298 -464q-92 -29 -210 -29q-380 2 -490 273q-38 93 -38 220v750l-37 37h-90v174h590v-174h-92l-35 -37v-754q0 -135 49 -203t166 -67q191 0 221 152q10 50 11 118v754l-37 37h-90zM469 1794h541v-180h-541v180z" />
    <glyph glyph-name="umacron" unicode="&#x16b;" 
d="M614 211q63 0 144 55v608l-37 37h-90v174h344q61 0 78 -28q16 -29 16 -62v-794l37 -37h90v-164h-326q-61 0 -77 29t-17 61v37h-6q-129 -147 -295 -147q-315 0 -315 327v567l-37 37h-90v174h344q61 0 78 -32q16 -33 16 -68v-629q0 -64 15 -90q15 -27 40 -41t88 -14z
M297 1446h541v-180h-541v180z" />
    <glyph glyph-name="Ubreve" unicode="&#x16c;" horiz-adv-x="1390" 
d="M834 1260v174h507v-174h-92l-35 -37v-750q0 -368 -298 -464q-92 -29 -210 -29q-380 2 -490 273q-38 93 -38 220v750l-37 37h-90v174h590v-174h-92l-35 -37v-754q0 -135 49 -203t166 -67q191 0 221 152q10 50 11 118v754l-37 37h-90zM745 1724q57 0 93 31q35 31 47 70
l127 -31q-35 -164 -165 -218q-45 -20 -105 -20q-166 -1 -241 149q-22 42 -30 89l143 39q12 -41 43 -75t88 -34z" />
    <glyph glyph-name="ubreve" unicode="&#x16d;" 
d="M614 211q63 0 144 55v608l-37 37h-90v174h344q61 0 78 -28q16 -29 16 -62v-794l37 -37h90v-164h-326q-61 0 -77 29t-17 61v37h-6q-129 -147 -295 -147q-315 0 -315 327v567l-37 37h-90v174h344q61 0 78 -32q16 -33 16 -68v-629q0 -64 15 -90q15 -27 40 -41t88 -14z
M569 1376q57 0 93 31q35 31 47 70l127 -31q-35 -164 -165 -218q-45 -20 -105 -20q-166 -1 -241 149q-22 42 -30 89l143 39q12 -41 43 -75t88 -34z" />
    <glyph glyph-name="Uring" unicode="&#x16e;" horiz-adv-x="1390" 
d="M827 1692q0 90 -89 90t-89 -90t89 -90t89 90zM995 1692q0 -92 -73 -137q-74 -44 -184 -44t-184 44q-74 45 -73 137q0 92 74 136q73 44 183 44t184 -44t73 -136zM834 1260v174h507v-174h-92l-35 -37v-750q0 -368 -298 -464q-92 -29 -210 -29q-380 2 -490 273
q-38 93 -38 220v750l-37 37h-90v174h590v-174h-92l-35 -37v-754q0 -135 49 -203t166 -67q191 0 221 152q10 50 11 118v754l-37 37h-90z" />
    <glyph glyph-name="uring" unicode="&#x16f;" 
d="M655 1343q0 90 -90 91q-88 0 -88 -90t89 -91q89 0 89 90zM823 1343q1 -92 -73 -136t-184 -44t-184 44t-73 136q0 93 74 137q73 44 183 44t184 -44q73 -45 73 -137zM614 211q63 0 144 55v608l-37 37h-90v174h344q61 0 78 -28q16 -29 16 -62v-794l37 -37h90v-164h-326
q-61 0 -77 29t-17 61v37h-6q-129 -147 -295 -147q-315 0 -315 327v567l-37 37h-90v174h344q61 0 78 -32q16 -33 16 -68v-629q0 -64 15 -90q15 -27 40 -41t88 -14z" />
    <glyph glyph-name="Uhungarumlaut" unicode="&#x170;" horiz-adv-x="1390" 
d="M854 1530l-53 76l248 239h53l123 -139l-330 -176h-41zM575 1530l-73 82l243 284h54l114 -120l-297 -246h-41zM834 1260v174h507v-174h-92l-35 -37v-750q0 -368 -298 -464q-92 -29 -210 -29q-380 2 -490 273q-38 93 -38 220v750l-37 37h-90v174h590v-174h-92l-35 -37v-754
q0 -135 49 -203t166 -67q191 0 221 152q10 50 11 118v754l-37 37h-90z" />
    <glyph glyph-name="uhungarumlaut" unicode="&#x171;" 
d="M614 211q63 0 144 55v608l-37 37h-90v174h344q61 0 78 -28q16 -29 16 -62v-794l37 -37h90v-164h-326q-61 0 -77 29t-17 61v37h-6q-129 -147 -295 -147q-315 0 -315 327v567l-37 37h-90v174h344q61 0 78 -32q16 -33 16 -68v-629q0 -64 15 -90q15 -27 40 -41t88 -14z
M684 1182l-53 75l248 240h53l123 -139l-330 -176h-41zM406 1182l-74 82l243 284h54l114 -121l-297 -245h-40z" />
    <glyph glyph-name="Uogonek" unicode="&#x172;" horiz-adv-x="1390" 
d="M737 -369q-250 0 -250 170q0 106 119 185q-195 23 -311.5 142.5t-116.5 344.5v750l-37 37h-90v174h590v-174h-92l-35 -37v-754q0 -135 49 -202.5t166 -67.5q190 0 211 101t21 169v754l-37 37h-90v174h507v-174h-92l-35 -37v-750q0 -372 -305 -467q-92 -29 -151.5 -66.5
t-59.5 -97t30 -80t68 -20.5t72.5 12.5t46.5 22.5l43 -86q-84 -60 -221 -60z" />
    <glyph glyph-name="uogonek" unicode="&#x173;" 
d="M610 211q61 0 146 55v608l-37 37h-90v174h344q61 0 77.5 -28.5t16.5 -61.5v-794l37 -37h90v-164h-66q-202 -39 -202 -128t29.5 -109.5t67.5 -20.5t72.5 12.5t47.5 22.5l43 -86q-35 -25 -95.5 -42.5t-125.5 -17.5q-250 0 -250 170q0 120 143 199q-53 4 -68.5 31.5
t-15.5 58.5v37h-6q-129 -147 -295 -147q-315 0 -315 327v567l-37 37h-90v174h344q61 0 77.5 -32.5t16.5 -67.5v-629q0 -63 15.5 -89.5t40 -41t85.5 -14.5z" />
    <glyph glyph-name="Wcircumflex" unicode="&#x174;" horiz-adv-x="1970" 
d="M762 1530l-60 72l287 301h101l286 -301l-59 -72h-47l-230 141l-231 -141h-47zM1976 1260h-71l-35 -35l-365 -1229h-274l-238 838l-248 -838h-274l-381 1235l-27 29h-71v174h557v-174h-74l-35 -37l217 -791l273 1002h205l274 -988l209 777l-33 37h-88v174h479v-174z" />
    <glyph glyph-name="wcircumflex" unicode="&#x175;" horiz-adv-x="1619" 
d="M588 1182l-56 67l281 299h94l281 -299l-55 -67h-46l-227 149l-227 -149h-45zM1184 911v174h420v-174h-64l-33 -32l-288 -883h-226l-174 563l-172 -563h-227l-320 883l-30 32h-68v174h500v-174h-60l-30 -37l157 -499l205 710h174l199 -688l143 477l-35 37h-71z" />
    <glyph glyph-name="Ycircumflex" unicode="&#x176;" horiz-adv-x="1277" 
d="M-23 1260v174h578v-174h-74l-28 -31l239 -428l226 424l-31 35h-88v174h475v-174h-68l-35 -35l-352 -637v-377l35 -37h92v-174h-586v174h91l36 37v319l-405 695l-33 35h-72zM391 1530l-59 72l286 301h101l287 -301l-60 -72h-47l-229 141l-232 -141h-47z" />
    <glyph glyph-name="ycircumflex" unicode="&#x177;" horiz-adv-x="1142" 
d="M764 -184v-164h-504v164h133l37 37l43 120l-367 904l-34 34h-68v174h533v-174h-60l-35 -37l174 -497l179 497l-35 37h-68v174h438v-174h-61l-37 -37l-383 -1021l35 -37h80zM332 1182l-56 67l281 299h94l281 -299l-55 -67h-46l-227 149l-227 -149h-45z" />
    <glyph glyph-name="Ydieresis" unicode="&#x178;" horiz-adv-x="1277" 
d="M-23 1260v174h578v-174h-74l-28 -31l239 -428l226 424l-31 35h-88v174h475v-174h-68l-35 -35l-352 -637v-377l35 -37h92v-174h-586v174h91l36 37v319l-405 695l-33 35h-72zM705 1717q0 54 36 94q37 40 97 40t96 -40q37 -40 37 -94t-37 -92t-96 -38t-97 38q-36 38 -36 92z
M367 1717q0 54 37 94q38 40 98 40t95 -40q36 -40 36 -94t-36 -92t-95 -38t-98 38q-37 38 -37 92z" />
    <glyph glyph-name="Zacute" unicode="&#x179;" horiz-adv-x="1241" 
d="M1169 0h-1099v172l680 1051h-422l-33 -33v-166h-199v410h1037v-172l-676 -1049h481l33 33v166h198v-412zM578 1530l-86 94l268 272h53l145 -180l-340 -186h-40z" />
    <glyph glyph-name="zacute" unicode="&#x17a;" horiz-adv-x="1056" 
d="M526 1182l-86 94l269 272h53l145 -180l-340 -186h-41zM274 733h-198v352h895v-151l-533 -754h328l33 35v137h198v-352h-938v139l541 766h-293l-33 -33v-139z" />
    <glyph glyph-name="Zdotaccent" unicode="&#x17b;" horiz-adv-x="1241" 
d="M442 1699q0 67 50 115t105 49q132 2 181 -101q31 -66 0 -127q-28 -61 -93 -88q-32 -13 -69 -13q-74 0 -124 49t-50 116zM1169 0h-1099v172l680 1051h-422l-33 -33v-166h-199v410h1037v-172l-676 -1049h481l33 33v166h198v-412z" />
    <glyph glyph-name="zdotaccent" unicode="&#x17c;" horiz-adv-x="1056" 
d="M274 733h-198v352h895v-151l-533 -754h328l33 35v137h198v-352h-938v139l541 766h-293l-33 -33v-139zM350 1351q0 67 50 115t106 49q131 2 180 -101q14 -30 14 -64q0 -68 -52 -116t-124 -48q-37 0 -68 13q-66 27 -93 89q-13 30 -13 63z" />
    <glyph glyph-name="Zcaron" unicode="&#x17d;" horiz-adv-x="1241" 
d="M1169 0h-1099v172l680 1051h-422l-33 -33v-166h-199v410h1037v-172l-676 -1049h481l33 33v166h198v-412zM897 1903l59 -72l-286 -301h-101l-288 301l59 72h47l231 -142l232 142h47z" />
    <glyph glyph-name="zcaron" unicode="&#x17e;" horiz-adv-x="1056" 
d="M805 1554l59 -71l-286 -301h-101l-287 301l60 71h47l229 -141l232 141h47zM274 733h-198v352h895v-151l-533 -754h328l33 35v137h198v-352h-938v139l541 766h-293l-33 -33v-139z" />
    <glyph glyph-name="longs" unicode="&#x17f;" horiz-adv-x="727" 
d="M553 1516q88 0 244 -23v-242h-183v78l-26 27h-2q-81 0 -87.5 -79t-6.5 -116v-960l34 -37h125v-164h-598v164h90l37 37v710h-127v170h90l37 37v25q0 253 142.5 313t230.5 60z" />
    <glyph glyph-name="florin" unicode="&#x192;" horiz-adv-x="1030" 
d="M139 915h201l22 232q22 252 166 310.5t239 58.5q110 0 243 -23l-25 -233h-178l10 67l-26 27h-3q-47 0 -74.5 -42t-37.5 -147l-25 -250h226v-149h-242l-76 -766q-22 -253 -165.5 -311t-246.5 -58q-159 0 -235 23l25 235h178l-11 -67l27 -27h2q95 0 113 187l78 784h-185
v149z" />
    <glyph glyph-name="uni0218" unicode="&#x218;" horiz-adv-x="1144" 
d="M383 -270q0 151 149 151q76 0 114 -38t38 -91t-31 -110l-125 -230l-114 60l57 98l-18 41q-70 33 -70 119zM672 1454q158 0 354 -53v-379h-199v170l-34 35q-82 14 -175 14q-94 0 -155 -44t-61 -116t33 -104q65 -62 190 -99q237 -69 344 -167q106 -98 106 -262
q0 -230 -151 -351q-151 -120 -404 -119q-252 1 -430 56v397h199v-186l37 -37q82 -16 204 -16t172 50q51 50 52 130q0 115 -119 168q-45 20 -132 45q-87 24 -167 62t-133 91t-80 125t-27 170t40 177t112 132t169 82t255 29z" />
    <glyph glyph-name="uni0219" unicode="&#x219;" horiz-adv-x="956" 
d="M442 -119q76 0 114 -38t38 -91t-31 -110l-125 -230l-114 60l57 98l-19 41q-70 33 -69 119q0 151 149 151zM547 1106q119 0 307 -35v-297h-182v107l-35 32q-69 11 -127 11t-100 -29t-41 -76q0 -47 21 -66q41 -36 139 -66q99 -31 169 -61q136 -59 180 -161q21 -51 21 -130
t-35 -147t-96 -114q-129 -97 -343 -95q-214 1 -349 48v305h182v-121l35 -37q78 -10 151 -10q74 0 112 36t38 71t-6 55q-11 36 -68 58q-57 21 -137 44q-247 71 -291 237q-14 53 -14 117t32 124q107 200 437 200z" />
    <glyph glyph-name="uni021A" unicode="&#x21a;" horiz-adv-x="1232" 
d="M475 -270q0 151 150 151q75 0 113 -38t38 -91t-31 -110l-124 -230l-115 60l57 98l-18 41q-70 33 -70 119zM47 1434h1139v-412h-182v162l-37 37h-185v-1010l35 -37h113v-174h-627v174h111l37 37v1010h-185l-37 -37v-162h-182v412z" />
    <glyph glyph-name="uni021B" unicode="&#x21b;" horiz-adv-x="735" 
d="M315 -270q0 151 150 151q76 0 114 -38q72 -72 7 -201l-125 -230l-115 60l57 98l-18 41q-70 33 -70 119zM442 -20q-141 0 -209 56t-67 197v678h-127v170h90l37 37l117 254h194v-291h230v-170h-230v-710l37 -37h199v-164q-130 -20 -271 -20z" />
    <glyph glyph-name="uni0237" unicode="&#x237;" horiz-adv-x="614" 
d="M68 -369q-120 0 -205 23v252h182v-92l27 -27h2q94 0 94 215v872l-37 37h-90v174h344q61 0 77.5 -28.5t16.5 -61.5v-975q0 -257 -145.5 -323t-265.5 -66z" />
    <glyph glyph-name="circumflex" unicode="&#x2c6;" horiz-adv-x="819" 
d="M137 1182l-55 67l280 299h95l280 -299l-55 -67h-45l-227 149l-228 -149h-45z" />
    <glyph glyph-name="caron" unicode="&#x2c7;" horiz-adv-x="837" 
d="M696 1554l60 -71l-287 -301h-100l-287 301l59 71h47l230 -141l231 141h47z" />
    <glyph glyph-name="uni02C9" unicode="&#x2c9;" horiz-adv-x="819" 
d="M139 1446h541v-180h-541v180z" />
    <glyph glyph-name="breve" unicode="&#x2d8;" horiz-adv-x="819" 
d="M383 1208q-86 0 -157 71t-87 167l144 39q12 -41 42.5 -75t88.5 -34t92.5 31t46.5 70l127 -31q-35 -163 -123 -200.5t-174 -37.5z" />
    <glyph glyph-name="dotaccent" unicode="&#x2d9;" horiz-adv-x="759" 
d="M503 1466q52 -50 52 -116t-51.5 -115t-124 -49t-123.5 47t-51 117q0 69 51.5 117.5t123 48.5t123.5 -50z" />
    <glyph glyph-name="ring" unicode="&#x2da;" horiz-adv-x="817" 
d="M498 1343.5q0 90.5 -89 90.5t-90 -90.5t89 -90.5t90 90.5zM666 1343.5q0 -92.5 -74 -136.5t-184 -44t-183 44t-73 136.5t73.5 136.5t183.5 44t183.5 -44t73.5 -136.5z" />
    <glyph glyph-name="ogonek" unicode="&#x2db;" horiz-adv-x="819" 
d="M383 -369q-250 0 -250 170q0 127 136.5 195.5t326.5 83.5v-72q-115 -16 -183.5 -58t-68.5 -104t30 -83t68 -21t72.5 12.5t46.5 22.5l43 -86q-84 -60 -221 -60z" />
    <glyph glyph-name="tilde" unicode="&#x2dc;" horiz-adv-x="819" 
d="M560 1395q42 0 48 28v68h127v-92q0 -104 -48 -150.5t-119 -46.5t-169 37t-137 37t-47 -19v-77h-131v84q0 125 48 170t106 45t96.5 -13.5t75 -29t72.5 -28.5t78 -13z" />
    <glyph glyph-name="hungarumlaut" unicode="&#x2dd;" horiz-adv-x="819" 
d="M399 1182l-53 75l248 240h53l123 -139l-330 -176h-41zM121 1182l-74 82l244 284h53l115 -121l-297 -245h-41z" />
    <glyph glyph-name="uni0394" unicode="&#x394;" horiz-adv-x="1378" 
d="M258 176h707l-369 993zM1331 0h-1284v145l488 1293h290l506 -1297v-141z" />
    <glyph glyph-name="uni03A9" unicode="&#x3a9;" horiz-adv-x="1613" 
d="M924 387q147 86 147 412q0 141 -12 215q-36 221 -254 221t-254 -221q-12 -74 -12 -217q0 -330 153 -414v-383h-516l-125 338l178 59l68 -145l37 -35h215v51q-354 123 -354 572q0 307 162 461q162 153 456 153q433 0 559 -341q43 -116 43 -273q0 -446 -348 -572v-51h215
l37 35l67 145l179 -59l-125 -338h-516v387z" />
    <glyph glyph-name="uni03BC" unicode="&#x3bc;" horiz-adv-x="1333" 
 />
    <glyph glyph-name="pi" unicode="&#x3c0;" horiz-adv-x="1247" 
d="M164 0v874l-37 37h-90v174h1173v-174h-92l-35 -37v-874h-311v874l-37 37h-225l-35 -37v-874h-311z" />
    <glyph glyph-name="Wgrave" unicode="&#x1e80;" horiz-adv-x="1970" 
d="M1047 1530h-41l-340 186l145 180h53l269 -272zM1976 1260h-71l-35 -35l-365 -1229h-274l-238 838l-248 -838h-274l-381 1235l-27 29h-71v174h557v-174h-74l-35 -37l217 -791l273 1002h205l274 -988l209 777l-33 37h-88v174h479v-174z" />
    <glyph glyph-name="wgrave" unicode="&#x1e81;" horiz-adv-x="1619" 
d="M1184 911v174h420v-174h-64l-33 -32l-288 -883h-226l-174 563l-172 -563h-227l-320 883l-30 32h-68v174h500v-174h-60l-30 -37l157 -499l205 710h174l199 -688l143 477l-35 37h-71zM903 1182h-41l-340 186l146 180h53l268 -272z" />
    <glyph glyph-name="Wacute" unicode="&#x1e82;" horiz-adv-x="1970" 
d="M1004 1530l-86 94l268 272h53l145 -180l-340 -186h-40zM1976 1260h-71l-35 -35l-365 -1229h-274l-238 838l-248 -838h-274l-381 1235l-27 29h-71v174h557v-174h-74l-35 -37l217 -791l273 1002h205l274 -988l209 777l-33 37h-88v174h479v-174z" />
    <glyph glyph-name="wacute" unicode="&#x1e83;" horiz-adv-x="1619" 
d="M860 1182l-86 94l268 272h54l145 -180l-340 -186h-41zM1184 911v174h420v-174h-64l-33 -32l-288 -883h-226l-174 563l-172 -563h-227l-320 883l-30 32h-68v174h500v-174h-60l-30 -37l157 -499l205 710h174l199 -688l143 477l-35 37h-71z" />
    <glyph glyph-name="Wdieresis" unicode="&#x1e84;" horiz-adv-x="1970" 
d="M1976 1260h-71l-35 -35l-365 -1229h-274l-238 838l-248 -838h-274l-381 1235l-27 29h-71v174h557v-174h-74l-35 -37l217 -791l273 1002h205l274 -988l209 777l-33 37h-88v174h479v-174zM1075 1717q0 54 37 94t96 40q58 0 96 -40t38 -94t-38 -92q-36 -38 -96 -38t-96 38
q-37 38 -37 92zM737 1717q0 54 38 94t97 40q60 0 96 -40t36 -94t-36 -92t-96 -38t-97 38q-38 38 -38 92z" />
    <glyph glyph-name="wdieresis" unicode="&#x1e85;" horiz-adv-x="1619" 
d="M895 1369q0 54 37 94t96 40t96 -40t37 -94t-37 -92t-96 -38t-96 38t-37 92zM557 1369q0 54 38 94t97 40t95 -40t36 -94t-36 -92t-95 -38t-97 38t-38 92zM1184 911v174h420v-174h-64l-33 -32l-288 -883h-226l-174 563l-172 -563h-227l-320 883l-30 32h-68v174h500v-174
h-60l-30 -37l157 -499l205 710h174l199 -688l143 477l-35 37h-71z" />
    <glyph glyph-name="Ygrave" unicode="&#x1ef2;" horiz-adv-x="1277" 
d="M-23 1260v174h578v-174h-74l-28 -31l239 -428l226 424l-31 35h-88v174h475v-174h-68l-35 -35l-352 -637v-377l35 -37h92v-174h-586v174h91l36 37v319l-405 695l-33 35h-72zM698 1530h-41l-340 186l146 180h53l268 -272z" />
    <glyph glyph-name="ygrave" unicode="&#x1ef3;" horiz-adv-x="1142" 
d="M764 -184v-164h-504v164h133l37 37l43 120l-367 904l-34 34h-68v174h533v-174h-60l-35 -37l174 -497l179 497l-35 37h-68v174h438v-174h-61l-37 -37l-383 -1021l35 -37h80zM637 1182h-41l-340 186l145 180h54l268 -272z" />
    <glyph glyph-name="endash" unicode="&#x2013;" horiz-adv-x="1171" 
d="M127 768h917v-215h-917v215z" />
    <glyph glyph-name="emdash" unicode="&#x2014;" horiz-adv-x="1763" 
d="M127 768h1509v-215h-1509v215z" />
    <glyph glyph-name="quoteleft" unicode="&#x2018;" horiz-adv-x="526" 
d="M438 1042q0 -76 -43 -120t-131 -43q-88 0 -132 44t-44 104t35 124l162 303l131 -70l-78 -147l16 -47q84 -37 84 -148z" />
    <glyph glyph-name="quoteright" unicode="&#x2019;" horiz-adv-x="526" 
d="M88 1290q0 76 43 120t131 44t132 -44t44 -104t-35 -124l-161 -303l-131 69l77 148l-16 47q-84 36 -84 147z" />
    <glyph glyph-name="quotesinglbase" unicode="&#x201a;" horiz-adv-x="526" 
d="M88 145q0 76 43 120t131 44t132 -44t44 -104t-35 -124l-161 -303l-131 69l77 148l-16 47q-84 36 -84 147z" />
    <glyph glyph-name="quotedblleft" unicode="&#x201c;" horiz-adv-x="929" 
d="M842 1042q0 -76 -43 -120t-131 -43q-88 0 -132 44t-44 102t34 126l162 303l131 -70l-78 -147l17 -47q84 -37 84 -148zM438 1042q0 -76 -43 -120t-131 -43q-88 0 -132 44t-44 104t35 124l162 303l131 -70l-78 -147l16 -47q84 -37 84 -148z" />
    <glyph glyph-name="quotedblright" unicode="&#x201d;" horiz-adv-x="925" 
d="M88 1290q0 76 43 120t131 44t132 -44t44 -104t-35 -124l-161 -303l-131 69l77 148l-16 47q-84 36 -84 147zM487 1290q0 76 43 120q44 44 132 44t132 -44t44 -120q0 -38 -35 -108l-162 -303l-131 69l78 148l-17 47q-84 36 -84 147z" />
    <glyph glyph-name="quotedblbase" unicode="&#x201e;" horiz-adv-x="925" 
d="M88 145q0 76 43 120t131 44t132 -44t44 -104t-35 -124l-161 -303l-131 69l77 148l-16 47q-84 36 -84 147zM487 145q0 76 43 120q44 44 132 44t132 -44t44 -120q0 -38 -35 -108l-162 -303l-131 69l78 148l-17 47q-84 36 -84 147z" />
    <glyph glyph-name="dagger" unicode="&#x2020;" horiz-adv-x="970" 
d="M57 1100l246 -47h109l-70 381h297l-72 -381h101l245 47v-246l-256 49h-79l61 -207l-84 -696h-129l-84 696l61 207h-88l-258 -49v246z" />
    <glyph glyph-name="daggerdbl" unicode="&#x2021;" horiz-adv-x="1044" 
d="M94 580l258 -50h86l-59 187l59 186h-86l-258 -49v246l246 -47h109l-70 381h297l-72 -381h101l245 47v-246l-256 49h-78l60 -186l-60 -187h78l256 50v-246l-245 47h-101l72 -381h-297l70 381h-109l-246 -47v246z" />
    <glyph glyph-name="bullet" unicode="&#x2022;" horiz-adv-x="782" 
d="M205 1218q75 73 185 73t188 -75q79 -75 78 -173q-1 -97 -78 -172q-77 -74 -186 -74q-110 0 -186 73t-76 174t75 174z" />
    <glyph glyph-name="ellipsis" unicode="&#x2026;" horiz-adv-x="1417" 
d="M985 146q0 69 51 116t124 47q74 0 124 -49t51 -117q0 -67 -52 -115t-124 -48q-73 0 -123 48q-51 49 -51 118zM84 146q0 69 51 116t124 47q75 0 125 -49t50 -117q0 -67 -52 -115t-125 -48t-123 48q-50 49 -50 118zM535 146q0 69 51 116t123 47q73 0 123 -48
q51 -48 52 -115q1 -66 -50 -116q-52 -50 -126 -50t-124 48q-50 49 -49 118z" />
    <glyph glyph-name="perthousand" unicode="&#x2030;" horiz-adv-x="2027" 
d="M426 1107q0 105 -16 155t-68 51q-52 0 -68 -50q-16 -51 -16 -155t16 -156t68 -53q52 0 68 51q16 52 16 157zM623 1106q0 -178 -77 -260t-204 -82t-204 83t-77 261t76 259t203 81t205 -82t78 -260zM1118 333q0 105 -16 155t-68 50t-67 -50q-17 -50 -17 -154t16 -156
t68 -53q51 0 68 51q16 52 16 157zM1315 332q0 -178 -77 -260t-204 -82t-204 83t-76 261q0 178 75 259q76 81 203 81t205 -82t78 -260zM1606 332q0 -104 16 -156t68 -53t68 51t16 157t-16 155t-68 50t-68 -50t-16 -154zM1970 330q0 -178 -77 -260t-203 -82t-204 83
q-77 83 -77 261t76 259t203 81q126 0 204 -82t78 -260zM129 0l997 1434h142l-996 -1434h-143z" />
    <glyph glyph-name="guilsinglleft" unicode="&#x2039;" horiz-adv-x="638" 
d="M61 475v92l340 381h158l-231 -424l231 -430h-158z" />
    <glyph glyph-name="guilsinglright" unicode="&#x203a;" horiz-adv-x="638" 
d="M578 475l-340 -381h-158l231 430l-231 424h158l340 -381v-92z" />
    <glyph glyph-name="fraction" unicode="&#x2044;" horiz-adv-x="184" 
d="M-475 0l997 1434h142l-996 -1434h-143z" />
    <glyph glyph-name="zero.superior" unicode="&#x2070;" horiz-adv-x="659" 
d="M330 1575q-52 0 -68 -50q-16 -51 -16 -155t16 -156t68 -53t68 51t16 157t-16 155t-68 51zM610 1368q0 -178 -76 -260t-204 -82q-127 0 -204 83t-77 261t76 259t203 81q126 0 204 -82t78 -260z" />
    <glyph glyph-name="four.superior" unicode="&#x2074;" horiz-adv-x="624" 
d="M305 1321v176l-133 -176h133zM500 1706v-385h73v-107h-73v-63l16 -16h57v-99h-354v99h70l16 16v63h-278v95l290 397h183z" />
    <glyph glyph-name="five.superior" unicode="&#x2075;" horiz-adv-x="589" 
d="M260 1161q80 0 80 79t-107 79h-157v381h436v-225h-123v57l-20 18h-154v-92h61q117 0 191 -51t74 -156q0 -151 -150 -205q-92 -33 -209 -14q-37 6 -65 17q-33 8 -62 22v170h131v-53l23 -19q20 -8 51 -8z" />
    <glyph glyph-name="six.superior" unicode="&#x2076;" horiz-adv-x="604" 
d="M375 1229q1 45 -13 69t-54 25q-40 0 -72 -25q2 -150 67 -149q72 0 72 80zM354 1710q84 0 160 -22v-172h-106v53l-15 16q-15 4 -39 4t-48 -17q-60 -43 -68 -169q54 43 108 43q99 0 156 -51t57 -154q0 -102 -73 -158q-73 -57 -187 -57q-113 0 -183 72t-69 229
q0 244 162 345q61 38 145 38z" />
    <glyph glyph-name="seven.superior" unicode="&#x2077;" horiz-adv-x="540" 
d="M518 1700v-105l-217 -559h-205l260 514h-180l-18 -18v-57h-117v225h477z" />
    <glyph glyph-name="eight.superior" unicode="&#x2078;" horiz-adv-x="608" 
d="M397 1507q0 84 -92 84q-39 0 -61 -14t-21 -37q0 -23 28 -45t126 -57q20 30 20 69zM199 1221q0 -76 95 -76t95 59q0 18 -16 38t-80 44l-70 25q-24 -36 -24 -90zM133 1654q68 56 186 56t171 -53t53 -129t-82 -129q102 -63 101 -160t-75 -155t-168 -58q-154 0 -212 48
t-58 120t37 106t68 48q-90 59 -89 154t68 152z" />
    <glyph glyph-name="nine.superior" unicode="&#x2079;" horiz-adv-x="604" 
d="M229 1507q-1 -45 13 -69t51 -25q37 0 76 23q-6 152 -68 151q-72 0 -72 -80zM248 1026q-84 0 -158 23v172h107v-54l14 -16q16 -4 40 -4q23 0 47 17q56 41 69 169q-55 -43 -109 -43q-150 0 -197 112q-16 38 -16 92q0 105 74 161q74 55 186 55q113 0 183 -72t69 -229
q-1 -246 -163 -345q-62 -38 -146 -38z" />
    <glyph glyph-name="parenleft.superior" unicode="&#x207d;" horiz-adv-x="387" 
d="M45 1311v96q0 222 281 385l36 -49q-145 -143 -145 -336v-96q0 -193 145 -332l-36 -49q-121 70 -201 162t-80 219z" />
    <glyph glyph-name="parenright.superior" unicode="&#x207e;" horiz-adv-x="385" 
d="M340 1407v-96q0 -217 -281 -381l-34 49q145 141 145 332v96q0 190 -145 336l34 49q281 -167 281 -385z" />
    <glyph glyph-name="zero.inferior" unicode="&#x2080;" horiz-adv-x="659" 
d="M246 68q0 -104 16 -156t68 -53t68 51t16 157t-16 155t-68 50t-68 -50t-16 -154zM610 66q0 -178 -76 -261q-77 -81 -204 -81t-204 82t-77 262q0 178 76 259t203 81q126 0 204 -82t78 -260z" />
    <glyph glyph-name="one.inferior" unicode="&#x2081;" horiz-adv-x="477" 
d="M137 346q33 0 60 18t32 39h119v-555l17 -16h79v-98h-389v98h78l17 16v383l-17 17h-78v98h82z" />
    <glyph glyph-name="two.inferior" unicode="&#x2082;" horiz-adv-x="600" 
d="M530 217q0 -67 -42 -118t-126 -103t-100 -68t-16 -39v-18h160l16 16v70h123v-223h-490v110q0 89 32 132t119 98t107 81t21 62q0 62 -66 64q-37 0 -59 -9l-16 -16v-66h-127v164q107 52 199 53q91 1 137 -15q128 -44 128 -175z" />
    <glyph glyph-name="three.inferior" unicode="&#x2083;" horiz-adv-x="583" 
d="M535 -78q0 -81 -64 -139q-64 -59 -195 -59q-132 0 -221 43v165h131v-63l13 -16q20 -10 55 -11q76 0 77 88t-69 88h-84v113h84q58 0 60 86q0 68 -70 70q-23 0 -41 -6l-16 -17v-65h-129v166q97 40 189 42q93 1 139 -15q126 -42 126 -160q0 -119 -102 -158v-6
q117 -34 117 -146z" />
    <glyph glyph-name="four.inferior" unicode="&#x2084;" horiz-adv-x="624" 
d="M305 18v177l-133 -177h133zM500 403v-385h73v-106h-73v-64l16 -16h57v-98h-354v98h70l16 16v64h-278v94l290 397h183z" />
    <glyph glyph-name="five.inferior" unicode="&#x2085;" horiz-adv-x="589" 
d="M260 -141q80 0 80 79t-107 78h-157v381h436v-225h-123v57l-20 19h-154v-92h61q117 0 191 -52t74 -155q0 -152 -150 -206q-53 -19 -151 -19t-185 45v170h131v-54l23 -18q20 -8 51 -8z" />
    <glyph glyph-name="six.inferior" unicode="&#x2086;" horiz-adv-x="604" 
d="M375 -74q1 46 -13 70t-54 24t-72 -24q2 -150 67 -150q72 0 72 80zM47 22q0 246 162 348q61 38 143 38t162 -23v-172h-106v53l-15 17q-15 4 -39 4t-58 -25q-51 -37 -58 -162q54 43 108 43q149 0 197 -111q16 -38 16 -92q0 -105 -73 -161q-73 -55 -187 -55q-113 0 -183 72
t-69 226z" />
    <glyph glyph-name="seven.inferior" unicode="&#x2087;" horiz-adv-x="540" 
d="M518 397v-104l-217 -559h-205l260 514h-180l-18 -19v-57h-117v225h477z" />
    <glyph glyph-name="eight.inferior" unicode="&#x2088;" horiz-adv-x="608" 
d="M397 205q0 82 -92 84q-39 -1 -61 -15t-21 -36q0 -22 29 -46q29 -23 125 -57q20 30 20 70zM199 -82q0 -74 95 -75t95 59q0 18 -16 38t-80 44l-70 24q-24 -36 -24 -90zM319 -276q-270 0 -270 165q0 74 37 109t68 47q-90 59 -89 155q1 95 68 151q67 57 185 57t172 -54
t53 -128q0 -75 -82 -130q102 -63 101 -160q-1 -96 -75 -154t-168 -58z" />
    <glyph glyph-name="nine.inferior" unicode="&#x2089;" horiz-adv-x="604" 
d="M229 205q-1 -45 13 -69t51 -25q37 0 76 22q-6 152 -68 152q-72 0 -72 -80zM90 -82h107v-53l14 -17q16 -4 40 -4t57 25q47 35 59 162q-55 -43 -109 -43q-150 0 -197 111q-16 38 -16 92q0 107 73 161t187 55q113 1 183 -71t69 -230q0 -244 -163 -345q-113 -69 -304 -15v172
z" />
    <glyph glyph-name="parenleft.inferior" unicode="&#x208d;" horiz-adv-x="387" 
d="M45 8v96q0 225 281 385l36 -49q-145 -143 -145 -336v-96q0 -193 145 -332l-36 -49q-121 70 -201 162t-80 219z" />
    <glyph glyph-name="parenright.inferior" unicode="&#x208e;" horiz-adv-x="385" 
d="M59 489q281 -167 281 -385v-96q0 -217 -281 -381l-34 49q145 141 145 332v96q0 190 -145 336z" />
    <glyph glyph-name="franc" unicode="&#x20a3;" horiz-adv-x="1314" 
d="M121 881h125v342l-37 37h-90v174h1136v-404h-192v160l-37 35h-448v-344h309v-150h-309v-96h309v-150h-309v-274l34 -37h133v-174h-626v174h90l37 37v274h-125v150h125v96h-125v150z" />
    <glyph glyph-name="lira" unicode="&#x20a4;" horiz-adv-x="1275" 
d="M555 477q0 -132 -63 -260h464l37 35v180h183v-432h-1080v174h90l37 37v274h-127v150h127v96h-127v150h127v90q0 200 128 341.5t390 141.5q216 0 416 -94v-320h-190v160l-27 25q-76 26 -148 26q-134 0 -185.5 -59.5t-51.5 -220.5v-90h307v-150h-307v-96h307v-150h-307v-8z
" />
    <glyph glyph-name="peseta" unicode="&#x20a7;" horiz-adv-x="3063" 
d="M551 1233v-520h154q131 0 178 63q47 62 47 194t-47 198t-178 65h-154zM92 1260v174h613q265 0 417 -108t152 -337q0 -355 -335 -448q-105 -29 -234 -29h-154v-301l35 -37h108v-174h-602v174h90l37 37v1012l-37 37h-90zM2945 774h-182v107l-35 32q-69 11 -127 11
q-57 0 -99 -29t-42 -76t21 -66q41 -36 139 -66q99 -31 169 -61q136 -59 180 -161q21 -51 21 -130t-35 -147t-96 -114q-129 -97 -343 -95q-214 1 -349 48v305h182v-121l35 -37q78 -10 151 -10q74 0 112 36t38 71t-6 55q-11 36 -68 58q-57 21 -137 44q-247 71 -291 237
q-14 53 -14 117t32 124q107 200 437 200q119 0 307 -35v-297zM1513 233v678h-127v170h91l36 37l117 254h195v-291h229v-170h-229v-710l37 -37h198v-164q-367 -56 -479 36q-68 56 -68 197z" />
    <glyph glyph-name="Euro" unicode="&#x20ac;" horiz-adv-x="1384" 
d="M1290 61q-178 -81 -382 -81q-276 0 -447.5 134t-214.5 404h-183v150h168v100h-168v150h185q51 274 234.5 405t461.5 131q176 0 322 -43v-340h-191v143l-35 35q-46 8 -115 8q-296 0 -347 -339h346v-150h-357v-41q0 -41 2 -59h355v-150h-342q29 -166 114.5 -250t264.5 -84
h39q38 0 63 4l37 37v158h190v-322z" />
    <glyph glyph-name="uni2113" unicode="&#x2113;" horiz-adv-x="933" 
d="M625 1186q0 61 -13.5 89t-48.5 28q-29 0 -49 -58.5t-20 -177.5v-287q131 193 131 406zM598 -20q-164 0 -255 50t-103 177l-88 -90l-117 139l203 225v621q0 189 93 283t251 94q206 0 251.5 -104.5t45.5 -183.5q0 -158 -88.5 -321.5t-296.5 -394.5v-211q0 -47 24.5 -66.5
t79.5 -19.5t114.5 13.5t90.5 31.5l59 -164q-66 -46 -151.5 -62.5t-112.5 -16.5z" />
    <glyph glyph-name="trademark" unicode="&#x2122;" horiz-adv-x="1765" 
d="M131 1434h580v-228h-103v72l-16 16h-76v-376l14 -17h72v-108h-364v108h71l17 17v376h-76l-17 -16v-72h-102v228zM1106 901v-108h-315v108h61l16 17v391l-16 16h-61v109h296l136 -297l127 297h295v-109h-62l-16 -16v-391l16 -17h62v-108h-345v108h62l16 17v274l-94 -223
h-164l-92 211v-262l16 -17h62z" />
    <glyph glyph-name="Omega" unicode="&#x2126;" horiz-adv-x="1613" 
d="M924 387q147 85 147 411q0 142 -12 215.5t-43 123t-82 74t-164.5 24.5t-172 -93t-58.5 -291q0 -197 33.5 -309t119.5 -159v-383h-516l-125 338l178 59l68 -145l37 -35h215v51q-354 123 -354 578t238.5 531.5t376.5 76.5q284 0 444.5 -153.5t160.5 -460.5
q0 -446 -348 -572v-51h215l37 35l67 145l179 -59l-125 -338h-516v387z" />
    <glyph glyph-name="estimated" unicode="&#x212e;" horiz-adv-x="1611" 
d="M86 714.5q0 153.5 58.5 288t158.5 233.5t233.5 155.5t281.5 56.5t277.5 -55.5t227.5 -150.5t159.5 -223t71.5 -271v-5l-65 -88h-1024l-19 -26v-348q66 -98 167.5 -152.5t224.5 -54.5q283 0 446 207h150q-230 -301 -596 -301q-314 0 -474.5 157.5t-219 290.5t-58.5 286.5z
M819 1354q-244 0 -373 -152v-418l19 -26h692l21 26v418q-59 72 -153.5 112t-205.5 40z" />
    <glyph glyph-name="uni2153" unicode="&#x2153;" horiz-adv-x="1277" 
d="M201 1382q33 0 59 18t33 40h119v-555l16 -17h80v-98h-389v98h78l16 17v383l-16 16h-78v98h82zM59 0l998 1434h141l-995 -1434h-144zM1194 188q0 -80 -63 -139t-197 -59q-133 0 -219 43v166h131v-64l12 -16q20 -10 55 -10q78 0 78 88t-69 88h-84v112h84q59 0 59 86
q0 68 -70 70q-20 0 -41 -6l-16 -17v-65h-129v166q104 43 192 43q205 0 250 -111q12 -31 13 -63q0 -121 -103 -160v-6q117 -34 117 -146z" />
    <glyph glyph-name="uni2154" unicode="&#x2154;" horiz-adv-x="1349" 
d="M292 1444q91 0 137 -16q128 -43 128 -175q0 -96 -104 -177q-37 -28 -93 -62t-72 -50q-16 -15 -16 -38v-19h160l17 17v69h122v-223h-489v111q0 87 26 124t60 61q32 24 92 62t80 63q20 26 20 62q0 62 -65 64q-35 0 -59 -8l-17 -17v-65h-127v164q109 53 200 53zM135 0
l998 1434h141l-995 -1434h-144zM1270 188q0 -79 -64 -138q-64 -60 -196 -60q-133 0 -219 43v166h131v-64l12 -16q20 -10 55 -10q78 0 78 88t-70 88h-84v112h84q58 0 60 86q0 68 -70 70q-20 0 -41 -6l-16 -17v-65h-129v166q104 43 192 43q262 0 262 -176q0 -119 -102 -158v-6
q117 -34 117 -146z" />
    <glyph glyph-name="uni2155" unicode="&#x2155;" horiz-adv-x="1292" 
d="M59 0l998 1434h141l-995 -1434h-144zM201 1382q33 0 59 18t33 40h119v-555l16 -17h80v-98h-389v98h78l16 17v383l-16 16h-78v98h82zM946 -10q-140 0 -223 45v170h131v-53l23 -19q20 -8 51 -8q78 0 80 80q0 78 -107 78h-158v381h437v-226h-123v58l-21 18h-153v-92h61
q117 0 191 -51t73 -156q0 -153 -149 -206q-53 -19 -113 -19z" />
    <glyph glyph-name="uni2156" unicode="&#x2156;" horiz-adv-x="1363" 
d="M292 1444q91 0 137 -16q128 -43 128 -175q0 -96 -104 -177q-37 -28 -93 -62t-72 -50q-16 -15 -16 -38v-19h160l17 17v69h122v-223h-489v111q0 87 26 124t60 61q32 24 92 62t80 63q20 26 20 62q0 62 -65 64q-35 0 -59 -8l-17 -17v-65h-127v164q109 53 200 53zM1022 -10
q-140 0 -223 45v170h131v-53l22 -19q20 -8 52 -8q79 0 79 79t-106 79h-158v381h436v-226h-122v58l-21 18h-154v-92h62q116 0 190 -51t74 -156q0 -153 -149 -206q-53 -19 -113 -19zM135 0l998 1434h141l-995 -1434h-144z" />
    <glyph glyph-name="uni2157" unicode="&#x2157;" horiz-adv-x="1314" 
d="M972 -10q-138 0 -222 45v170h131v-53l22 -19q20 -8 51 -8q80 0 80 79t-106 79h-158v381h436v-226h-123v58l-20 18h-154v-92h62q117 0 191 -51t73 -156q0 -152 -150 -206q-53 -19 -113 -19zM86 0l997 1434h142l-996 -1434h-143zM102 1401q104 43 221 43t176 -51
q58 -51 58 -116q0 -127 -102 -167v-6q118 -34 116 -146q0 -80 -63 -139t-195 -59t-221 43v166h131v-64l13 -16q20 -10 55 -10q76 0 77 88t-69 88h-84v112h84q59 0 59 78t-69 78q-23 0 -41 -6l-17 -17v-65h-129v166z" />
    <glyph glyph-name="uni2158" unicode="&#x2158;" horiz-adv-x="1417" 
d="M336 1055v176l-133 -176h133zM530 1440v-385h74v-107h-74v-63l17 -17h57v-98h-354v98h69l17 17v63h-279v94l291 398h182zM1068 -10q-140 0 -224 45v170h131v-53l22 -19q20 -8 52 -8q79 0 79 79t-106 79h-158v381h436v-226h-122v58l-21 18h-153v-92h61q117 0 191 -51
t73 -156q0 -153 -149 -206q-52 -19 -112 -19zM180 0l998 1434h141l-995 -1434h-144z" />
    <glyph glyph-name="uni2159" unicode="&#x2159;" horiz-adv-x="1269" 
d="M931 287q-40 0 -73 -25q2 -150 68 -149q72 0 71 80q0 45 -13 69t-53 25zM978 674q86 0 159 -23v-172h-107v53l-14 17q-16 4 -40 4t-48 -17q-61 -44 -68 -169q52 41 107 42q149 3 198 -111q17 -38 17 -92q1 -101 -73 -158q-74 -58 -187 -58t-183 72t-69 229q0 245 161 345
q61 38 147 38zM201 1382q33 0 59 18t33 40h119v-555l16 -17h80v-98h-389v98h78l16 17v383l-16 16h-78v98h82zM59 0l998 1434h141l-995 -1434h-144z" />
    <glyph glyph-name="uni215A" unicode="&#x215a;" horiz-adv-x="1300" 
d="M966 287q-40 0 -73 -25q2 -150 68 -149q72 0 71 80q0 45 -13 69t-53 25zM1013 674q86 0 158 -23v-172h-106v53l-14 17q-16 4 -40 4q-23 0 -47 -17q-61 -44 -69 -169q52 41 107 42q149 3 198 -111q16 -38 16 -92q1 -101 -72 -158q-74 -58 -187 -58t-183 72t-69 229
q0 245 161 345q61 38 147 38zM293 895q78 0 80 80q0 78 -107 78h-157v381h436v-226h-123v58l-21 18h-153v-92h61q117 0 191 -51t73 -156q0 -153 -149 -206q-53 -19 -151 -19t-185 45v170h131v-53l23 -19q20 -8 51 -8zM94 0l998 1434h141l-995 -1434h-144z" />
    <glyph glyph-name="uni215B" unicode="&#x215b;" horiz-adv-x="1271" 
d="M59 0l998 1434h141l-995 -1434h-144zM201 1382q33 0 59 18t33 40h119v-555l16 -17h80v-98h-389v98h78l16 17v383l-16 16h-78v98h82zM1022 471q0 84 -92 84q-39 0 -61 -14q-21 -14 -21 -37q0 -22 26 -44t111 -52l16 -7q21 32 21 70zM823 184q-1 -75 95 -75t96 59
q0 47 -96 82l-70 24q-25 -38 -25 -90zM944 -10q-270 0 -270 166q0 74 37 108t67 47q-88 58 -88 154t68 152q68 57 186 57t171 -54q52 -54 52 -129q0 -76 -82 -129q101 -62 101 -160q0 -96 -74 -154t-168 -58z" />
    <glyph glyph-name="uni215C" unicode="&#x215c;" horiz-adv-x="1308" 
d="M100 0l998 1434h141l-995 -1434h-144zM1063 471q0 84 -92 84q-39 0 -61 -14t-22 -37q0 -22 28 -44q26 -22 110 -52l16 -7q21 32 21 70zM864 184q0 -75 96 -75t95 59q-1 18 -17 38t-80 44l-69 24q-25 -38 -25 -90zM985 -10q-270 0 -270 166q0 74 37 108t67 47
q-88 58 -88 154t68 152q68 57 186 57t171 -54q52 -54 52 -129q0 -76 -82 -129q101 -62 101 -160q0 -96 -74 -154t-168 -58zM100 1401q104 43 221 43t176 -51q58 -51 58 -116q0 -127 -102 -167v-6q118 -34 116 -146q0 -80 -63 -139t-195 -59t-221 43v166h131v-64l12 -16
q20 -10 56 -10q76 0 77 88t-69 88h-84v112h84q59 0 59 78t-69 78q-23 0 -41 -6l-17 -17v-65h-129v166z" />
    <glyph glyph-name="uni215D" unicode="&#x215d;" horiz-adv-x="1335" 
d="M304 760q-139 0 -224 45v170h131v-53l22 -19q20 -8 52 -8q78 0 80 80q0 78 -107 78h-158v381h437v-226h-123v58l-21 18h-153v-92h61q117 0 191 -51t73 -156q0 -153 -149 -206q-52 -19 -112 -19zM127 0l997 1434h142l-996 -1434h-143zM997 555q-39 0 -61 -14t-21 -37
q0 -22 27 -44t111 -52l16 -7q19 29 21 70q0 84 -93 84zM891 184q0 -75 95 -75t95 59q0 18 -16 38t-80 44l-70 24q-24 -36 -24 -90zM1235 492q0 -75 -82 -130q102 -63 101 -160t-74 -155q-74 -57 -168 -57q-265 0 -271 166q0 74 37 108t68 47q-90 59 -89 155q1 95 68 151
q67 57 185 57t172 -54t53 -128z" />
    <glyph glyph-name="uni215E" unicode="&#x215e;" horiz-adv-x="1271" 
d="M580 1434v-105l-218 -559h-204l260 514h-180l-19 -18v-58h-117v226h478zM59 0l998 1434h141l-995 -1434h-144zM1022 471q0 84 -92 84q-39 0 -61 -14q-21 -14 -21 -37q0 -22 26 -44t111 -52l16 -7q21 32 21 70zM823 184q-1 -75 95 -75t96 59q0 47 -96 82l-70 24
q-25 -38 -25 -90zM944 -10q-270 0 -270 166q0 74 37 108t67 47q-88 58 -88 154t68 152q68 57 186 57t171 -54q52 -54 52 -129q0 -76 -82 -129q101 -62 101 -160q0 -96 -74 -154t-168 -58z" />
    <glyph glyph-name="uni215F" unicode="&#x215f;" horiz-adv-x="677" 
d="M193 1376q33 0 59 18t33 40h118v-555l17 -17h80v-98h-389v98h77l17 17v383l-17 16h-77v98h82zM51 0l998 1434h141l-995 -1434h-144z" />
    <glyph glyph-name="partialdiff" unicode="&#x2202;" horiz-adv-x="1118" 
d="M731 542.5q0 180.5 -37 271.5t-137 91t-137 -91t-37 -271.5t37 -271.5t137 -91t137 91t37 271.5zM1055 543q0 -275 -140 -419t-358 -144t-358 144t-140 418.5t140.5 419t357.5 144.5q33 0 64 -6q-102 153 -285 313l96 105q290 -129 456.5 -386.5t166.5 -588.5z" />
    <glyph glyph-name="Delta" unicode="&#x2206;" horiz-adv-x="1366" 
d="M252 176h706l-368 993zM1325 0h-1284v145l487 1293h291l506 -1297v-141z" />
    <glyph glyph-name="product" unicode="&#x220f;" horiz-adv-x="1515" 
d="M92 1434h1331v-174h-92l-35 -37v-1012l35 -37h92v-174h-585v174h90l37 37v1012l-37 37h-342l-35 -37v-1012l35 -37h92v-174h-586v174h90l37 37v1012l-37 37h-90v174z" />
    <glyph glyph-name="summation" unicode="&#x2211;" horiz-adv-x="1243" 
d="M74 1434h1007l64 -353l-152 -28l-55 178l-37 35h-434l266 -463l-379 -594h584l37 35l43 157l147 -30l-71 -371h-1020v143l383 580l-383 571v140z" />
    <glyph glyph-name="minus" unicode="&#x2212;" horiz-adv-x="1110" 
d="M117 791h876v-195h-876v195z" />
    <glyph glyph-name="uni2215" unicode="&#x2215;" horiz-adv-x="1081" 
d="M-27 0l998 1434h141l-995 -1434h-144z" />
    <glyph glyph-name="uni2219" unicode="&#x2219;" horiz-adv-x="530" 
d="M90 774q0 69 51 117q51 47 124 47q75 0 125 -49t50 -116q0 -66 -51 -115q-51 -48 -122 -49q-72 -1 -125 47q-52 49 -52 118z" />
    <glyph glyph-name="radical" unicode="&#x221a;" horiz-adv-x="1159" 
d="M190 870l-157 -71l-47 116l391 195l340 -684l315 1548l123 -14l-424 -2091z" />
    <glyph glyph-name="infinity" unicode="&#x221e;" horiz-adv-x="1740" 
d="M1266 500q86 0 133 46t47 132t-47 132t-133 46q-131 0 -287 -178q167 -178 287 -178zM293 678q0 -86 47 -132t133 -46q131 0 287 178q-167 178 -287 178q-86 0 -133 -46t-47 -132zM480 311q-107 0 -181 29t-123 79t-72.5 116.5t-23.5 183.5t107.5 221t276.5 104
q170 0 268.5 -87t135.5 -123q96 96 186 153t198 57t179.5 -28.5t123 -78.5t78 -116.5t26.5 -185.5t-101.5 -221.5t-290.5 -102.5q-188 0 -397 209q-97 -97 -190 -153t-200 -56z" />
    <glyph glyph-name="integral" unicode="&#x222b;" horiz-adv-x="1210" 
d="M1025 1540q-69 0 -122 -44t-65 -163l-158 -1243q-16 -193 -131 -282t-342 -89q-97 0 -227 29l38 135q103 -20 171 -20q69 0 121 44t63 163l153 1245q23 193 138.5 280.5t339.5 87.5q112 0 227 -28l-39 -135q-98 20 -167 20z" />
    <glyph glyph-name="approxequal" unicode="&#x2248;" horiz-adv-x="1165" 
d="M396 1057q86 0 138 -24.5t95 -55.5t81 -55.5t65 -24.5t77 43l113 98l106 -90q-49 -104 -128 -169.5t-180 -65.5t-182 55t-121 79.5t-75 24.5t-78 -43l-100 -98l-105 88q47 104 127.5 171t166.5 67zM396 690q86 0 138 -24.5t95 -55t81 -55.5t68 -25t51 19l136 123l106 -90
q-49 -104 -128 -170t-180 -66t-183 55.5t-123 80t-73 24.5t-52 -19l-125 -122l-105 88q47 104 127.5 170.5t166.5 66.5z" />
    <glyph glyph-name="notequal" unicode="&#x2260;" horiz-adv-x="1116" 
d="M119 963h502l59 129h117l-58 -129h256v-195h-344l-63 -143h407v-195h-495l-64 -143h-119l64 143h-262v195h350l66 143h-416v195z" />
    <glyph glyph-name="lessequal" unicode="&#x2264;" horiz-adv-x="1107" 
d="M111 758v137l876 303v-199l-561 -170l561 -180v-196zM111 373h876v-195h-876v195z" />
    <glyph glyph-name="greaterequal" unicode="&#x2265;" horiz-adv-x="1107" 
d="M121 649l561 180l-561 170v199l876 -303v-137l-876 -305v196zM121 178v195h876v-195h-876z" />
    <glyph glyph-name="lozenge" unicode="&#x25ca;" horiz-adv-x="1253" 
d="M299 723l330 -664l327 654l-329 663zM481 -164l-432 860l434 906h291l432 -861l-434 -905h-291z" />
    <glyph glyph-name="sidebaring" unicode="&#xe000;" horiz-adv-x="6" 
d="M-51 1497h102v-4h-45v-57h45v-4h-45v-345h45v-4h-45v-1081h45v-4h-45v-344h45v-4h-102v4h51v344h-51v4h51v1081h-51v4h51v345h-51v4h51v57h-51v4z" />
    <glyph glyph-name="cent.denominator" unicode="&#xf629;" horiz-adv-x="514" 
d="M213 333q0 -95 45 -128v258q-45 -35 -45 -130zM332 -12h-74v86q-90 12 -152.5 71.5t-62.5 177.5t61.5 183t153.5 82v88h74v-80q68 0 129 -25v-170h-99v68l-14 14h-16v-305h22q41 0 103 19v-88q-37 -32 -125 -37v-84z" />
    <glyph glyph-name="dollar.denominator" unicode="&#xf62a;" horiz-adv-x="606" 
d="M393 168q0 43 -49 59v-118q31 8 40 22.5t9 36.5zM209 502q0 -25 10 -40.5t51 -31.5v127q-61 -12 -61 -55zM270 -10q-96 0 -213 26v187h115v-76l16 -18q35 -7 82 -7v146q-102 23 -158.5 70t-56.5 142q0 178 215 212v73h74v-69q117 -6 193 -27v-176h-115v66l-14 14
q-17 5 -64 10v-153q98 -23 157.5 -67t59.5 -136t-59.5 -146.5t-157.5 -66.5v-90h-74v86z" />
    <glyph glyph-name="hyphen.denominator" unicode="&#xf62b;" horiz-adv-x="374" 
d="M70 387h235v-135h-235v135z" />
    <glyph glyph-name="parenleft.denominator" unicode="&#xf62c;" horiz-adv-x="387" 
d="M45 274v97q0 222 281 385l36 -49q-145 -143 -145 -336v-97q0 -193 145 -331l-36 -49q-121 70 -201 161.5t-80 218.5z" />
    <glyph glyph-name="parenright.denominator" unicode="&#xf62d;" horiz-adv-x="385" 
d="M340 371v-97q0 -221 -281 -380l-34 49q145 141 145 331v97q0 190 -145 336l34 49q281 -167 281 -385z" />
    <glyph glyph-name="cent.numerator" unicode="&#xf62e;" horiz-adv-x="514" 
d="M213 1103q0 -95 45 -128v258q-45 -35 -45 -130zM332 758h-74v86q-90 12 -153 71q-62 59 -62 177t61 184t154 82v88h74v-80q68 0 129 -25v-170h-99v68l-14 14h-16v-305h22q57 0 103 19v-88q-36 -32 -125 -37v-84z" />
    <glyph glyph-name="dollar.numerator" unicode="&#xf62f;" horiz-adv-x="606" 
d="M393 938q0 43 -49 59v-118q31 9 40 23t9 36zM209 1272q0 -25 10 -40t51 -32v127q-61 -12 -61 -55zM270 760q-96 0 -213 26v187h115v-76l16 -18q35 -7 82 -7v146q-102 24 -158 70t-56 142q-1 179 214 212v74h74v-70q117 -6 193 -27v-176h-115v66l-14 14q-18 5 -64 10v-153
q98 -23 158 -67t59 -136q0 -93 -59 -147t-158 -66v-90h-74v86z" />
    <glyph glyph-name="hyphen.numerator" unicode="&#xf630;" horiz-adv-x="374" 
d="M70 1157h235v-135h-235v135z" />
    <glyph glyph-name="parenleft.numerator" unicode="&#xf631;" horiz-adv-x="387" 
d="M45 1044v97q0 222 281 385l36 -49q-145 -143 -145 -336v-97q0 -193 145 -331l-36 -49q-121 70 -201 162t-80 218z" />
    <glyph glyph-name="parenright.numerator" unicode="&#xf632;" horiz-adv-x="385" 
d="M340 1141v-97q0 -114 -81 -219q-71 -88 -200 -161l-34 49q145 141 145 331v97q0 190 -145 336l34 49q281 -167 281 -385z" />
    <glyph glyph-name="zero.denominator" unicode="&#xf655;" horiz-adv-x="659" 
d="M414 333q0 105 -16.5 155.5t-67.5 50.5t-67.5 -50.5t-16.5 -155t16.5 -156.5t67.5 -52t67.5 51.5t16.5 156.5zM610 332q0 -178 -76.5 -260t-203.5 -82t-204 83t-77 261t76 259t203 81t204.5 -82t77.5 -260z" />
    <glyph glyph-name="one.denominator" unicode="&#xf656;" horiz-adv-x="475" 
d="M135 612q33 0 59.5 17.5t32.5 40.5h119v-555l16 -17h80v-98h-389v98h78l16 17v383l-16 16h-78v98h82z" />
    <glyph glyph-name="two.denominator" unicode="&#xf657;" horiz-adv-x="600" 
d="M266 674q149 0 206.5 -53t57.5 -129t-33.5 -117t-70.5 -68.5t-93 -62.5t-71.5 -50.5t-15.5 -37.5v-19h160l16 17v69h123v-223h-490v111q0 86 27 122.5t59.5 61t92.5 62.5t80 63.5t20 62.5q0 64 -66 64q-35 0 -59 -8l-16 -17v-65h-127v164q109 53 200 53z" />
    <glyph glyph-name="three.denominator" unicode="&#xf658;" horiz-adv-x="583" 
d="M262 397q60 0 60 78t-70 78q-23 0 -41 -6l-16 -17v-65h-129v166q104 43 192 43q146 0 204 -50.5t58 -116.5q0 -128 -102 -167v-6q117 -34 117 -146q0 -79 -64.5 -138.5t-195.5 -59.5t-220 43v166h131v-64l13 -16q20 -10 55 -10q78 0 78 88t-70 88h-84v112h84z" />
    <glyph glyph-name="four.denominator" unicode="&#xf659;" horiz-adv-x="624" 
d="M305 285v176l-133 -176h133zM500 670v-385h73v-107h-73v-63l16 -17h57v-98h-354v98h70l16 17v63h-278v94l290 398h183z" />
    <glyph glyph-name="five.denominator" unicode="&#xf65a;" horiz-adv-x="589" 
d="M340 204q0 79 -107 79h-157v381h436v-226h-123v58l-20 18h-154v-92h61q117 0 191 -51.5t74 -155.5q0 -150 -101.5 -187.5t-199.5 -37.5t-185 45v170h131v-53l23 -19q20 -8 51 -8q80 0 80 79z" />
    <glyph glyph-name="six.denominator" unicode="&#xf65b;" horiz-adv-x="604" 
d="M308 287q-40 0 -72 -25q2 -150 67 -149q72 0 72 80q0 45 -13.5 69.5t-53.5 24.5zM355 674q85 0 159 -23v-172h-106v53l-15 17q-15 4 -39 4t-66 -31.5t-50 -154.5q54 43 108 43q97 0 155 -51.5t58 -153.5t-73.5 -158.5t-186.5 -56.5t-182.5 71.5t-69.5 229.5
q0 245 111.5 314t196.5 69z" />
    <glyph glyph-name="seven.denominator" unicode="&#xf65c;" horiz-adv-x="542" 
d="M518 664v-105l-217 -559h-205l260 514h-180l-18 -18v-58h-117v226h477z" />
    <glyph glyph-name="eight.denominator" unicode="&#xf65d;" horiz-adv-x="610" 
d="M397 471q0 84 -92 84q-39 0 -60.5 -14.5t-21.5 -37t26.5 -44t110.5 -51.5l17 -7q20 30 20 70zM199 184q0 -75 95 -75t95 59q0 47 -96 82l-70 24q-24 -36 -24 -90zM66 465q0 96 67.5 152.5t181.5 56.5q173 0 200.5 -72.5t27.5 -101.5q0 -84 -82 -138q100 -62 100 -159
q0 -98 -73.5 -155.5t-167.5 -57.5q-155 0 -213 48.5t-58 120.5q0 71 37 105.5t68 46.5q-88 58 -88 154z" />
    <glyph glyph-name="nine.denominator" unicode="&#xf65e;" horiz-adv-x="604" 
d="M293 377q37 0 76 22q-6 152 -68 152q-72 0 -72 -80q0 -45 13.5 -69.5t50.5 -24.5zM250 -10q-82 0 -160 22v172h107v-53l14 -16q16 -4 40 -4t66 30.5t50 155.5q-55 -43 -109 -43q-97 0 -155 51.5t-58 149.5q0 159 102.5 189t153.5 30q117 0 186.5 -72t69.5 -229
q0 -246 -112.5 -314.5t-194.5 -68.5z" />
    <glyph glyph-name="comma.denominator" unicode="&#xf65f;" horiz-adv-x="315" 
d="M59 94q0 37 26 64.5t73 27.5t71.5 -25.5t24.5 -64.5t-16 -67l-86 -164l-72 43l37 65l-11 27q-47 20 -47 94z" />
    <glyph glyph-name="period.denominator" unicode="&#xf660;" horiz-adv-x="307" 
d="M57 89q0 40 28 69.5t69 29.5t68.5 -29.5t27.5 -69.5t-27.5 -69.5t-68.5 -29.5t-69 29.5t-28 69.5z" />
    <glyph glyph-name="zero.numerator" unicode="&#xf661;" horiz-adv-x="659" 
d="M246 1104q0 -104 16 -156t68 -53t68 51t16 157t-16 155t-68 50t-68 -50t-16 -154zM610 1102q0 -178 -76 -260t-204 -82q-127 0 -204 83t-77 261t76 259t203 81q126 0 204 -82t78 -260z" />
    <glyph glyph-name="one.numerator" unicode="&#xf662;" horiz-adv-x="475" 
d="M135 1382q33 0 60 18t32 40h119v-555l16 -17h80v-98h-389v98h78l16 17v383l-16 16h-78v98h82z" />
    <glyph glyph-name="two.numerator" unicode="&#xf663;" horiz-adv-x="600" 
d="M266 1444q90 0 136 -16q128 -43 128 -175q0 -96 -104 -177q-37 -28 -93 -62q-55 -34 -71 -50q-16 -15 -16 -38v-19h160l16 17v69h123v-223h-490v111q1 87 27 124t59 61t93 62t79 63q20 26 21 62q0 62 -66 64q-35 0 -59 -8l-16 -17v-65h-127v164q109 53 200 53z" />
    <glyph glyph-name="three.numerator" unicode="&#xf664;" horiz-adv-x="583" 
d="M535 958q0 -79 -64 -138q-64 -60 -195 -60q-132 0 -221 43v166h131v-64l13 -16q20 -10 55 -10q76 0 77 88t-69 88h-84v112h84q58 0 60 86q0 70 -70 70q-23 0 -41 -6l-16 -17v-65h-129v166q104 43 192 43q207 0 250 -111q12 -31 12 -63q0 -121 -102 -160v-6
q117 -34 117 -146z" />
    <glyph glyph-name="four.numerator" unicode="&#xf665;" horiz-adv-x="624" 
d="M305 1055v176l-133 -176h133zM500 1440v-385h73v-107h-73v-63l16 -17h57v-98h-354v98h70l16 17v63h-278v94l290 398h183z" />
    <glyph glyph-name="five.numerator" unicode="&#xf666;" horiz-adv-x="589" 
d="M260 895q80 0 80 79t-107 79h-157v381h436v-226h-123v58l-20 18h-154v-92h61q117 0 191 -51t74 -156q0 -152 -150 -206q-53 -19 -151 -19t-185 45v170h131v-53l23 -19q20 -8 51 -8z" />
    <glyph glyph-name="six.numerator" unicode="&#xf667;" horiz-adv-x="604" 
d="M375 963q1 45 -13 69t-54 25q-40 0 -72 -25q2 -150 67 -149q72 0 72 80zM355 1444q85 0 159 -23v-172h-106v54l-15 16q-15 4 -39 4t-48 -17q-60 -43 -68 -169q52 41 106 42q55 1 91 -11q124 -43 124 -189q0 -106 -73 -162q-73 -57 -187 -57q-113 0 -183 72t-69 229
q0 244 162 345q61 38 146 38z" />
    <glyph glyph-name="seven.numerator" unicode="&#xf668;" horiz-adv-x="542" 
d="M518 1434v-105l-217 -559h-205l260 514h-180l-18 -18v-58h-117v226h477z" />
    <glyph glyph-name="eight.numerator" unicode="&#xf669;" horiz-adv-x="610" 
d="M397 1241q0 84 -92 84q-39 0 -61 -14t-21 -37q0 -22 27 -44t110 -52l17 -7q20 30 20 70zM199 954q0 -75 95 -75t95 59q0 18 -16 38t-80 44l-70 24q-24 -36 -24 -90zM319 760q-270 0 -270 166q0 74 37 108t68 47q-90 59 -89 155q1 95 68 152q67 56 185 56t172 -54t53 -128
q0 -75 -82 -129q102 -63 101 -160t-75 -155t-168 -58z" />
    <glyph glyph-name="nine.numerator" unicode="&#xf66a;" horiz-adv-x="604" 
d="M229 1241q-1 -45 13 -69t51 -25q37 0 76 22q-6 152 -68 152q-72 0 -72 -80zM249 760q-83 0 -159 22v172h107v-53l14 -16q16 -4 40 -4t57 24q47 34 59 162q-55 -43 -109 -43q-99 0 -156 51t-57 155q0 103 74 159q74 55 186 55q113 0 183 -72t69 -229q-1 -246 -163 -345
q-62 -38 -145 -38z" />
    <glyph glyph-name="comma.numerator" unicode="&#xf66b;" horiz-adv-x="315" 
d="M254 866q0 -39 -16 -67l-86 -164l-72 43l37 65l-11 27q-45 19 -46 75t25 84q26 27 73 27q48 0 72 -26t24 -64z" />
    <glyph glyph-name="period.numerator" unicode="&#xf66c;" horiz-adv-x="307" 
d="M250 859q0 -39 -28 -69t-68 -30t-69 30q-28 30 -28 69q0 40 28 70q28 29 69 29q40 0 68 -30t28 -69z" />
    <glyph glyph-name="commaaccent" unicode="&#xf6c3;" horiz-adv-x="454" 
d="M127 -270q0 151 149 151q76 0 114 -38t38 -91t-31 -110l-125 -230l-114 60l57 98l-18 41q-70 33 -70 119z" />
    <glyph glyph-name="uniF8FF" unicode="&#xf8ff;" horiz-adv-x="2908" 
d="M143 10q0 -10 -10 -10h-22q-8 0 -9 10v62q0 10 9 10h22q10 0 10 -10v-62zM2591 854h96v23q0 37 -48 37t-48 -37v-23zM391 854h98v23q0 37 -49 37t-49 -37v-23zM2242 705q26 0 30.5 12t4.5 22v127q0 31 -32 31t-78 -31v-129q49 -32 75 -32zM926 299q0 66 -100 66t-101 -66
v-74h201v74zM1139 102q0 -67 102 -67h12q10 0 11 -10v-15q0 -10 -11 -10h-18q-80 0 -107.5 25.5t-27.5 72.5v258h-51q-8 0 -9 11v14q0 8 9 10h51v84q0 10 8 10h22q8 0 9 -10v-84h96q8 0 8 -8v-16q0 -10 -8 -11h-96v-254zM445 399q118 0 118 -94v-295q0 -10 -8 -10h-23
q-8 0 -8 10v287q0 63 -80 63q-47 0 -80.5 -17t-46.5 -30v-303q0 -10 -8 -10h-22q-10 0 -11 10v375q0 8 11 8h18q10 0 10 -8v-35q65 49 130 49zM684 301q0 98 142 98t141 -98v-100q0 -8 -9 -8h-233v-99q0 -67 100.5 -67t100.5 67v17q0 8 12 8h18q10 0 11 -8v-19
q1 -98 -141 -98t-142 98v209zM1561 997q23 0 22 -20v-55q0 -23 -22 -23h-64v-158q0 -37 49 -36h21q25 0 24 -23v-55q0 -23 -24 -23h-39q-92 0 -126 30t-34 93v172h-35q-23 0 -22 23v51q0 16 22 22l33 2h2v74q0 25 25 25h80q25 0 24 -25v-74h64zM1894 999h76q29 0 23 -22
l-172 -510q-8 -23 -29 -23h-57q-29 0 -23 23l33 121l-133 389q-8 23 22 22h82q16 0 25 -22l45 -143q14 -51 14 -76q7 7 21 71l49 148q4 10 8 16t16 6zM2466 883q0 125 170 125t170 -125v-88q0 -23 -23 -23h-192v-47q0 -37 48 -37t48 37v2q0 23 25 23h65q23 0 23 -23v-6
q0 -127 -127 -127t-167 35t-40 92v162zM264 883q0 125 171 125t171 -125v-88q0 -23 -24 -23h-191v-47q0 -37 49 -37t49 37v2q0 23 23 23h66q25 0 24 -23v-6q0 -127 -128 -127t-169 35t-41 92v162zM2286 594q-62 0 -119 43v-170q0 -23 -23 -23h-82q-23 0 -22 23v510
q0 23 22 22h74q25 0 25 -22l2 -14q51 45 123 45q116 0 116 -123v-164q0 -127 -116 -127zM863 897q-34 0 -62 -31v-239q0 -23 -21 -23h-84q-23 0 -22 23v350q0 23 22 22h78q23 0 23 -22v-12q55 43 120 43t103 -54q16 14 47 34t84 20t85 -32t32 -79v-270q0 -23 -25 -23h-78
q-27 0 -26 23v237q0 18 -5.5 25.5t-36.5 7.5t-65 -31v-239q0 -23 -22 -23h-78q-25 0 -25 23v237q0 18 -5 25.5t-39 7.5z" />
    <glyph glyph-name="f_f" unicode="&#xfb00;" horiz-adv-x="1484" 
d="M553 1516q88 0 244 -23v-242h-183v78l-26 27h-2q-81 0 -91 -122q-3 -36 -3 -73v-80h229v-170h-229v-710l34 -37h125v-164h-598v164h90l37 37v710h-127v170h90l37 37v25q0 253 209 341q76 32 164 32zM1286 1516q88 0 244 -23v-242h-182v78l-27 27h-2q-81 0 -91 -122
q-3 -36 -3 -73v-80h229v-170h-229v-710l35 -37h124v-164h-598v164h91l36 37v710h-127v170h91l36 37v25q0 253 209 341q76 32 164 32z" />
    <glyph glyph-name="f_f_i" unicode="&#xfb03;" horiz-adv-x="2123" 
d="M1610 1362q0 76 43 120t131 44t131 -44t43 -120t-43 -120t-131 -44t-131 44t-43 120zM1864 1085q61 0 78 -28q16 -29 16 -62v-794l35 -37h92v-164h-565v164h90l37 37v673l-37 37h-90v174h344zM553 1516q88 0 244 -23v-242h-183v78l-26 27h-2q-81 0 -91 -122
q-3 -36 -3 -73v-80h229v-170h-229v-710l34 -37h125v-164h-598v164h90l37 37v710h-127v170h90l37 37v25q0 253 209 341q76 32 164 32zM1286 1516q88 0 244 -23v-242h-182v78l-27 27h-2q-81 0 -91 -122q-3 -36 -3 -73v-80h229v-170h-229v-710l35 -37h124v-164h-598v164h91
l36 37v710h-127v170h91l36 37v25q0 253 209 341q76 32 164 32z" />
    <glyph glyph-name="f_f_l" unicode="&#xfb04;" horiz-adv-x="2170" 
d="M1913 1495q61 0 77 -29t17 -61v-1204l35 -37h92v-164h-565v164h90l37 37v1083l-37 37h-90v174h344zM553 1516q88 0 244 -23v-242h-183v78l-26 27h-2q-81 0 -91 -122q-3 -36 -3 -73v-80h229v-170h-229v-710l34 -37h125v-164h-598v164h90l37 37v710h-127v170h90l37 37v25
q0 253 209 341q76 32 164 32zM1286 1516q88 0 244 -23v-242h-182v78l-27 27h-2q-81 0 -91 -122q-3 -36 -3 -73v-80h229v-170h-229v-710l35 -37h124v-164h-598v164h91l36 37v710h-127v170h91l36 37v25q0 253 209 341q76 32 164 32z" />
    <glyph glyph-name="longs_t" unicode="&#xfb05;" horiz-adv-x="1396" 
d="M551 1516q88 0 244 -23v-242h-183v78l-26 27h-2q-81 0 -91 -122q-3 -36 -4 -73v-960l35 -37h125v-164h-598v164h90l37 37v710h-127v170h90l37 37v25q0 253 209 341q76 32 164 32zM1104 -20q-140 0 -209 56q-68 56 -68 197v678h-127v170h91l36 37l117 254h195v-291h229
v-170h-229v-710l37 -37h198v-164q-130 -20 -270 -20z" />
    <glyph glyph-name="zero.tab" unicode="&#xff10;" 
d="M831 717q0 262 -46 393t-171 131t-171 -131t-46 -393t46 -393t171 -131t171 131t46 393zM1025 170q-155 -190 -411 -190t-410 190q-155 190 -155 548t155 547q154 189 410 189q255 0 411 -188q155 -188 155 -547t-155 -549z" />
    <glyph glyph-name="one.tab" unicode="&#xff11;" 
d="M369 1333q86 0 173 37t103 84h166v-1243l35 -37h215v-174h-832v174h213l37 37v905l-37 37h-213v180h140z" />
    <glyph glyph-name="two.tab" unicode="&#xff12;" 
d="M135 1339q206 115 452 115q247 0 379 -123q113 -107 112 -267t-91 -269t-270 -230q-179 -121 -216 -165t-43 -68t-5 -49v-33h434l37 35v164h190v-449h-997v268q0 112 81 212t260 222q179 123 228 188t49 153t-46 142t-144 54t-174 -27l-33 -32v-152h-203v311z" />
    <glyph glyph-name="three.tab" unicode="&#xff13;" 
d="M154 1352q200 102 441 102q240 0 374 -116q114 -101 112 -255q0 -214 -155 -306q-47 -28 -105 -42v-8q135 -33 210 -109t75 -231q0 -275 -283 -376q-100 -36 -245 -36q-220 0 -445 99v327h199v-163l26 -29q86 -31 192 -31t160 62t54 176q0 224 -207 223h-151v190h149
q80 -1 134 51t54 167q0 143 -103 188q-38 16 -105 16t-154 -30l-29 -29v-164h-198v324z" />
    <glyph glyph-name="four.tab" unicode="&#xff14;" 
d="M653 582v532l-403 -532h403zM985 1454v-872h168v-189h-168v-182l35 -37h133v-174h-688v174h151l37 37v182h-616v189l649 872h299z" />
    <glyph glyph-name="five.tab" unicode="&#xff15;" 
d="M135 401h203v-147l33 -35q77 -27 155 -27q134 1 194 67t60 178q0 212 -276 212h-326v785h858v-416h-194v131l-37 35h-397v-312h145q274 0 421 -109q146 -110 146 -308t-126 -326q-150 -152 -425 -152q-233 0 -434 95v329z" />
    <glyph glyph-name="six.tab" unicode="&#xff16;" 
d="M643 674q-117 0 -217 -96q4 -219 47 -311q43 -91 158 -91t157 62t43 190q0 246 -188 246zM428 750q120 120 296 120t300 -111q123 -111 123 -327t-150 -335t-368 -117q-384 0 -492 352q-37 121 -37 281q0 365 130 576q164 265 511 265q116 0 224 -27q51 -10 92 -24v-336
h-199v152l-35 36q-37 7 -107 7t-130 -46q-150 -118 -158 -466z" />
    <glyph glyph-name="seven.tab" unicode="&#xff17;" 
d="M1118 1434v-168l-469 -1266h-346l565 1184h-491l-37 -35v-139h-195v424h973z" />
    <glyph glyph-name="eight.tab" unicode="&#xff18;" 
d="M821 1041q0 108 -54 162q-53 54 -149 54q-96 -1 -147 -43t-51 -111t37 -105q60 -58 252 -130l45 -16q67 81 67 189zM375 381q0 -201 231 -205q100 0 153 60q54 60 54 134q0 75 -49 123t-178 95l-117 41q-55 -55 -84 -161q-10 -40 -10 -87zM899 788q231 -122 231 -342
q0 -339 -315 -437q-96 -29 -225 -29q-252 1 -383 112q-111 96 -111 241t88 250q62 71 158 109q-201 123 -203 344q0 189 136 304q137 114 366 114t349 -117q95 -93 95 -235q0 -205 -186 -314z" />
    <glyph glyph-name="nine.tab" unicode="&#xff19;" 
d="M578 760q122 0 223 96q-4 207 -47 304q-42 97 -152 97t-159 -64q-48 -65 -48 -187q1 -246 183 -246zM485 -20q-187 0 -315 53v336h199v-152l34 -37q36 -8 107 -8t131 45q112 85 140 282q13 91 18 181q-121 -117 -296 -117t-299 111t-124 326t153 334q153 120 383 120
q229 0 370 -158q142 -158 141 -500t-125 -548q-161 -270 -517 -268z" />
    <glyph glyph-name="grave.case" horiz-adv-x="854" 
d="M573 1530h-41l-339 186l145 180h53l268 -272z" />
    <glyph glyph-name="dieresis.case" horiz-adv-x="698" 
d="M385 1719q0 54 37 94t96.5 40t96 -39.5t36.5 -93.5t-36.5 -92.5t-96 -38.5t-96.5 38t-37 92zM47 1719q0 54 38 94t97.5 40t95 -39.5t35.5 -93.5t-35.5 -92.5t-95 -38.5t-97.5 38t-38 92z" />
    <glyph glyph-name="macron.case" horiz-adv-x="819" 
d="M139 1794h541v-180h-541v180z" />
    <glyph glyph-name="acute.case" horiz-adv-x="854" 
d="M279 1530l-86 94l268 272h53l145 -180l-340 -186h-40z" />
    <glyph glyph-name="circumflex.case" horiz-adv-x="837" 
d="M141 1530l-59 72l287 301h100l287 -301l-60 -72h-47l-229 141l-232 -141h-47z" />
    <glyph glyph-name="caron.case" horiz-adv-x="839" 
d="M698 1903l60 -72l-287 -301h-100l-289 301l59 72h47l232 -142l231 142h47z" />
    <glyph glyph-name="breve.case" horiz-adv-x="819" 
d="M383 1556q-86 0 -157 71t-87 167l144 39q12 -41 42.5 -75t88.5 -34t92.5 31t46.5 70l127 -31q-35 -163 -123 -200.5t-174 -37.5z" />
    <glyph glyph-name="dotaccent.case" horiz-adv-x="759" 
d="M205 1699q0 69 51.5 117t123 48t123.5 -50t52 -115t-52 -115t-123.5 -50t-123 48t-51.5 117z" />
    <glyph glyph-name="ring.case" horiz-adv-x="817" 
d="M498 1692q0 90 -89 90t-90 -90t89 -90t90 90zM666 1691.5q0 -92.5 -74 -136.5t-184 -44t-183 44t-73 136.5t73.5 136.5t183.5 44t183.5 -44t73.5 -136.5z" />
    <glyph glyph-name="tilde.case" horiz-adv-x="819" 
d="M560 1743q42 0 48 29v67h127v-92q0 -104 -48 -150.5t-120 -46.5t-166.5 37t-135.5 37t-50 -18v-78h-131v84q0 125 48 170t106 45t96.5 -13.5t75 -29t72.5 -28.5t78 -13z" />
    <glyph glyph-name="hungarumlaut.case" horiz-adv-x="819" 
d="M399 1530l-53 76l248 239h53l123 -139l-330 -176h-41zM121 1530l-74 82l244 284h53l115 -120l-297 -246h-41z" />
    <glyph glyph-name="caron.salt" horiz-adv-x="505" 
d="M150 1192v405h223v-124l-39 -281h-184z" />
    <glyph glyph-name="commaaccent.salt" horiz-adv-x="454" 
d="M208 1186q-77 0 -115 38t-38 88t31 113l125 230l115 -60l-58 -98l19 -41q69 -33 69 -114t-35.5 -118.5t-112.5 -37.5z" />
    </font>
</defs>
</svg>
